osu file format v14

[General]
AudioFilename: Iggy Azalea - Beg For It (Lyric Video) ft M.mp3
AudioLeadIn: 0
PreviewTime: -1
Countdown: 1
SampleSet: Soft
StackLeniency: 0.7
Mode: 0
LetterboxInBreaks: 1
WidescreenStoryboard: 0

[Editor]
Bookmarks: 27573,40476,61121,76605,92089,112734
DistanceSpacing: 2
BeatDivisor: 8
GridSize: 4
TimelineZoom: 2.500003

[Metadata]
Title:Beg For It ft. MO
TitleUnicode:Beg For It ft. MØ
Artist:Iggy Azalea
ArtistUnicode:Iggy Azalea
Creator:Irreversible
Version:Inconsistancy Fest
Source:
Tags:
BeatmapID:672503
BeatmapSetID:299808

[Difficulty]
HPDrainRate:6.4
CircleSize:4
OverallDifficulty:8
ApproachRate:8.7
SliderMultiplier:1.76
SliderTickRate:1

[Events]
//Background and Video events
0,0,"Konachan.com_-_90721_city_final_fantasy_final_fantasy_vii_night_scenic_seo_tatsuya_train.jpg",0,0
//Break Periods
//Storyboard Layer 0 (Background)
//Storyboard Layer 1 (Fail)
//Storyboard Layer 2 (Pass)
//Storyboard Layer 3 (Foreground)
//Storyboard Sound Samples

[TimingPoints]
9508.57061118063,645.161290322581,4,2,1,60,1,0
12734,-76.9230769230769,4,2,1,60,0,0
13379,-100,4,2,1,60,0,0
30153,-66.6666666666667,4,2,1,60,0,0
30798,-100,4,2,1,60,0,0
32734,-80,4,2,1,60,0,0
33218,-100,4,2,1,60,0,0
37895,-80,4,2,1,60,0,0
38702,-100,4,2,1,60,0,0
40476,-111.111111111111,4,2,1,60,0,1
40637,-111.111111111111,4,2,1,60,0,0
61121,-111.111111111111,4,2,1,60,0,1
61444,-100,4,2,1,5,0,0
61605,-100,4,2,1,60,0,0
61685,-100,4,2,1,5,0,0
61766,-100,4,2,1,60,0,0
61847,-100,4,2,1,5,0,0
61927,-100,4,2,1,60,0,0
62008,-100,4,2,1,5,0,0
62089,-100,4,2,1,60,0,0
62169,-100,4,2,1,5,0,0
62250,-100,4,2,1,60,0,0
69589,-100,4,2,1,5,0,0
69669,-100,4,2,1,60,0,0
69750,-100,4,2,1,5,0,0
69831,-100,4,2,1,60,0,0
69911,-100,4,2,1,5,0,0
69992,-100,4,2,1,60,0,0
70073,-100,4,2,1,5,0,0
70153,-100,4,2,1,60,0,0
70234,-100,4,2,1,5,0,0
70315,-100,4,2,1,60,0,0
92089,-111.111111111111,4,2,1,60,0,1
92250,-111.111111111111,4,2,1,60,0,0
112734,-100,4,2,1,60,0,1
113218,-100,4,2,1,60,0,0
133379,-90.9090909090909,4,2,1,60,0,1
154024,-100,4,2,1,60,0,0

[Colours]
Combo1 : 212,212,212
Combo2 : 176,176,176
Combo3 : 193,132,255

[HitObjects]
52,312,9508,6,0,P|92:296|140:300,1,88,8|0,1:3|0:0,0:0:0:0:
384,360,10153,2,0,L|436:352,1,44,8|0,0:0|0:0,0:0:0:0:
504,248,10476,2,0,L|460:254,1,44,2|0,0:0|0:0,0:0:0:0:
348,192,10798,2,0,P|328:152|348:88,1,88,2|0,3:0|3:0,0:0:0:0:
116,258,11282,2,0,P|91:295|25:310,1,88,2|0,3:0|3:0,0:0:0:0:
36,228,11766,1,4,3:0:0:0:
264,368,12089,5,8,1:3:0:0:
248,16,12411,1,2,0:0:0:0:
432,264,12734,2,0,B|379:248|379:295|316:269,1,114.399994763184,8|0,0:0|0:0,0:0:0:0:
256,196,13218,1,2,0:0:0:0:
84,304,13379,6,0,P|36:316|-16:296,1,88,2|0,3:0|3:0,0:0:0:0:
116,131,13863,2,0,P|100:96|112:48,1,88,2|0,3:0|3:0,0:0:0:0:
332,132,14347,2,0,P|313:113|272:100,1,44,2|0,0:0|0:0,0:0:0:0:
256,196,14669,6,0,L|236:300,1,88,4|0,1:3|0:0,0:0:0:0:
268,356,15153,1,0,0:0:0:0:
420,264,15315,2,0,P|442:264|464:272,1,44,8|0,0:0|0:0,0:0:0:0:
244,364,15637,2,0,P|222:364|200:356,1,44,4|0,3:0|0:0,0:0:0:0:
60,226,15960,6,0,L|36:330,1,88,2|0,3:0|3:0,0:0:0:0:
256,104,16444,2,0,L|236:18,1,88,2|0,0:0|3:0,0:0:0:0:
172,192,16927,2,0,P|188:206|208:214,1,44,2|0,0:0|0:0,0:0:0:0:
388,192,17250,5,2,3:0:0:0:
376,104,17411,1,0,3:0:0:0:
404,208,17573,5,0,1:0:0:0:
392,120,17734,1,2,0:0:0:0:
420,224,17895,5,2,3:0:0:0:
408,136,18056,1,2,3:1:0:0:
220,268,18218,6,0,P|164:288|144:288,1,44,4|0,0:0|0:0,0:0:0:0:
16,192,18540,2,0,P|76:176|124:196,1,88,2|0,3:0|0:0,0:0:0:0:
364,316,19024,2,0,P|424:332|472:324,1,88,12|0,3:0|0:0,0:0:0:0:
408,136,19508,1,2,0:0:0:0:
80,356,19831,6,0,L|72:304,1,44,4|0,1:3|0:0,0:0:0:0:
24,96,20153,2,0,P|-14:139|-19:194,1,88,2|8,0:0|0:0,0:0:0:0:
220,268,20637,1,0,0:0:0:0:
104,160,20798,2,0,L|28:172,1,44,2|0,3:0|0:0,0:0:0:0:
220,268,21121,6,0,L|263:261,1,44,8|0,3:0|3:0,0:0:0:0:
364,316,21444,1,0,1:0:0:0:
112,264,21605,1,2,0:0:0:0:
192,92,21766,2,0,P|216:140|208:196,2,88,2|0|4,0:0|0:0|1:3,0:0:0:0:
64,320,22734,6,0,L|128:328,1,44,2|0,0:0|0:0,0:0:0:0:
348,352,23056,2,0,L|241:365,2,88,2|0|2,3:0|3:0|3:0,0:0:0:0:
416,264,23863,1,0,3:0:0:0:
456,372,24024,1,0,1:0:0:0:
504,188,24185,1,2,0:0:0:0:
300,32,24347,6,0,P|256:28|195:60,1,88,8|0,0:0|0:0,0:0:0:0:
112,24,24831,1,2,0:0:0:0:
20,188,24992,6,0,B|32:232|32:232|24:248|24:248|48:328,2,132,2|2|2,3:1|0:1|0:1,0:0:0:0:
80,32,26282,1,0,1:0:0:0:
256,300,26605,2,2,B|246:333|246:333|252:345|252:345|234:406,2,88,2|2|2,0:1|0:1|0:1,0:1:0:0:
492,196,27573,6,0,B|480:152|480:152|488:136|488:136|464:56,2,132,2|2|2,3:1|0:1|0:1,0:0:0:0:
432,352,28863,1,0,1:0:0:0:
256,88,29186,2,0,B|265:54|265:54|259:42|259:42|277:-18,1,88,2|2,0:1|0:0,0:0:0:0:
469,71,29831,1,0,1:0:0:0:
196,196,30153,6,0,P|92:184|48:164,1,132.000005035401,4|0,1:3|0:0,0:0:0:0:
256,40,30637,1,2,0:0:0:0:
200,200,30798,1,8,0:0:0:0:
344,272,30960,6,0,L|444:260,1,88,0|0,3:0|0:0,0:0:0:0:
140,364,31444,2,0,L|76:372,1,44,2|0,3:0|0:0,0:0:0:0:
392,344,31766,2,0,L|456:336,1,44,8|0,3:0|0:0,0:0:0:0:
96,292,32089,2,0,L|32:300,1,44,2|0,3:0|3:0,0:0:0:0:
160,112,32411,2,0,L|152:48,1,44,2|0,3:0|3:0,0:0:0:0:
420,235,32734,6,0,P|379:271|326:271,1,110,4|0,1:3|0:0,0:0:0:0:
352,200,33218,1,2,0:0:0:0:
504,368,33379,1,8,0:0:0:0:
352,200,33540,6,0,L|392:88,1,88,0|0,3:0|0:0,0:0:0:0:
328,52,34024,2,0,P|368:36|400:40,1,44,2|0,3:0|3:0,0:0:0:0:
160,112,34347,2,0,P|120:128|88:124,1,44,8|0,3:0|3:0,0:0:0:0:
32,92,34669,5,8,1:0:0:0:
208,32,34831,1,2,0:0:0:0:
264,200,34992,1,2,3:0:0:0:
88,260,35154,1,0,1:0:0:0:
340,156,35315,6,0,P|352:208|340:244,1,88,4|0,1:3|0:0,0:0:0:0:
32,92,35960,1,8,0:0:0:0:
120,20,36121,2,0,L|216:32,2,88,2|0|0,0:0|0:0|0:0,0:0:0:0:
21,132,36927,6,0,P|23:111|31:91,1,44,2|0,3:0|0:0,0:0:0:0:
111,296,37250,2,0,P|97:279|88:260,1,44,8|0,0:0|0:0,0:0:0:0:
298,353,37573,2,0,P|276:352|256:344,1,44,2|0,3:0|0:0,0:0:0:0:
491,132,37895,6,0,P|435:128|387:188,2,110,4|2|8,1:3|0:0|0:0,0:0:0:0:
116,160,38702,2,0,P|82:186|39:192,2,88,4|2|0,1:3|0:1|0:0,0:0:0:0:
50,103,39508,5,2,3:0:0:0:
136,252,39669,1,0,3:0:0:0:
255,40,39831,2,0,L|304:36,1,44,2|0,3:0|0:0,0:0:0:0:
476,188,40476,6,0,P|482:218|431:287,2,118.799996374512,4|2|0,1:3|0:0|3:0,0:0:0:0:
132,344,42089,2,0,L|48:336,2,79.1999975830079,8|8|2,3:0|0:0|0:0,0:0:0:0:
164,128,43056,6,0,P|124:192|158:260,1,158.399995166016,4|2,3:0|3:3,0:0:0:0:
348,144,44024,2,0,P|378:192|352:243,1,118.799996374512,8|0,3:0|0:0,0:0:0:0:
353,260,44669,2,0,P|388:192|348:128,1,158.399995166016,4|4,3:0|3:3,0:0:0:0:
127,54,45637,6,0,B|65:106|139:137|64:201,1,158.399995166016,2|4,3:0|3:0,0:0:0:0:
128,336,46605,2,0,B|66:283|140:252|65:188,1,158.399995166016,2|4,0:1|3:0,0:0:0:0:
256,356,47573,5,2,1:1:0:0:
448,192,47895,1,0,1:0:0:0:
256,28,48218,1,4,0:0:0:0:
204,192,48540,6,0,L|156:188,1,39.5999987915039,2|0,1:1|0:0,0:0:0:0:
308,192,48863,2,0,L|356:188,1,39.5999987915039,8|0,0:0|0:0,0:0:0:0:
136,272,49185,2,0,P|96:292|36:284,1,79.1999975830079,6|4,3:0|0:3,0:0:0:0:
256,324,49669,1,0,0:3:0:0:
160,108,49831,2,0,L|112:104,1,39.5999987915039,2|0,1:1|0:2,0:0:0:0:
376,272,50153,2,0,P|416:292|476:284,1,79.1999975830079,2|2,0:1|0:0,0:0:0:0:
432,208,50637,1,4,3:0:0:0:
256,324,50798,6,0,L|137:317,2,118.799996374512,4|2|0,1:3|0:0|3:0,0:0:0:0:
68,40,52411,2,0,P|64:88|32:116,2,79.1999975830079,8|8|2,3:0|0:0|0:0,0:0:0:0:
200,108,53379,6,0,P|256:88|336:168,1,158.399995166016,4|2,3:0|0:0,0:0:0:0:
213,254,54347,2,0,P|269:268|312:229,1,118.799996374512,4|0,3:0|0:0,0:0:0:0:
330,242,54992,2,0,P|274:293|200:276,1,158.399995166016,8|2,3:0|0:0,0:0:0:0:
452,108,55960,6,0,P|395:57|321:74,1,158.399995166016,4|2,3:0|0:0,0:0:0:0:
256,368,56927,2,0,P|328:344|350:271,1,158.399995166016,4|2,3:0|0:0,0:0:0:0:
122,202,57895,2,0,L|30:190,1,79.1999975830079,2|0,1:1|0:0,0:0:0:0:
268,288,58540,5,4,0:0:0:0:
72,92,58862,5,2,1:1:0:0:
44,192,59024,1,0,0:0:0:0:
111,78,59185,1,8,0:0:0:0:
44,192,59347,1,0,0:0:0:0:
159,79,59508,1,6,3:0:0:0:
440,92,59831,5,2,0:0:0:0:
468,192,59993,1,0,0:3:0:0:
401,78,60154,1,0,1:0:0:0:
468,192,60316,1,0,0:0:0:0:
281,261,60476,2,0,L|360:272,1,79.1999975830079,8|2,0:0|0:0,0:0:0:0:
192,344,60960,1,4,3:0:0:0:
32,328,61121,6,0,P|32:290|56:316,1,79.1999975830079,6|0,1:3|0:0,0:0:0:0:
192,344,61605,6,0,L|232:336,1,22,2|0,3:0|0:0,0:0:0:0:
340,364,61766,2,0,L|318:359,1,22,8|0,0:0|0:0,0:0:0:0:
176,332,61927,2,0,L|216:324,1,22,2|0,3:0|0:0,0:0:0:0:
356,348,62088,2,0,L|334:343,1,22,0|0,0:0|0:0,0:0:0:0:
292,248,62250,1,2,3:0:0:0:
408,96,62411,2,0,P|400:136|412:160,1,44,0|0,0:0|0:0,0:0:0:0:
480,132,62734,5,0,1:0:0:0:
304,40,62895,1,2,0:0:0:0:
176,164,63056,1,8,0:0:0:0:
392,236,63218,1,2,0:1:0:0:
160,76,63379,2,0,L|150:23,1,44,2|0,3:0|0:0,0:0:0:0:
56,240,63702,6,0,L|80:360,1,88,8|2,1:3|0:0,0:0:0:0:
164,368,64185,1,0,0:0:0:0:
256,332,64347,2,0,P|316:340|332:336,1,44,8|0,0:0|0:0,0:0:0:0:
424,152,64669,2,0,P|376:148|322:174,2,88,8|2|0,0:3|3:0|3:0,0:0:0:0:
496,328,65476,5,2,3:0:0:0:
392,228,65637,1,0,0:0:0:0:
256,332,65798,1,0,3:0:0:0:
44,188,65960,2,0,L|1:195,1,44,2|0,0:0|0:0,0:0:0:0:
170,347,66282,6,0,L|290:327,1,88,4|0,1:3|0:0,0:0:0:0:
360,368,66766,1,0,0:0:0:0:
476,232,66927,2,0,P|472:200|452:176,1,44,8|0,0:0|0:0,0:0:0:0:
270,292,67250,2,0,P|260:312|255:333,1,44,2|0,0:0|0:0,0:0:0:0:
56,244,67573,2,0,P|50:222|41:202,1,44,2|0,3:0|0:0,0:0:0:0:
4,120,67895,5,0,3:0:0:0:
204,176,68056,1,2,0:0:0:0:
16,92,68218,1,0,0:0:0:0:
204,176,68379,1,0,3:0:0:0:
352,104,68540,2,0,P|348:52|336:40,1,44,2|0,0:0|0:0,0:0:0:0:
148,288,68863,6,0,P|176:328|176:380,1,88,2|0,3:1|1:0,0:0:0:0:
98,354,69347,1,2,0:0:0:0:
384,268,69508,5,2,3:0:0:0:
352,104,69669,1,2,3:1:0:0:
384,268,69831,1,4,0:0:0:0:
104,192,69992,2,0,L|40:184,2,44,0|10|0,0:0|0:0|0:0,0:0:0:0:
352,104,70476,2,0,L|395:109,1,44,0|12,0:0|3:0,0:0:0:0:
272,152,70798,5,0,0:0:0:0:
244,48,70960,1,0,0:0:0:0:
128,256,71121,1,2,0:0:0:0:
100,152,71283,1,0,0:0:0:0:
172,328,71444,6,0,P|104:336|72:320,2,88,4|2|8,1:3|0:0|0:0,0:0:0:0:
256,372,72250,1,0,0:0:0:0:
464,140,72411,2,0,P|436:77|407:57,1,88,2|8,3:0|3:0,0:0:0:0:
512,220,72895,1,0,3:0:0:0:
300,248,73056,2,0,L|244:236,1,44,0|2,1:0|0:0,0:0:0:0:
372,140,73379,1,2,0:0:0:0:
364,332,73540,1,0,0:0:0:0:
175,205,73702,2,0,P|162:246|176:288,1,88,4|4,0:0|1:3,0:0:0:0:
464,140,74347,6,0,L|472:96,1,44,2|0,0:0|0:0,0:0:0:0:
512,220,74669,1,2,3:0:0:0:
0,164,74992,1,0,3:0:0:0:
213,347,75315,6,0,P|235:346|256:340,1,44,2|0,3:0|3:0,0:0:0:0:
100,149,75637,2,0,P|101:171|108:192,1,44,0|2,1:0|0:0,0:0:0:0:
298,36,75960,2,0,P|276:37|256:44,1,44,8|0,0:0|0:0,0:0:0:0:
411,234,76282,2,0,P|410:212|404:192,1,44,0|2,0:0|0:0,0:0:0:0:
214,348,76605,6,0,B|169:338|169:338|158:324|158:324|76:309,2,132,2|2|2,3:1|0:1|0:1,0:0:0:0:
4,368,77895,1,0,1:0:0:0:
104,148,78218,2,0,B|94:115|94:115|100:103|100:103|82:42,2,88,2|2|2,0:1|0:1|0:1,0:0:0:0:
332,344,79185,6,0,L|398:332,1,44,2|0,1:1|0:0,0:0:0:0:
416,216,79508,2,0,L|423:259,1,44,2|0,0:1|0:0,0:0:0:0:
104,147,79831,2,0,P|135:118|178:110,1,88,2|0,0:1|0:0,0:0:0:0:
464,212,80476,2,0,P|424:232|404:232,1,44,2|0,1:1|0:0,0:0:0:0:
408,148,80798,2,2,B|418:115|418:115|412:103|412:103|430:42,1,88,2|2,0:1|0:1,0:1:0:0:
328,224,81282,1,2,0:1:0:0:
472,312,81444,1,2,1:0:0:0:
328,224,81605,1,2,1:0:0:0:
120,320,81766,5,2,3:0:0:0:
96,192,81927,1,2,0:0:0:0:
132,304,82089,5,2,3:0:0:0:
108,176,82250,1,2,0:0:0:0:
149,319,82573,5,2,3:0:0:0:
114,128,82734,1,2,0:0:0:0:
212,384,83056,5,4,0:0:0:0:
119,22,83379,1,8,3:0:0:0:
492,348,83863,1,2,3:0:0:0:
156,272,84185,1,0,0:0:0:0:
256,128,84347,6,0,P|264:76|256:52,1,44,2|0,1:3|0:0,0:0:0:0:
120,83,84669,1,0,1:0:0:0:
156,272,84831,1,2,0:1:0:0:
308,144,84992,2,0,P|316:92|308:68,1,44,8|0,0:0|0:0,0:0:0:0:
76,232,85315,2,0,P|68:284|76:308,1,44,2|0,0:3|0:0,0:0:0:0:
344,348,85637,2,0,L|244:360,2,88,4|0|8,0:0|0:0|0:0,0:0:0:0:
408,140,86605,1,2,0:0:0:0:
488,192,86766,1,0,0:0:0:0:
404,136,86927,6,0,P|396:88|404:72,1,44,4|0,3:0|0:0,0:0:0:0:
480,40,87250,1,0,0:0:0:0:
288,76,87411,1,2,3:0:0:0:
476,20,87573,5,8,0:0:0:0:
284,56,87734,1,0,0:0:0:0:
120,16,87895,2,0,P|113:66|125:88,1,44,2|0,3:0|0:0,0:0:0:0:
256,284,88218,2,0,P|191:266|153:294,2,88,4|0|0,3:0|0:0|0:0,0:0:0:0:
476,84,89185,6,0,P|476:108|464:140,1,44,4|0,3:0|0:0,0:0:0:0:
380,176,89508,1,4,1:3:0:0:
208,148,89669,1,2,0:0:0:0:
364,188,89831,1,0,0:0:0:0:
192,160,89992,1,2,0:0:0:0:
280,240,90153,1,8,0:0:0:0:
100,244,90314,1,0,0:0:0:0:
256,356,90476,2,0,P|304:352|320:340,1,44,4|0,3:0|0:0,0:0:0:0:
44,172,90798,6,0,P|8:220|8:260,2,88,4|8|8,3:0|3:0|0:0,0:0:0:0:
256,356,91766,1,0,1:0:0:0:
468,172,92089,6,0,L|349:183,2,118.799996374512,4|2|0,1:3|0:0|3:0,0:0:0:0:
108,88,93702,2,0,P|84:56|36:44,2,79.1999975830079,8|8|2,3:0|0:0|0:0,0:0:0:0:
176,352,94669,6,0,P|233:349|244:244,1,158.399995166016,4|2,3:0|3:3,0:0:0:0:
336,32,95637,2,0,P|281:42|272:97,1,118.799996374512,2|0,3:1|0:3,0:0:0:0:
336,32,96282,2,0,P|279:35|268:140,1,158.399995166016,8|4,3:0|3:3,0:0:0:0:
184,320,97250,6,0,P|112:352|28:304,1,158.399995166016,2|4,3:0|3:0,0:0:0:0:
328,320,98218,2,0,P|400:352|484:304,1,158.399995166016,2|4,3:0|3:0,0:0:0:0:
164,80,99185,1,2,1:1:0:0:
256,344,99508,1,0,1:0:0:0:
348,80,99831,1,4,0:0:0:0:
184,260,100153,6,0,P|156:300|156:320,1,39.5999987915039,2|0,1:1|0:0,0:0:0:0:
353,289,100476,2,0,P|343:272|328:260,1,39.5999987915039,8|0,0:0|0:0,0:0:0:0:
116,176,100798,2,0,P|84:196|20:195,1,79.1999975830079,6|4,3:0|0:3,0:0:0:0:
252,40,101282,1,0,0:3:0:0:
256,208,101444,2,0,L|256:152,1,39.5999987915039,2|0,1:1|0:2,0:0:0:0:
396,176,101766,2,0,P|428:196|492:195,1,79.1999975830079,6|4,3:0|0:3,0:0:0:0:
252,40,102250,1,4,3:0:0:0:
44,200,102411,6,0,P|32:268|60:332,2,118.799996374512,4|2|0,1:3|0:0|3:0,0:0:0:0:
368,340,104024,2,0,L|452:332,2,79.1999975830079,8|8|2,3:0|0:0|0:0,0:0:0:0:
255,80,104992,6,0,P|318:35|391:58,1,158.399995166016,4|2,3:0|0:0,0:0:0:0:
256,303,105960,2,0,P|209:337|154:320,1,118.799996374512,4|2,3:0|0:0,0:0:0:0:
256,303,106605,2,0,P|193:348|120:325,1,158.399995166016,8|6,3:0|3:0,0:0:0:0:
417,150,107573,6,0,B|405:26|405:26|381:82,1,158.399995166016,4|2,3:0|0:0,0:0:0:0:
417,234,108540,2,0,B|405:358|405:358|381:302,1,158.399995166016,4|2,3:0|0:0,0:0:0:0:
95,150,109508,1,2,1:1:0:0:
121,327,109831,1,0,0:0:0:0:
428,160,110476,6,0,L|416:108,1,39.5999987915039,2|0,1:1|0:0,0:0:0:0:
320,192,110798,1,8,0:0:0:0:
504,268,110960,1,0,0:0:0:0:
480,64,111121,2,0,P|428:36|388:40,1,79.1999975830079,6|2,3:0|0:0,0:0:0:0:
320,192,111605,1,0,0:3:0:0:
48,196,111766,2,0,L|-12:188,1,39.5999987915039,0|0,1:0|0:0,0:0:0:0:
152,112,112089,6,0,L|246:124,1,79.1999975830079,8|2,0:0|0:0,0:0:0:0:
256,352,112573,1,4,3:0:0:0:
12,272,112734,6,0,P|76:274|122:229,1,132,4|4,1:0|3:0,0:0:0:0:
76,144,113379,2,0,P|68:104|76:88,1,44,10|0,0:0|0:0,0:0:0:0:
322,338,113702,2,0,P|291:365|273:366,1,44,6|0,3:0|0:0,0:0:0:0:
448,128,114024,6,0,P|398:126|362:161,1,88,2|0,0:0|0:0,0:0:0:0:
428,200,114669,5,12,0:2:0:0:
360,52,114831,1,0,0:0:0:0:
360,256,114992,5,0,0:0:0:0:
292,108,115154,1,0,0:0:0:0:
124,260,115315,6,0,P|60:256|28:228,1,88,4|0,3:0|0:0,0:0:0:0:
292,108,115960,1,8,3:0:0:0:
96,184,116121,1,0,0:0:0:0:
256,336,116282,2,0,L|264:288,1,44,0|4,0:0|3:0,0:0:0:0:
472,152,116605,6,0,P|444:160|476:160,1,88,4|0,3:0|0:0,0:0:0:0:
472,152,117250,2,0,L|416:144,1,44,4|0,3:0|0:0,0:0:0:0:
284,312,117573,2,0,L|228:304,1,44,0|0,1:0|0:0,0:0:0:0:
56,152,117895,6,0,P|104:164|132:192,1,88,0|0,1:0|0:0,0:0:0:0:
480,64,118540,6,0,P|432:76|404:104,1,88,2|0,1:0|0:0,0:0:0:0:
405,102,119024,2,0,P|372:72|330:63,1,88,2|0,1:0|0:0,0:0:0:0:
472,152,119508,1,4,3:0:0:0:
24,196,119831,1,8,0:0:0:0:
108,304,120153,1,0,1:0:0:0:
176,56,120476,1,4,3:0:0:0:
480,320,121121,6,0,P|432:308|404:280,1,88,2|0,2:1|0:0,0:0:0:0:
405,282,121605,2,0,P|372:312|330:321,1,88,2|0,0:1|3:0,0:0:0:0:
472,232,122089,1,4,3:0:0:0:
320,84,122411,6,0,P|272:96|244:124,1,88,8|0,0:0|0:0,0:0:0:0:
245,122,122895,2,0,P|180:116|104:112,1,132,0|0,3:0|0:0,0:0:0:0:
416,208,123702,6,0,P|424:248|416:264,1,44,10|0,0:0|0:0,0:0:0:0:
190,46,124025,2,0,P|221:19|239:18,1,44,6|0,3:0|0:0,0:0:0:0:
64,256,124347,6,0,P|114:258|150:223,1,88,2|0,0:0|0:0,0:0:0:0:
84,184,124992,5,12,0:2:0:0:
152,332,125154,1,0,0:0:0:0:
152,128,125315,5,0,0:0:0:0:
220,276,125477,1,0,0:0:0:0:
388,124,125638,6,0,P|452:128|484:156,1,88,4|0,3:0|0:0,0:0:0:0:
220,276,126283,1,8,3:0:0:0:
416,200,126444,1,0,0:0:0:0:
256,48,126605,2,0,L|248:96,1,44,0|4,0:0|3:0,0:0:0:0:
40,232,126928,6,0,P|68:224|36:224,1,88,4|0,3:0|0:0,0:0:0:0:
40,232,127573,2,0,L|96:240,1,44,4|0,3:0|0:0,0:0:0:0:
228,72,127896,2,0,L|284:80,1,44,0|0,1:0|0:0,0:0:0:0:
456,232,128218,2,0,P|408:220|380:192,1,88,4|0,3:0|0:0,0:0:0:0:
32,320,128863,6,0,P|80:308|108:280,1,88,2|0,1:0|0:0,0:0:0:0:
107,282,129347,2,0,P|140:312|182:321,1,88,2|0,1:0|0:0,0:0:0:0:
40,232,129831,1,4,3:0:0:0:
488,188,130154,1,8,0:0:0:0:
404,80,130476,1,0,1:0:0:0:
336,328,130799,1,4,3:0:0:0:
32,64,131444,6,0,P|80:76|108:104,1,88,2|0,2:1|0:0,0:0:0:0:
107,102,131928,2,0,P|140:72|182:63,1,88,2|0,0:1|3:0,0:0:0:0:
256,192,132412,1,4,3:0:0:0:
480,64,132734,6,0,P|432:76|404:104,1,88,8|0,0:0|0:0,0:0:0:0:
64,304,133379,6,0,P|124:344|192:304,1,145.200004431152,4|2,1:3|0:0,0:0:0:0:
128,273,134024,2,0,L|88:160,1,96.8000029541017,8|0,0:0|3:0,0:0:0:0:
172,68,134669,1,2,3:0:0:0:
352,244,134992,2,0,L|232:232,2,96.8000029541017,8|8|2,3:0|0:0|0:0,0:0:0:0:
108,20,135960,6,0,P|92:80|156:144,1,145.200004431152,4|2,3:0|0:0,0:0:0:0:
172,68,136605,1,8,0:0:0:0:
40,304,136927,1,2,3:0:0:0:
160,284,137250,1,8,3:0:0:0:
376,376,137573,1,0,3:0:0:0:
256,356,137896,1,8,0:0:0:0:
472,304,138218,1,2,0:0:0:0:
299,36,138540,6,0,P|257:92|276:160,1,145.200004431152,4|0,3:0|0:0,0:0:0:0:
340,107,139185,1,8,0:0:0:0:
156,260,139508,2,0,B|52:242|52:242|90:236,1,145.200004431152,2|0,3:0|0:0,0:0:0:0:
124,164,140153,1,4,3:0:0:0:
352,312,140476,2,0,L|236:324,1,96.8000029541017,2|0,1:1|0:0,0:0:0:0:
488,368,141121,1,4,0:0:0:0:
420,120,141444,6,0,L|360:132,1,48.4000014770508,2|0,1:1|0:0,0:0:0:0:
124,164,141766,2,0,L|171:173,1,48.4000014770508,8|0,0:0|0:0,0:0:0:0:
388,308,142089,2,0,L|276:332,1,96.8000029541017,6|2,3:0|0:0,0:0:0:0:
128,344,142573,1,0,0:3:0:0:
40,208,142734,2,0,P|28:160|40:132,1,48.4000014770508,0|0,1:0|0:0,0:0:0:0:
256,20,143056,2,0,L|224:132,1,96.8000029541017,8|2,0:0|0:0,0:0:0:0:
256,228,143540,1,4,3:0:0:0:
504,184,143702,6,0,P|476:134|388:124,1,145.200004431152,4|2,1:3|0:0,0:0:0:0:
427,193,144347,1,8,0:0:0:0:
256,20,144669,2,0,P|200:4|132:59,1,145.200004431152,0|0,3:0|0:0,0:0:0:0:
56,48,145315,1,8,3:0:0:0:
112,288,145637,1,8,0:0:0:0:
56,48,145960,1,2,0:0:0:0:
176,336,146282,6,0,P|132:368|36:312,1,145.200004431152,4|2,3:0|0:0,0:0:0:0:
112,288,146927,1,8,0:0:0:0:
416,368,147250,2,0,L|444:265,1,96.8000029541017,2|8,3:0|3:0,0:0:0:0:
372,28,147895,2,0,L|345:121,1,96.8000029541017,0|8,3:0|0:0,0:0:0:0:
443,275,148540,1,2,0:0:0:0:
112,288,148863,6,0,P|152:308|100:304,1,145.200004431152,4|0,3:0|0:0,0:0:0:0:
256,364,149508,1,8,0:0:0:0:
40,220,149831,2,0,P|108:192|204:228,1,145.200004431152,2|0,3:0|0:0,0:0:0:0:
36,324,150476,1,4,3:0:0:0:
192,96,150798,1,2,1:1:0:0:
256,280,151121,1,0,0:0:0:0:
16,44,151444,1,4,0:0:0:0:
168,288,151766,6,0,P|188:336|208:352,1,48.4000014770508,2|0,1:1|0:0,0:0:0:0:
72,144,152089,2,0,P|20:137|-3:146,1,48.4000014770508,8|0,0:0|0:0,0:0:0:0:
256,280,152411,2,0,L|396:264,1,96.8000029541017,6|2,3:0|0:0,0:0:0:0:
464,336,152895,1,0,0:3:0:0:
224,184,153056,2,0,L|152:192,1,48.4000014770508,0|0,1:0|0:0,0:0:0:0:
432,16,153379,2,0,P|460:64|444:120,1,96.8000029541017,8|2,0:0|0:0,0:0:0:0:
256,280,153863,1,4,3:0:0:0:
58,102,154024,5,4,0:0:0:0:
