osu file format v14

[General]
AudioFilename: audio.mp3
AudioLeadIn: 0
PreviewTime: 53564
Countdown: 0
SampleSet: Soft
StackLeniency: 0.7
Mode: 3
LetterboxInBreaks: 0
SpecialStyle: 0
WidescreenStoryboard: 0

[Editor]
DistanceSpacing: 1.3
BeatDivisor: 4
GridSize: 4
TimelineZoom: 2.599999

[Metadata]
Title:Be My Zombie
TitleUnicode:ビーマイ☆ゾンビ
Artist:Idol College
ArtistUnicode:アイドルカレッジ
Creator:Rivals_7
Version:5K EZ 'Nepgear'
Source:激次元タッグ ブラン+ネプテューヌVSゾンビ軍団
Tags:opening Idea Factory Compile Heart Tamsoft ps vita MegaTagmension Blanc + Neptune vs Zombies Army Geki Jigen Tag Blanc + Neptune VS Zombie Gundan OP
BeatmapID:1062486
BeatmapSetID:499154

[Difficulty]
HPDrainRate:6.5
CircleSize:5
OverallDifficulty:6.5
ApproachRate:5
SliderMultiplier:1.4
SliderTickRate:1

[Events]
//Background and Video events
0,0,"tag.jpg",0,0
Video,0,"Extreme Dimension Tag Blanc + Neptune VS Zombie Army - Intro~1.flv"
//Break Periods
//Storyboard Layer 0 (Background)
//Storyboard Layer 1 (Fail)
//Storyboard Layer 2 (Pass)
//Storyboard Layer 3 (Foreground)
//Storyboard Sound Samples

[TimingPoints]
1673,324.324324324324,4,2,1,40,1,0
53564,-100,4,2,1,40,0,1
63618,-100,4,2,1,40,0,0
63943,-100,4,2,1,40,0,1
79186,-100,4,2,1,40,0,0

[HitObjects]
460,192,1673,5,0,0:0:0:50:drum-hitclap.wav
153,192,1997,1,0,0:0:0:50:drum-hitclap.wav
358,192,2321,1,0,0:0:0:50:drum-hitclap.wav
51,192,2645,1,0,0:0:0:50:drum-hitclap.wav
256,192,2970,1,0,0:0:0:50:drum-hitclap.wav
460,192,3132,128,0,3294:0:0:0:50:drum-hitclap.wav
51,192,3294,1,0,0:0:0:50:drum-hitclap.wav
256,192,3456,128,0,3700:0:0:0:50:drum-hitclap.wav
358,192,3700,1,0,0:0:0:50:drum-hitclap.wav
51,192,3943,128,0,4267:0:0:0:0:
460,192,4267,1,0,0:0:0:50:drum-hitnormal.wav
256,192,4591,1,0,0:0:0:50:drum-hitclap.wav
153,192,4916,1,0,0:0:0:50:drum-hitnormal.wav
358,192,5240,1,0,0:0:0:50:drum-hitclap.wav
256,192,5564,1,0,0:0:0:50:drum-hitnormal.wav
51,192,5889,1,0,0:0:0:50:drum-hitclap.wav
460,192,6213,1,0,0:0:0:50:drum-hitnormal.wav
153,192,6537,1,0,0:0:0:50:drum-hitclap.wav
358,192,6862,1,0,0:0:0:50:drum-hitnormal.wav
256,192,7186,1,0,0:0:0:50:drum-hitclap.wav
51,192,7510,1,0,0:0:0:50:drum-hitnormal.wav
153,192,7835,1,0,0:0:0:50:drum-hitclap.wav
460,192,8159,1,0,0:0:0:50:drum-hitnormal.wav
256,192,8483,1,0,0:0:0:50:drum-hitclap.wav
358,192,8808,1,0,0:0:0:50:drum-hitnormal.wav
153,192,9132,1,0,0:0:0:50:drum-hitnormal.wav
460,192,9294,128,0,9456:0:0:0:50:drum-hitclap.wav
51,192,9456,1,0,0:0:0:50:drum-hitnormal.wav
256,192,9781,1,0,0:0:0:50:drum-hitclap.wav
153,192,10105,1,0,0:0:0:50:drum-hitnormal.wav
358,192,10429,1,0,0:0:0:50:drum-hitclap.wav
51,192,10754,1,0,0:0:0:50:drum-hitnormal.wav
256,192,11078,1,0,0:0:0:50:drum-hitclap.wav
460,192,11402,1,0,0:0:0:50:drum-hitnormal.wav
153,192,11727,1,0,0:0:0:50:drum-hitclap.wav
358,192,12051,1,0,0:0:0:50:drum-hitnormal.wav
256,192,12375,1,0,0:0:0:50:drum-hitclap.wav
51,192,12700,1,0,0:0:0:50:drum-hitnormal.wav
460,192,13024,1,0,0:0:0:50:drum-hitclap.wav
256,192,13186,1,0,0:0:0:50:Cymbal.wav
460,192,13510,1,0,0:0:0:50:hithat.wav
153,192,13672,1,0,0:0:0:50:drum-hitnormal.wav
358,192,13835,1,0,0:0:0:50:hithat.wav
51,192,13997,1,0,0:0:0:50:drum-hitnormal.wav
460,192,14159,128,0,14645:0:0:0:50:drum-hitclap.wav
256,192,14645,1,0,0:0:0:50:drum-hitnormal.wav
51,192,15132,1,0,0:0:0:50:drum-hitnormal.wav
153,192,15294,1,0,0:0:0:50:hithat.wav
358,192,15294,128,0,15943:0:0:0:50:drum-hitclap.wav
51,192,15943,1,0,0:0:0:50:drum-hitnormal.wav
460,192,16105,1,0,0:0:0:50:drum-hitclap.wav
153,192,16429,1,0,0:0:0:50:hithat.wav
358,192,16754,1,0,0:0:0:50:hithat.wav
51,192,17078,128,0,17240:0:0:0:50:drum-hitnormal.wav
460,192,17240,1,0,0:0:0:50:drum-hitnormal.wav
153,192,17564,1,0,0:0:0:50:drum-hitnormal.wav
256,192,17889,128,0,18537:0:0:0:50:drum-hitclap.wav
358,192,17889,1,0,0:0:0:50:hithat.wav
51,192,18537,1,0,0:0:0:50:drum-hitnormal.wav
460,192,18700,1,0,0:0:0:50:drum-hitclap.wav
153,192,19024,1,0,0:0:0:50:hithat.wav
256,192,19348,1,0,0:0:0:50:drum-hitclap.wav
51,192,19672,1,0,0:0:0:50:drum-hitnormal.wav
460,192,19835,1,0,0:0:0:50:Cymbal.wav
358,192,19835,1,0,0:0:0:50:drum-hitclap.wav
256,192,20321,1,0,0:0:0:50:drum-hitnormal.wav
153,192,20483,128,0,21132:0:0:0:50:drum-hitclap.wav
358,192,20483,1,0,0:0:0:50:hithat.wav
256,192,21132,1,0,0:0:0:50:drum-hitnormal.wav
460,192,21294,1,0,0:0:0:50:drum-hitclap.wav
51,192,21618,1,0,0:0:0:50:drum-hitnormal.wav
256,192,21943,1,0,0:0:0:50:hithat.wav
358,192,22267,128,0,22429:0:0:0:50:drum-hitnormal.wav
153,192,22429,1,0,0:0:0:50:drum-hitnormal.wav
256,192,22754,1,0,0:0:0:50:drum-hitnormal.wav
51,192,23078,128,0,23727:0:0:0:25:drum-hitclap.wav
460,192,23078,1,0,0:0:0:25:drum-hitclap.wav
358,192,23727,1,0,0:0:0:50:drum-hitnormal.wav
153,192,23889,1,0,0:0:0:50:drum-hitclap.wav
256,192,24213,1,0,0:0:0:50:hithat.wav
460,192,24375,1,0,0:0:0:50:drum-hitclap.wav
153,192,24537,1,0,0:0:0:50:drum-hitclap.wav
358,192,24862,1,0,0:0:0:50:hithat.wav
51,192,25024,1,0,0:0:0:50:drum-hitnormal.wav
358,192,25348,1,0,0:0:0:50:drum-hitnormal.wav
51,192,25672,1,0,0:0:0:50:drum-hitnormal.wav
358,192,25997,1,0,0:0:0:50:drum-hitnormal.wav
153,192,26321,1,0,0:0:0:50:drum-hitnormal.wav
460,192,26645,1,0,0:0:0:50:drum-hitnormal.wav
153,192,26970,1,0,0:0:0:50:drum-hitnormal.wav
460,192,27294,1,0,0:0:0:50:drum-hitnormal.wav
256,192,27618,1,0,0:0:0:50:drum-hitnormal.wav
51,192,27943,1,0,0:0:0:50:drum-hitnormal.wav
256,192,28267,1,0,0:0:0:50:drum-hitnormal.wav
51,192,28591,1,0,0:0:0:50:drum-hitnormal.wav
460,192,28916,1,0,0:0:0:50:drum-hitnormal.wav
256,192,29240,1,0,0:0:0:50:drum-hitnormal.wav
460,192,29564,1,0,0:0:0:50:drum-hitnormal.wav
256,192,29889,1,0,0:0:0:50:drum-hitnormal.wav
153,192,30213,1,0,0:0:0:50:drum-hitnormal.wav
358,192,30537,1,0,0:0:0:50:drum-hitnormal.wav
153,192,30862,1,0,0:0:0:50:drum-hitnormal.wav
358,192,31186,1,0,0:0:0:50:drum-hitnormal.wav
51,192,31510,1,0,0:0:0:50:drum-hitnormal.wav
460,192,31835,1,0,0:0:0:50:drum-hitnormal.wav
51,192,32159,1,0,0:0:0:50:drum-hitnormal.wav
460,192,32483,1,0,0:0:0:50:drum-hitnormal.wav
153,192,32808,1,0,0:0:0:50:drum-hitnormal.wav
358,192,33132,1,0,0:0:0:50:drum-hitnormal.wav
153,192,33456,1,0,0:0:0:50:drum-hitnormal.wav
358,192,33781,1,0,0:0:0:50:drum-hitnormal.wav
51,192,33943,1,0,0:0:0:50:drum-hitnormal.wav
256,192,34916,128,0,35078:0:0:0:50:drum-hitnormal.wav
460,192,35078,1,0,0:0:0:50:drum-hitclap.wav
51,192,35402,1,0,0:0:0:25:drum-hitnormal.wav
153,192,35402,1,0,0:0:0:25:drum-hitnormal.wav
358,192,35727,1,0,0:0:0:50:drum-hitclap.wav
256,192,36051,1,0,0:0:0:50:drum-hitnormal.wav
51,192,36375,1,0,0:0:0:50:drum-hitclap.wav
460,192,36700,1,0,0:0:0:50:drum-hitnormal.wav
153,192,37024,1,0,0:0:0:50:drum-hitclap.wav
358,192,37348,1,0,0:0:0:50:drum-hitnormal.wav
256,192,37672,1,0,0:0:0:50:drum-hitclap.wav
51,192,37997,1,0,0:0:0:50:drum-hitnormal.wav
358,192,38321,1,0,0:0:0:50:drum-hitclap.wav
153,192,38645,1,0,0:0:0:50:drum-hitnormal.wav
460,192,38970,1,0,0:0:0:50:drum-hitclap.wav
256,192,39294,1,0,0:0:0:50:drum-hitnormal.wav
51,192,39618,1,0,0:0:0:50:drum-hitclap.wav
358,192,39943,1,0,0:0:0:50:drum-hitnormal.wav
153,192,40267,1,0,0:0:0:50:drum-hitclap.wav
256,192,40591,1,0,0:0:0:50:drum-hitnormal.wav
460,192,40916,1,0,0:0:0:50:drum-hitclap.wav
51,192,41240,1,0,0:0:0:50:drum-hitnormal.wav
358,192,41564,1,0,0:0:0:50:drum-hitclap.wav
153,192,41889,1,0,0:0:0:50:drum-hitnormal.wav
460,192,42213,1,0,0:0:0:50:drum-hitclap.wav
256,192,42537,1,0,0:0:0:50:drum-hitnormal.wav
358,192,42862,1,0,0:0:0:50:drum-hitclap.wav
51,192,43186,1,0,0:0:0:50:drum-hitnormal.wav
153,192,43510,1,0,0:0:0:50:drum-hitclap.wav
460,192,43835,1,0,0:0:0:50:drum-hitnormal.wav
256,192,44159,1,0,0:0:0:50:drum-hitclap.wav
153,192,44321,1,0,0:0:0:50:drum-hitnormal.wav
358,192,44645,1,0,0:0:0:0:
51,192,44808,1,0,0:0:0:50:drum-hitclap.wav
460,192,44970,1,0,0:0:0:0:
256,192,45132,1,0,0:0:0:50:drum-hitnormal.wav
51,192,45456,1,0,0:0:0:25:drum-hitclap.wav
153,192,45456,1,0,0:0:0:25:drum-hitclap.wav
358,192,45781,1,0,0:0:0:25:drum-hitnormal.wav
460,192,45781,1,0,0:0:0:25:drum-hitnormal.wav
51,192,46267,1,0,0:0:0:50:drum-hitnormal.wav
256,192,46429,1,0,0:0:0:50:drum-hitclap.wav
460,192,47078,1,0,0:0:0:50:drum-hitnormal.wav
256,192,47402,1,0,0:0:0:50:drum-hitnormal.wav
51,192,47727,1,0,0:0:0:50:drum-hitclap.wav
358,192,48051,1,0,0:0:0:50:drum-hitnormal.wav
153,192,48375,1,0,0:0:0:50:drum-hitnormal.wav
51,192,48862,1,0,0:0:0:50:drum-hitnormal.wav
460,192,49024,1,0,0:0:0:50:drum-hitclap.wav
51,192,49672,1,0,0:0:0:50:drum-hitnormal.wav
256,192,49997,1,0,0:0:0:50:drum-hitnormal.wav
460,192,50321,1,0,0:0:0:50:drum-hitclap.wav
153,192,50645,1,0,0:0:0:50:drum-hitnormal.wav
358,192,51132,1,0,0:0:0:50:drum-hitclap.wav
51,192,51294,1,0,0:0:0:50:drum-hitnormal.wav
256,192,51618,1,0,0:0:0:50:drum-hitclap.wav
460,192,51943,1,0,0:0:0:50:drum-hitnormal.wav
51,192,52105,1,0,0:0:0:50:drum-hitclap.wav
358,192,52429,1,0,0:0:0:50:drum-hitnormal.wav
153,192,52591,1,0,0:0:0:50:drum-hitnormal.wav
256,192,52754,1,0,0:0:0:50:drum-hitnormal.wav
51,192,52916,1,0,0:0:0:50:drum-hitnormal.wav
358,192,53240,1,0,0:0:0:50:drum-hitclap.wav
460,192,53240,1,0,0:0:0:50:Cymbal.wav
51,192,53564,1,0,0:0:0:50:drum-hitnormal.wav
256,192,53889,1,0,0:0:0:50:drum-hitclap.wav
460,192,54213,1,0,0:0:0:50:drum-hitnormal.wav
153,192,54537,1,0,0:0:0:50:drum-hitclap.wav
256,192,54862,1,0,0:0:0:50:drum-hitnormal.wav
358,192,55186,1,0,0:0:0:50:drum-hitclap.wav
51,192,55510,1,0,0:0:0:50:drum-hitnormal.wav
460,192,55835,1,0,0:0:0:50:drum-hitclap.wav
256,192,56159,1,0,0:0:0:50:drum-hitnormal.wav
51,192,56483,1,0,0:0:0:50:drum-hitclap.wav
358,192,56808,1,0,0:0:0:50:drum-hitnormal.wav
256,192,57132,1,0,0:0:0:50:drum-hitclap.wav
153,192,57456,1,0,0:0:0:50:drum-hitnormal.wav
358,192,57781,1,0,0:0:0:50:drum-hitclap.wav
51,192,58105,1,0,0:0:0:50:drum-hitnormal.wav
460,192,58429,1,0,0:0:0:50:drum-hitclap.wav
256,192,58754,1,0,0:0:0:50:drum-hitnormal.wav
358,192,59078,1,0,0:0:0:50:drum-hitclap.wav
153,192,59402,1,0,0:0:0:50:drum-hitnormal.wav
256,192,59727,1,0,0:0:0:50:drum-hitclap.wav
51,192,60051,1,0,0:0:0:50:drum-hitnormal.wav
358,192,60375,1,0,0:0:0:50:drum-hitclap.wav
153,192,60700,1,0,0:0:0:50:drum-hitnormal.wav
460,192,61024,1,0,0:0:0:50:drum-hitclap.wav
256,192,61348,1,0,0:0:0:50:drum-hitnormal.wav
51,192,61672,1,0,0:0:0:50:drum-hitclap.wav
153,192,61997,1,0,0:0:0:50:drum-hitnormal.wav
460,192,62321,1,0,0:0:0:50:drum-hitclap.wav
51,192,62483,128,0,62970:0:0:0:50:drum-hitnormal.wav
256,192,62970,128,0,63294:0:0:0:50:drum-hitnormal.wav
358,192,63294,128,0,63618:0:0:0:50:drum-hitnormal.wav
460,192,63618,128,0,63943:0:0:0:50:drum-hitclap.wav
51,192,63943,1,0,0:0:0:50:Cymbal.wav
256,192,64267,1,0,0:0:0:50:drum-hitclap.wav
153,192,64591,1,0,0:0:0:50:drum-hitnormal.wav
358,192,64916,1,0,0:0:0:50:drum-hitclap.wav
256,192,65240,1,0,0:0:0:50:drum-hitnormal.wav
460,192,65564,1,0,0:0:0:50:drum-hitclap.wav
51,192,65889,1,0,0:0:0:50:drum-hitnormal.wav
256,192,66213,1,0,0:0:0:50:drum-hitclap.wav
358,192,66537,1,0,0:0:0:50:drum-hitnormal.wav
153,192,66862,1,0,0:0:0:50:drum-hitclap.wav
256,192,67186,1,0,0:0:0:50:drum-hitnormal.wav
460,192,67510,1,0,0:0:0:50:drum-hitclap.wav
51,192,67835,1,0,0:0:0:50:drum-hitnormal.wav
358,192,68159,1,0,0:0:0:50:drum-hitclap.wav
153,192,68483,1,0,0:0:0:50:drum-hitnormal.wav
256,192,68808,1,0,0:0:0:50:drum-hitclap.wav
460,192,69132,1,0,0:0:0:50:drum-hitnormal.wav
153,192,69456,1,0,0:0:0:50:drum-hitclap.wav
358,192,69781,1,0,0:0:0:50:drum-hitnormal.wav
51,192,70105,1,0,0:0:0:50:drum-hitclap.wav
256,192,70429,1,0,0:0:0:50:drum-hitnormal.wav
460,192,70754,1,0,0:0:0:50:drum-hitclap.wav
153,192,71078,1,0,0:0:0:50:drum-hitnormal.wav
256,192,71402,1,0,0:0:0:50:drum-hitclap.wav
51,192,71727,1,0,0:0:0:50:drum-hitnormal.wav
358,192,72051,1,0,0:0:0:50:drum-hitclap.wav
153,192,72375,1,0,0:0:0:50:drum-hitnormal.wav
460,192,72700,1,0,0:0:0:50:drum-hitclap.wav
256,192,73024,1,0,0:0:0:50:drum-hitnormal.wav
51,192,73348,1,0,0:0:0:50:drum-hitclap.wav
358,192,73672,1,0,0:0:0:50:drum-hitnormal.wav
256,192,73997,1,0,0:0:0:50:drum-hitnormal.wav
460,192,74321,1,0,0:0:0:50:drum-hitnormal.wav
153,192,74645,1,0,0:0:0:50:drum-hitnormal.wav
51,192,74970,1,0,0:0:0:50:drum-hitclap.wav
358,192,75456,1,0,0:0:0:50:drum-hitnormal.wav
256,192,75781,1,0,0:0:0:50:drum-hitnormal.wav
460,192,75943,1,0,0:0:0:50:drum-hitnormal.wav
51,192,76105,1,0,0:0:0:50:drum-hitnormal.wav
153,192,76429,1,0,0:0:0:50:drum-hitclap.wav
358,192,76591,1,0,0:0:0:50:drum-hitclap.wav
153,192,76754,1,0,0:0:0:50:drum-hitclap.wav
358,192,76916,1,0,0:0:0:50:drum-hitclap.wav
51,192,77240,1,0,0:0:0:50:drum-hitnormal.wav
460,192,77564,1,0,0:0:0:50:drum-hitnormal.wav
256,192,78051,1,0,0:0:0:50:drum-hitclap.wav
460,192,78375,1,0,0:0:0:50:drum-hitnormal.wav
256,192,78537,1,0,0:0:0:50:drum-hitnormal.wav
51,192,78700,1,0,0:0:0:50:drum-hitnormal.wav
153,192,79186,1,0,0:0:0:50:drum-hitnormal.wav
358,192,79186,1,0,0:0:0:50:drum-hitclap.wav
460,192,79510,1,0,0:0:0:50:drum-hitnormal.wav
51,192,79835,1,0,0:0:0:50:drum-hitclap.wav
358,192,80159,1,0,0:0:0:50:drum-hitnormal.wav
51,192,80483,1,0,0:0:0:50:drum-hitclap.wav
256,192,80808,1,0,0:0:0:50:drum-hitnormal.wav
153,192,81132,1,0,0:0:0:50:drum-hitclap.wav
358,192,81456,1,0,0:0:0:50:drum-hitnormal.wav
256,192,81781,1,0,0:0:0:50:drum-hitclap.wav
460,192,82105,1,0,0:0:0:50:drum-hitnormal.wav
51,192,82429,1,0,0:0:0:50:drum-hitclap.wav
358,192,82754,1,0,0:0:0:50:drum-hitnormal.wav
153,192,83078,1,0,0:0:0:50:drum-hitclap.wav
256,192,83402,1,0,0:0:0:50:drum-hitnormal.wav
51,192,83727,1,0,0:0:0:50:drum-hitclap.wav
460,192,84051,1,0,0:0:0:50:drum-hitnormal.wav
256,192,84375,1,0,0:0:0:50:drum-hitnormal.wav
51,192,84537,128,0,84700:0:0:0:50:drum-hitclap.wav
460,192,84700,1,0,0:0:0:50:drum-hitnormal.wav
358,192,85024,1,0,0:0:0:50:drum-hitclap.wav
51,192,85348,1,0,0:0:0:50:drum-hitnormal.wav
256,192,85672,1,0,0:0:0:50:drum-hitclap.wav
153,192,85997,1,0,0:0:0:50:drum-hitnormal.wav
358,192,86321,1,0,0:0:0:50:drum-hitclap.wav
153,192,86645,1,0,0:0:0:50:drum-hitnormal.wav
460,192,86970,1,0,0:0:0:50:drum-hitclap.wav
51,192,87294,1,0,0:0:0:50:drum-hitnormal.wav
358,192,87618,1,0,0:0:0:50:drum-hitclap.wav
153,192,87943,1,0,0:0:0:50:drum-hitnormal.wav
460,192,88267,1,0,0:0:0:50:drum-hitclap.wav
51,192,88429,1,0,0:0:0:50:hithat.wav
256,192,88754,1,0,0:0:0:50:hithat.wav
51,192,88916,1,0,0:0:0:50:drum-hitnormal.wav
460,192,89078,1,0,0:0:0:50:hithat.wav
153,192,89240,1,0,0:0:0:50:drum-hitnormal.wav
358,192,89402,128,0,89889:0:0:0:50:drum-hitclap.wav
51,192,89889,1,0,0:0:0:50:drum-hitclap.wav
256,192,90051,1,0,0:0:0:50:drum-hitnormal.wav
460,192,90375,1,0,0:0:0:50:drum-hitnormal.wav
256,192,90537,1,0,0:0:0:50:drum-hitclap.wav
153,192,90862,1,0,0:0:0:50:drum-hitclap.wav
358,192,90862,1,0,0:0:0:50:drum-hitnormal.wav
51,192,91510,128,0,96375:0:0:0:70:Cymbal.wav
460,192,91510,1,0,0:0:0:50:drum-hitnormal.wav
