osu file format v14

[General]
AudioFilename: audio.mp3
AudioLeadIn: 0
PreviewTime: 53564
Countdown: 0
SampleSet: Soft
StackLeniency: 0.7
Mode: 3
LetterboxInBreaks: 0
SpecialStyle: 0
WidescreenStoryboard: 0

[Editor]
DistanceSpacing: 1.3
BeatDivisor: 4
GridSize: 4
TimelineZoom: 2.799999

[Metadata]
Title:Be My Zombie
TitleUnicode:ビーマイ☆ゾンビ
Artist:Idol College
ArtistUnicode:アイドルカレッジ
Creator:Rivals_7
Version:4K HD 'Neptune'
Source:激次元タッグ ブラン+ネプテューヌVSゾンビ軍団
Tags:opening Idea Factory Compile Heart Tamsoft ps vita MegaTagmension Blanc + Neptune vs Zombies Army Geki Jigen Tag Blanc + Neptune VS Zombie Gundan OP
BeatmapID:1062483
BeatmapSetID:499154

[Difficulty]
HPDrainRate:7.5
CircleSize:4
OverallDifficulty:7.5
ApproachRate:5
SliderMultiplier:1.4
SliderTickRate:1

[Events]
//Background and Video events
0,0,"tag.jpg",0,0
Video,0,"Extreme Dimension Tag Blanc + Neptune VS Zombie Army - Intro~1.flv"
//Break Periods
//Storyboard Layer 0 (Background)
//Storyboard Layer 1 (Fail)
//Storyboard Layer 2 (Pass)
//Storyboard Layer 3 (Foreground)
//Storyboard Sound Samples

[TimingPoints]
1673,324.324324324324,4,2,1,40,1,0
53564,-100,4,2,1,40,0,1
63618,-100,4,2,1,40,0,0
63943,-100,4,2,1,40,0,1
79186,-100,4,2,1,40,0,0

[HitObjects]
64,192,1673,5,0,0:0:0:25:drum-hitclap.wav
448,192,1673,1,0,0:0:0:25:drum-hitclap.wav
192,192,1835,1,0,0:0:0:25:drum-hitnormal.wav
448,192,1835,1,0,0:0:0:25:drum-hitnormal.wav
64,192,1997,1,0,0:0:0:25:drum-hitclap.wav
320,192,1997,1,0,0:0:0:25:drum-hitclap.wav
320,192,2159,1,0,0:0:0:25:drum-hitnormal.wav
448,192,2159,1,0,0:0:0:25:drum-hitnormal.wav
64,192,2321,1,0,0:0:0:25:drum-hitclap.wav
192,192,2321,1,0,0:0:0:25:drum-hitclap.wav
64,192,2483,1,0,0:0:0:25:drum-hitnormal.wav
320,192,2483,1,0,0:0:0:25:drum-hitnormal.wav
192,192,2645,1,0,0:0:0:25:drum-hitclap.wav
448,192,2645,1,0,0:0:0:25:drum-hitclap.wav
192,192,2808,1,0,0:0:0:25:drum-hitnormal.wav
64,192,2808,1,0,0:0:0:25:drum-hitnormal.wav
320,192,2970,1,0,0:0:0:25:drum-hitclap.wav
448,192,2970,1,0,0:0:0:25:drum-hitclap.wav
64,192,3132,1,0,0:0:0:25:drum-hitclap.wav
192,192,3132,1,0,0:0:0:25:drum-hitclap.wav
320,192,3213,1,0,0:0:0:25:drum-hitclap.wav
448,192,3213,1,0,0:0:0:25:drum-hitclap.wav
192,192,3294,1,0,0:0:0:25:drum-hitclap.wav
64,192,3294,1,0,0:0:0:25:drum-hitclap.wav
448,192,3456,1,0,0:0:0:25:drum-hitclap.wav
320,192,3456,1,0,0:0:0:25:drum-hitclap.wav
192,192,3537,1,0,0:0:0:25:drum-hitclap.wav
64,192,3537,1,0,0:0:0:25:drum-hitclap.wav
320,192,3618,1,0,0:0:0:25:drum-hitclap.wav
448,192,3618,1,0,0:0:0:25:drum-hitclap.wav
192,192,3700,1,0,0:0:0:25:drum-hitclap.wav
64,192,3700,1,0,0:0:0:25:drum-hitclap.wav
64,192,3943,1,0,0:0:0:0:
192,192,4024,1,0,0:0:0:0:
448,192,4105,1,0,0:0:0:50:drum-hitnormal.wav
320,192,4186,1,0,0:0:0:50:drum-hitnormal.wav
192,192,4267,1,0,0:0:0:25:drum-hitnormal.wav
64,192,4267,1,0,0:0:0:25:drum-hitnormal.wav
320,192,4429,1,0,0:0:0:50:hithat.wav
448,192,4591,1,0,0:0:0:25:drum-hitclap.wav
64,192,4591,1,0,0:0:0:25:drum-hitclap.wav
448,192,4754,128,0,5240:0:0:0:25:hithat.wav
192,192,4754,1,0,0:0:0:25:hithat.wav
64,192,4916,1,0,0:0:0:25:drum-hitnormal.wav
320,192,4916,1,0,0:0:0:25:drum-hitnormal.wav
192,192,5078,1,0,0:0:0:50:hithat.wav
192,192,5240,1,0,0:0:0:25:drum-hitclap.wav
320,192,5240,1,0,0:0:0:25:drum-hitclap.wav
64,192,5402,1,0,0:0:0:50:hithat.wav
320,192,5564,1,0,0:0:0:25:drum-hitnormal.wav
448,192,5564,1,0,0:0:0:25:drum-hitnormal.wav
64,192,5727,1,0,0:0:0:50:hithat.wav
64,192,5889,1,0,0:0:0:25:drum-hitclap.wav
320,192,5889,1,0,0:0:0:25:drum-hitclap.wav
192,192,6051,1,0,0:0:0:50:hithat.wav
320,192,6213,1,0,0:0:0:25:drum-hitnormal.wav
448,192,6213,1,0,0:0:0:25:drum-hitnormal.wav
64,192,6375,128,0,6862:0:0:0:25:hithat.wav
192,192,6375,1,0,0:0:0:25:hithat.wav
320,192,6537,1,0,0:0:0:25:drum-hitclap.wav
448,192,6537,1,0,0:0:0:25:drum-hitclap.wav
192,192,6700,1,0,0:0:0:50:hithat.wav
192,192,6862,1,0,0:0:0:25:drum-hitnormal.wav
448,192,6862,1,0,0:0:0:25:drum-hitnormal.wav
320,192,7024,1,0,0:0:0:50:hithat.wav
192,192,7186,1,0,0:0:0:25:drum-hitclap.wav
448,192,7186,1,0,0:0:0:25:drum-hitclap.wav
320,192,7348,1,0,0:0:0:25:hithat.wav
64,192,7348,128,0,7835:0:0:0:25:hithat.wav
192,192,7510,1,0,0:0:0:25:drum-hitnormal.wav
448,192,7510,1,0,0:0:0:25:drum-hitnormal.wav
448,192,7672,1,0,0:0:0:50:hithat.wav
320,192,7835,1,0,0:0:0:25:drum-hitclap.wav
192,192,7835,1,0,0:0:0:25:drum-hitclap.wav
448,192,7997,128,0,8159:0:0:0:50:hithat.wav
320,192,8159,1,0,0:0:0:25:drum-hitnormal.wav
64,192,8159,1,0,0:0:0:25:drum-hitnormal.wav
192,192,8321,128,0,8483:0:0:0:50:hithat.wav
320,192,8483,1,0,0:0:0:25:drum-hitclap.wav
448,192,8483,1,0,0:0:0:25:drum-hitclap.wav
448,192,8645,128,0,8808:0:0:0:50:hithat.wav
192,192,8808,1,0,0:0:0:25:drum-hitnormal.wav
64,192,8808,1,0,0:0:0:25:drum-hitnormal.wav
64,192,8970,128,0,9294:0:0:0:50:hithat.wav
320,192,9132,1,0,0:0:0:25:drum-hitnormal.wav
448,192,9132,1,0,0:0:0:25:drum-hitnormal.wav
320,192,9294,1,0,0:0:0:25:drum-hitclap.wav
448,192,9294,1,0,0:0:0:25:drum-hitclap.wav
64,192,9375,1,0,0:0:0:25:drum-hitclap.wav
192,192,9375,1,0,0:0:0:25:drum-hitclap.wav
320,192,9456,1,0,0:0:0:25:drum-hitnormal.wav
448,192,9456,1,0,0:0:0:25:drum-hitnormal.wav
192,192,9618,1,0,0:0:0:50:hithat.wav
64,192,9781,1,0,0:0:0:25:drum-hitclap.wav
448,192,9781,1,0,0:0:0:25:drum-hitclap.wav
320,192,9943,1,0,0:0:0:25:hithat.wav
64,192,9943,128,0,10429:0:0:0:25:hithat.wav
192,192,10105,1,0,0:0:0:25:drum-hitnormal.wav
448,192,10105,1,0,0:0:0:25:drum-hitnormal.wav
192,192,10267,1,0,0:0:0:50:hithat.wav
320,192,10429,1,0,0:0:0:25:drum-hitclap.wav
448,192,10429,1,0,0:0:0:25:drum-hitclap.wav
192,192,10591,1,0,0:0:0:50:hithat.wav
320,192,10754,1,0,0:0:0:25:drum-hitnormal.wav
448,192,10754,1,0,0:0:0:25:drum-hitnormal.wav
64,192,10916,1,0,0:0:0:50:hithat.wav
320,192,11078,1,0,0:0:0:25:drum-hitclap.wav
64,192,11078,1,0,0:0:0:25:drum-hitclap.wav
192,192,11240,1,0,0:0:0:50:hithat.wav
448,192,11402,1,0,0:0:0:25:drum-hitnormal.wav
320,192,11402,1,0,0:0:0:25:drum-hitnormal.wav
192,192,11564,128,0,12051:0:0:0:25:hithat.wav
64,192,11564,1,0,0:0:0:25:hithat.wav
320,192,11727,1,0,0:0:0:25:drum-hitclap.wav
448,192,11727,1,0,0:0:0:25:drum-hitclap.wav
64,192,11889,1,0,0:0:0:50:hithat.wav
320,192,12051,1,0,0:0:0:25:drum-hitnormal.wav
448,192,12051,1,0,0:0:0:25:drum-hitnormal.wav
192,192,12213,1,0,0:0:0:50:hithat.wav
64,192,12375,1,0,0:0:0:25:drum-hitclap.wav
448,192,12375,1,0,0:0:0:25:drum-hitclap.wav
320,192,12537,1,0,0:0:0:25:hithat.wav
192,192,12537,128,0,13024:0:0:0:25:hithat.wav
448,192,12700,1,0,0:0:0:25:drum-hitnormal.wav
64,192,12700,1,0,0:0:0:25:drum-hitnormal.wav
448,192,12862,1,0,0:0:0:50:hithat.wav
320,192,13024,1,0,0:0:0:25:drum-hitclap.wav
64,192,13024,1,0,0:0:0:25:drum-hitclap.wav
448,192,13186,128,0,13429:0:0:0:50:hithat.wav
192,192,13186,1,0,0:0:0:50:Cymbal.wav
64,192,13510,128,0,13672:0:0:0:50:hithat.wav
320,192,13672,128,0,13835:0:0:0:25:drum-hitnormal.wav
448,192,13672,1,0,0:0:0:25:drum-hitnormal.wav
192,192,13835,128,0,13997:0:0:0:50:hithat.wav
448,192,13997,128,0,14159:0:0:0:25:drum-hitnormal.wav
64,192,13997,1,0,0:0:0:25:drum-hitnormal.wav
64,192,14159,1,0,0:0:0:25:drum-hitclap.wav
192,192,14159,1,0,0:0:0:25:drum-hitclap.wav
320,192,14240,1,0,0:0:0:50:drum-hitclap.wav
448,192,14321,1,0,0:0:0:50:drum-hitnormal.wav
64,192,14402,1,0,0:0:0:50:drum-hitnormal.wav
320,192,14483,1,0,0:0:0:25:drum-hitnormal.wav
448,192,14483,1,0,0:0:0:25:drum-hitnormal.wav
192,192,14564,1,0,0:0:0:25:drum-hitnormal.wav
64,192,14564,1,0,0:0:0:25:drum-hitnormal.wav
448,192,14645,1,0,0:0:0:25:drum-hitnormal.wav
320,192,14645,1,0,0:0:0:25:drum-hitnormal.wav
192,192,14727,1,0,0:0:0:50:hithat.wav
64,192,14808,1,0,0:0:0:50:hithat.wav
448,192,14889,1,0,0:0:0:50:hithat.wav
320,192,14970,1,0,0:0:0:50:hithat.wav
192,192,15051,1,0,0:0:0:50:hithat.wav
64,192,15132,1,0,0:0:0:25:drum-hitnormal.wav
448,192,15132,1,0,0:0:0:25:drum-hitnormal.wav
192,192,15213,1,0,0:0:0:50:hithat.wav
448,192,15294,1,0,0:0:0:50:drum-hitclap.wav
320,192,15294,1,0,0:0:0:25:hithat.wav
64,192,15294,128,0,15943:0:0:0:25:hithat.wav
192,192,15943,1,0,0:0:0:50:hithat.wav
320,192,15943,1,0,0:0:0:50:drum-hitnormal.wav
448,192,16105,1,0,0:0:0:50:drum-hitclap.wav
64,192,16105,1,0,0:0:0:25:hithat.wav
192,192,16105,1,0,0:0:0:25:hithat.wav
320,192,16267,1,0,0:0:0:50:hithat.wav
448,192,16267,1,0,0:0:0:50:drum-hitnormal.wav
64,192,16429,128,0,16591:0:0:0:50:hithat.wav
192,192,16591,1,0,0:0:0:50:drum-hitclap.wav
448,192,16591,1,0,0:0:0:25:hithat.wav
320,192,16591,1,0,0:0:0:25:hithat.wav
448,192,16754,1,0,0:0:0:50:hithat.wav
192,192,16916,128,0,17078:0:0:0:50:hithat.wav
320,192,17078,1,0,0:0:0:25:drum-hitnormal.wav
448,192,17078,1,0,0:0:0:25:drum-hitnormal.wav
192,192,17159,1,0,0:0:0:25:drum-hitnormal.wav
64,192,17159,1,0,0:0:0:25:drum-hitnormal.wav
320,192,17240,1,0,0:0:0:25:drum-hitnormal.wav
448,192,17240,1,0,0:0:0:25:drum-hitnormal.wav
64,192,17321,1,0,0:0:0:50:hithat.wav
192,192,17402,1,0,0:0:0:50:hithat.wav
448,192,17483,1,0,0:0:0:50:hithat.wav
192,192,17564,1,0,0:0:0:50:hithat.wav
320,192,17564,1,0,0:0:0:50:drum-hitnormal.wav
64,192,17645,1,0,0:0:0:50:hithat.wav
448,192,17727,1,0,0:0:0:50:hithat.wav
320,192,17808,1,0,0:0:0:50:hithat.wav
192,192,17889,1,0,0:0:0:50:hithat.wav
64,192,17889,1,0,0:0:0:25:drum-hitclap.wav
448,192,17889,128,0,18537:0:0:0:25:drum-hitclap.wav
64,192,18537,1,0,0:0:0:50:hithat.wav
192,192,18537,1,0,0:0:0:50:drum-hitnormal.wav
320,192,18700,1,0,0:0:0:50:drum-hitclap.wav
448,192,18700,1,0,0:0:0:25:hithat.wav
64,192,18700,1,0,0:0:0:25:hithat.wav
192,192,18862,1,0,0:0:0:50:hithat.wav
320,192,18862,1,0,0:0:0:50:drum-hitnormal.wav
448,192,19024,128,0,19186:0:0:0:50:hithat.wav
64,192,19186,1,0,0:0:0:50:hithat.wav
192,192,19186,1,0,0:0:0:50:drum-hitnormal.wav
320,192,19348,1,0,0:0:0:25:drum-hitclap.wav
448,192,19348,1,0,0:0:0:25:drum-hitclap.wav
64,192,19510,128,0,19835:0:0:0:50:hithat.wav
448,192,19672,1,0,0:0:0:50:drum-hitnormal.wav
192,192,19754,1,0,0:0:0:50:hithat.wav
448,192,19835,1,0,0:0:0:50:Cymbal.wav
320,192,19835,1,0,0:0:0:50:drum-hitclap.wav
192,192,19916,1,0,0:0:0:50:hithat.wav
64,192,19997,1,0,0:0:0:50:hithat.wav
320,192,20078,1,0,0:0:0:50:hithat.wav
192,192,20159,1,0,0:0:0:50:hithat.wav
320,192,20240,1,0,0:0:0:50:hithat.wav
64,192,20321,1,0,0:0:0:50:hithat.wav
448,192,20321,1,0,0:0:0:50:drum-hitnormal.wav
192,192,20402,1,0,0:0:0:50:hithat.wav
320,192,20483,1,0,0:0:0:50:hithat.wav
64,192,20483,1,0,0:0:0:25:drum-hitclap.wav
448,192,20483,128,0,21132:0:0:0:25:drum-hitclap.wav
320,192,21132,1,0,0:0:0:25:drum-hitnormal.wav
64,192,21132,1,0,0:0:0:25:drum-hitnormal.wav
192,192,21294,1,0,0:0:0:50:drum-hitclap.wav
320,192,21294,1,0,0:0:0:25:hithat.wav
448,192,21294,1,0,0:0:0:25:hithat.wav
64,192,21456,1,0,0:0:0:25:drum-hitnormal.wav
192,192,21456,1,0,0:0:0:25:drum-hitnormal.wav
320,192,21618,128,0,21781:0:0:0:50:hithat.wav
448,192,21781,1,0,0:0:0:17:drum-hitclap.wav
192,192,21781,1,0,0:0:0:17:drum-hitclap.wav
64,192,21781,1,0,0:0:0:17:drum-hitclap.wav
320,192,21943,1,0,0:0:0:50:hithat.wav
192,192,22105,128,0,22267:0:0:0:50:hithat.wav
64,192,22267,1,0,0:0:0:25:drum-hitnormal.wav
448,192,22267,1,0,0:0:0:25:drum-hitnormal.wav
192,192,22348,1,0,0:0:0:25:drum-hitnormal.wav
320,192,22348,1,0,0:0:0:25:drum-hitnormal.wav
64,192,22429,1,0,0:0:0:25:drum-hitnormal.wav
448,192,22429,1,0,0:0:0:25:drum-hitnormal.wav
320,192,22510,1,0,0:0:0:50:hithat.wav
192,192,22591,1,0,0:0:0:50:hithat.wav
64,192,22672,1,0,0:0:0:50:hithat.wav
448,192,22754,1,0,0:0:0:50:drum-hitnormal.wav
320,192,22754,1,0,0:0:0:50:hithat.wav
192,192,22835,1,0,0:0:0:50:hithat.wav
320,192,22916,1,0,0:0:0:50:hithat.wav
448,192,22997,1,0,0:0:0:50:hithat.wav
320,192,23078,1,0,0:0:0:17:drum-hitclap.wav
192,192,23078,1,0,0:0:0:17:drum-hitclap.wav
64,192,23078,128,0,23727:0:0:0:17:drum-hitclap.wav
192,192,23727,1,0,0:0:0:50:hithat.wav
448,192,23727,1,0,0:0:0:50:drum-hitnormal.wav
320,192,23889,1,0,0:0:0:50:drum-hitclap.wav
64,192,23889,1,0,0:0:0:25:hithat.wav
192,192,23889,1,0,0:0:0:25:hithat.wav
448,192,24051,1,0,0:0:0:25:drum-hitnormal.wav
320,192,24051,1,0,0:0:0:25:drum-hitnormal.wav
192,192,24213,1,0,0:0:0:50:hithat.wav
64,192,24375,1,0,0:0:0:50:hithat.wav
320,192,24375,1,0,0:0:0:25:drum-hitclap.wav
448,192,24375,1,0,0:0:0:25:drum-hitclap.wav
192,192,24537,1,0,0:0:0:25:drum-hitclap.wav
64,192,24537,1,0,0:0:0:25:drum-hitclap.wav
320,192,24700,1,0,0:0:0:25:hithat.wav
448,192,24700,1,0,0:0:0:25:hithat.wav
192,192,24862,128,0,25024:0:0:0:50:hithat.wav
64,192,25024,1,0,0:0:0:25:drum-hitnormal.wav
320,192,25024,1,0,0:0:0:25:drum-hitnormal.wav
448,192,25186,1,0,0:0:0:0:
192,192,25348,1,0,0:0:0:25:drum-hitnormal.wav
320,192,25348,1,0,0:0:0:25:drum-hitnormal.wav
64,192,25510,1,0,0:0:0:0:
320,192,25672,1,0,0:0:0:25:drum-hitnormal.wav
448,192,25672,1,0,0:0:0:25:drum-hitnormal.wav
192,192,25835,1,0,0:0:0:0:
64,192,25997,1,0,0:0:0:25:drum-hitnormal.wav
448,192,25997,1,0,0:0:0:25:drum-hitnormal.wav
320,192,26159,1,0,0:0:0:0:
64,192,26321,1,0,0:0:0:25:drum-hitnormal.wav
448,192,26321,1,0,0:0:0:25:drum-hitnormal.wav
192,192,26483,1,0,0:0:0:0:
320,192,26645,1,0,0:0:0:25:drum-hitnormal.wav
448,192,26645,1,0,0:0:0:25:drum-hitnormal.wav
64,192,26808,1,0,0:0:0:0:
192,192,26970,1,0,0:0:0:25:drum-hitnormal.wav
320,192,26970,1,0,0:0:0:25:drum-hitnormal.wav
448,192,27132,1,0,0:0:0:0:
192,192,27294,1,0,0:0:0:25:drum-hitnormal.wav
64,192,27294,1,0,0:0:0:25:drum-hitnormal.wav
320,192,27456,1,0,0:0:0:0:
64,192,27618,1,0,0:0:0:25:drum-hitnormal.wav
448,192,27618,1,0,0:0:0:25:drum-hitnormal.wav
320,192,27781,1,0,0:0:0:0:
192,192,27943,1,0,0:0:0:25:drum-hitnormal.wav
448,192,27943,1,0,0:0:0:25:drum-hitnormal.wav
64,192,28105,1,0,0:0:0:0:
192,192,28267,1,0,0:0:0:25:drum-hitnormal.wav
320,192,28267,1,0,0:0:0:25:drum-hitnormal.wav
448,192,28429,1,0,0:0:0:0:
192,192,28591,1,0,0:0:0:25:drum-hitnormal.wav
64,192,28591,1,0,0:0:0:25:drum-hitnormal.wav
448,192,28754,1,0,0:0:0:0:
320,192,28916,1,0,0:0:0:25:drum-hitnormal.wav
64,192,28916,1,0,0:0:0:25:drum-hitnormal.wav
192,192,29078,1,0,0:0:0:0:
64,192,29240,1,0,0:0:0:25:drum-hitnormal.wav
448,192,29240,1,0,0:0:0:25:drum-hitnormal.wav
320,192,29402,1,0,0:0:0:0:
448,192,29564,1,0,0:0:0:25:drum-hitnormal.wav
64,192,29564,1,0,0:0:0:25:drum-hitnormal.wav
192,192,29727,1,0,0:0:0:0:
448,192,29889,1,0,0:0:0:25:drum-hitnormal.wav
320,192,29889,1,0,0:0:0:25:drum-hitnormal.wav
64,192,30051,1,0,0:0:0:0:
192,192,30213,1,0,0:0:0:25:drum-hitnormal.wav
448,192,30213,1,0,0:0:0:25:drum-hitnormal.wav
320,192,30375,1,0,0:0:0:0:
64,192,30537,1,0,0:0:0:25:drum-hitnormal.wav
448,192,30537,1,0,0:0:0:25:drum-hitnormal.wav
320,192,30700,1,0,0:0:0:0:
64,192,30862,1,0,0:0:0:25:drum-hitnormal.wav
192,192,30862,1,0,0:0:0:25:drum-hitnormal.wav
448,192,31024,1,0,0:0:0:0:
64,192,31186,1,0,0:0:0:25:drum-hitnormal.wav
320,192,31186,1,0,0:0:0:25:drum-hitnormal.wav
192,192,31348,1,0,0:0:0:0:
320,192,31510,1,0,0:0:0:25:drum-hitnormal.wav
448,192,31510,1,0,0:0:0:25:drum-hitnormal.wav
64,192,31672,1,0,0:0:0:0:
192,192,31835,1,0,0:0:0:25:drum-hitnormal.wav
320,192,31835,1,0,0:0:0:25:drum-hitnormal.wav
448,192,31997,1,0,0:0:0:0:
64,192,32159,1,0,0:0:0:25:drum-hitnormal.wav
320,192,32159,1,0,0:0:0:25:drum-hitnormal.wav
192,192,32321,1,0,0:0:0:0:
448,192,32483,1,0,0:0:0:25:drum-hitnormal.wav
320,192,32483,1,0,0:0:0:25:drum-hitnormal.wav
64,192,32645,1,0,0:0:0:0:
192,192,32808,1,0,0:0:0:25:drum-hitnormal.wav
448,192,32808,1,0,0:0:0:25:drum-hitnormal.wav
320,192,32970,1,0,0:0:0:0:
448,192,33132,1,0,0:0:0:25:drum-hitnormal.wav
64,192,33132,1,0,0:0:0:25:drum-hitnormal.wav
192,192,33294,1,0,0:0:0:0:
64,192,33456,1,0,0:0:0:25:drum-hitnormal.wav
320,192,33456,1,0,0:0:0:25:drum-hitnormal.wav
448,192,33618,1,0,0:0:0:0:
320,192,33781,1,0,0:0:0:25:drum-hitnormal.wav
192,192,33781,1,0,0:0:0:25:drum-hitnormal.wav
64,192,33943,1,0,0:0:0:25:drum-hitnormal.wav
448,192,33943,1,0,0:0:0:25:drum-hitnormal.wav
192,192,34754,1,0,0:0:0:0:
320,192,34916,1,0,0:0:0:25:drum-hitnormal.wav
448,192,34916,1,0,0:0:0:25:drum-hitnormal.wav
192,192,34997,1,0,0:0:0:25:drum-hitnormal.wav
64,192,34997,1,0,0:0:0:25:drum-hitnormal.wav
320,192,35078,1,0,0:0:0:25:drum-hitclap.wav
448,192,35078,1,0,0:0:0:25:drum-hitclap.wav
64,192,35402,1,0,0:0:0:17:drum-hitnormal.wav
192,192,35402,1,0,0:0:0:17:drum-hitnormal.wav
448,192,35402,1,0,0:0:0:17:drum-hitnormal.wav
320,192,35564,1,0,0:0:0:50:hithat.wav
192,192,35727,1,0,0:0:0:25:drum-hitclap.wav
448,192,35727,1,0,0:0:0:25:drum-hitclap.wav
320,192,35889,1,0,0:0:0:50:hithat.wav
64,192,36051,1,0,0:0:0:25:drum-hitnormal.wav
192,192,36051,1,0,0:0:0:25:drum-hitnormal.wav
448,192,36213,1,0,0:0:0:50:hithat.wav
320,192,36375,1,0,0:0:0:25:drum-hitclap.wav
64,192,36375,1,0,0:0:0:25:drum-hitclap.wav
192,192,36537,1,0,0:0:0:50:hithat.wav
320,192,36700,1,0,0:0:0:25:drum-hitnormal.wav
448,192,36700,1,0,0:0:0:25:drum-hitnormal.wav
64,192,36862,1,0,0:0:0:50:hithat.wav
192,192,37024,1,0,0:0:0:25:drum-hitclap.wav
448,192,37024,1,0,0:0:0:25:drum-hitclap.wav
320,192,37186,1,0,0:0:0:50:hithat.wav
192,192,37348,1,0,0:0:0:25:drum-hitnormal.wav
64,192,37348,1,0,0:0:0:25:drum-hitnormal.wav
64,192,37510,1,0,0:0:0:50:hithat.wav
192,192,37672,1,0,0:0:0:25:drum-hitclap.wav
448,192,37672,1,0,0:0:0:25:drum-hitclap.wav
320,192,37835,1,0,0:0:0:50:hithat.wav
192,192,37997,1,0,0:0:0:25:drum-hitnormal.wav
64,192,37997,1,0,0:0:0:25:drum-hitnormal.wav
320,192,38159,1,0,0:0:0:50:hithat.wav
448,192,38321,1,0,0:0:0:25:drum-hitclap.wav
64,192,38321,1,0,0:0:0:25:drum-hitclap.wav
192,192,38483,1,0,0:0:0:50:hithat.wav
320,192,38645,1,0,0:0:0:25:drum-hitnormal.wav
448,192,38645,1,0,0:0:0:25:drum-hitnormal.wav
448,192,38808,1,0,0:0:0:50:hithat.wav
64,192,38970,1,0,0:0:0:25:drum-hitclap.wav
320,192,38970,1,0,0:0:0:25:drum-hitclap.wav
192,192,39132,1,0,0:0:0:50:hithat.wav
320,192,39294,1,0,0:0:0:25:drum-hitnormal.wav
448,192,39294,1,0,0:0:0:25:drum-hitnormal.wav
64,192,39456,1,0,0:0:0:50:hithat.wav
192,192,39618,1,0,0:0:0:25:drum-hitclap.wav
448,192,39618,1,0,0:0:0:25:drum-hitclap.wav
320,192,39781,1,0,0:0:0:50:hithat.wav
64,192,39943,1,0,0:0:0:25:drum-hitnormal.wav
192,192,39943,1,0,0:0:0:25:drum-hitnormal.wav
192,192,40105,1,0,0:0:0:50:hithat.wav
64,192,40267,1,0,0:0:0:25:drum-hitclap.wav
448,192,40267,1,0,0:0:0:25:drum-hitclap.wav
320,192,40429,1,0,0:0:0:50:hithat.wav
64,192,40591,1,0,0:0:0:25:drum-hitnormal.wav
192,192,40591,1,0,0:0:0:25:drum-hitnormal.wav
320,192,40754,1,0,0:0:0:50:hithat.wav
192,192,40916,1,0,0:0:0:25:drum-hitclap.wav
448,192,40916,1,0,0:0:0:25:drum-hitclap.wav
320,192,41078,1,0,0:0:0:50:hithat.wav
64,192,41240,1,0,0:0:0:25:drum-hitnormal.wav
192,192,41240,1,0,0:0:0:25:drum-hitnormal.wav
192,192,41402,1,0,0:0:0:50:hithat.wav
320,192,41564,1,0,0:0:0:25:drum-hitclap.wav
448,192,41564,1,0,0:0:0:25:drum-hitclap.wav
64,192,41727,1,0,0:0:0:50:hithat.wav
320,192,41889,1,0,0:0:0:25:drum-hitnormal.wav
448,192,41889,1,0,0:0:0:25:drum-hitnormal.wav
192,192,42051,1,0,0:0:0:50:hithat.wav
64,192,42213,1,0,0:0:0:25:drum-hitclap.wav
320,192,42213,1,0,0:0:0:25:drum-hitclap.wav
192,192,42375,1,0,0:0:0:50:hithat.wav
320,192,42537,1,0,0:0:0:25:drum-hitnormal.wav
448,192,42537,1,0,0:0:0:25:drum-hitnormal.wav
448,192,42700,1,0,0:0:0:50:hithat.wav
64,192,42862,1,0,0:0:0:25:drum-hitclap.wav
320,192,42862,1,0,0:0:0:25:drum-hitclap.wav
192,192,43024,1,0,0:0:0:50:hithat.wav
320,192,43186,1,0,0:0:0:25:drum-hitnormal.wav
448,192,43186,1,0,0:0:0:25:drum-hitnormal.wav
192,192,43348,1,0,0:0:0:50:hithat.wav
320,192,43510,1,0,0:0:0:25:drum-hitclap.wav
64,192,43510,1,0,0:0:0:25:drum-hitclap.wav
448,192,43672,1,0,0:0:0:50:hithat.wav
64,192,43835,1,0,0:0:0:25:drum-hitnormal.wav
192,192,43835,1,0,0:0:0:25:drum-hitnormal.wav
192,192,43997,1,0,0:0:0:50:hithat.wav
448,192,44159,1,0,0:0:0:25:drum-hitclap.wav
320,192,44159,1,0,0:0:0:25:drum-hitclap.wav
192,192,44321,1,0,0:0:0:25:drum-hitnormal.wav
64,192,44321,1,0,0:0:0:25:drum-hitnormal.wav
448,192,44645,1,0,0:0:0:0:
64,192,44808,1,0,0:0:0:25:drum-hitclap.wav
320,192,44808,1,0,0:0:0:25:drum-hitclap.wav
192,192,44970,1,0,0:0:0:0:
64,192,45132,128,0,45294:0:0:0:25:drum-hitnormal.wav
320,192,45132,1,0,0:0:0:25:drum-hitnormal.wav
192,192,45294,128,0,45456:0:0:0:25:drum-hitnormal.wav
448,192,45294,1,0,0:0:0:25:drum-hitnormal.wav
320,192,45456,128,0,45618:0:0:0:25:drum-hitclap.wav
64,192,45456,1,0,0:0:0:25:drum-hitclap.wav
448,192,45618,128,0,45781:0:0:0:0:
64,192,45781,1,0,0:0:0:25:drum-hitnormal.wav
192,192,45781,1,0,0:0:0:25:drum-hitnormal.wav
320,192,46267,1,0,0:0:0:25:drum-hitnormal.wav
448,192,46267,1,0,0:0:0:25:drum-hitnormal.wav
64,192,46429,1,0,0:0:0:17:drum-hitclap.wav
192,192,46429,1,0,0:0:0:17:drum-hitclap.wav
448,192,46429,1,0,0:0:0:17:drum-hitclap.wav
320,192,47078,1,0,0:0:0:25:drum-hitnormal.wav
448,192,47078,1,0,0:0:0:25:drum-hitnormal.wav
320,192,47402,1,0,0:0:0:25:drum-hitnormal.wav
448,192,47402,1,0,0:0:0:25:drum-hitnormal.wav
64,192,47727,1,0,0:0:0:17:drum-hitclap.wav
448,192,47727,1,0,0:0:0:17:drum-hitclap.wav
192,192,47727,1,0,0:0:0:17:drum-hitclap.wav
192,192,48051,1,0,0:0:0:25:drum-hitnormal.wav
320,192,48051,1,0,0:0:0:25:drum-hitnormal.wav
64,192,48375,1,0,0:0:0:25:drum-hitnormal.wav
192,192,48375,1,0,0:0:0:25:drum-hitnormal.wav
192,192,48862,1,0,0:0:0:25:drum-hitnormal.wav
64,192,48862,1,0,0:0:0:25:drum-hitnormal.wav
64,192,49024,1,0,0:0:0:17:drum-hitclap.wav
320,192,49024,1,0,0:0:0:17:drum-hitclap.wav
448,192,49024,1,0,0:0:0:17:drum-hitclap.wav
192,192,49672,1,0,0:0:0:25:drum-hitnormal.wav
320,192,49672,1,0,0:0:0:25:drum-hitnormal.wav
192,192,49997,1,0,0:0:0:25:drum-hitnormal.wav
320,192,49997,1,0,0:0:0:25:drum-hitnormal.wav
64,192,50321,1,0,0:0:0:17:drum-hitclap.wav
448,192,50321,1,0,0:0:0:17:drum-hitclap.wav
192,192,50321,1,0,0:0:0:17:drum-hitclap.wav
192,192,50645,1,0,0:0:0:25:drum-hitnormal.wav
320,192,50645,1,0,0:0:0:25:drum-hitnormal.wav
64,192,51132,1,0,0:0:0:17:drum-hitclap.wav
448,192,51132,1,0,0:0:0:17:drum-hitclap.wav
320,192,51132,1,0,0:0:0:17:drum-hitclap.wav
192,192,51294,1,0,0:0:0:25:drum-hitnormal.wav
448,192,51294,1,0,0:0:0:25:drum-hitnormal.wav
64,192,51618,1,0,0:0:0:17:drum-hitclap.wav
320,192,51618,1,0,0:0:0:17:drum-hitclap.wav
192,192,51618,1,0,0:0:0:17:drum-hitclap.wav
320,192,51943,1,0,0:0:0:25:drum-hitnormal.wav
448,192,51943,1,0,0:0:0:25:drum-hitnormal.wav
64,192,52105,1,0,0:0:0:25:drum-hitclap.wav
192,192,52105,1,0,0:0:0:25:drum-hitclap.wav
448,192,52429,128,0,52591:0:0:0:25:drum-hitnormal.wav
320,192,52429,1,0,0:0:0:25:drum-hitnormal.wav
64,192,52591,128,0,52754:0:0:0:25:drum-hitnormal.wav
192,192,52591,1,0,0:0:0:25:drum-hitnormal.wav
320,192,52754,128,0,52916:0:0:0:25:drum-hitnormal.wav
448,192,52754,1,0,0:0:0:25:drum-hitnormal.wav
192,192,52916,128,0,53078:0:0:0:25:drum-hitnormal.wav
64,192,52916,1,0,0:0:0:25:drum-hitnormal.wav
64,192,53240,1,0,0:0:0:50:Cymbal.wav
320,192,53240,1,0,0:0:0:25:drum-hitclap.wav
448,192,53240,1,0,0:0:0:25:drum-hitclap.wav
192,192,53564,1,0,0:0:0:25:drum-hitnormal.wav
448,192,53564,1,0,0:0:0:25:drum-hitnormal.wav
320,192,53727,1,0,0:0:0:50:hithat.wav
64,192,53889,1,0,0:0:0:17:drum-hitclap.wav
192,192,53889,1,0,0:0:0:17:drum-hitclap.wav
448,192,53889,1,0,0:0:0:17:drum-hitclap.wav
320,192,54051,1,0,0:0:0:50:hithat.wav
64,192,54213,1,0,0:0:0:25:drum-hitnormal.wav
192,192,54213,1,0,0:0:0:25:drum-hitnormal.wav
448,192,54375,1,0,0:0:0:50:hithat.wav
320,192,54537,1,0,0:0:0:25:drum-hitclap.wav
64,192,54537,1,0,0:0:0:25:drum-hitclap.wav
192,192,54700,1,0,0:0:0:50:hithat.wav
320,192,54862,1,0,0:0:0:25:drum-hitnormal.wav
448,192,54862,1,0,0:0:0:25:drum-hitnormal.wav
192,192,55024,1,0,0:0:0:50:hithat.wav
64,192,55186,1,0,0:0:0:25:drum-hitclap.wav
448,192,55186,1,0,0:0:0:25:drum-hitclap.wav
320,192,55348,1,0,0:0:0:50:hithat.wav
192,192,55510,1,0,0:0:0:25:drum-hitnormal.wav
64,192,55510,1,0,0:0:0:25:drum-hitnormal.wav
320,192,55672,1,0,0:0:0:50:hithat.wav
448,192,55835,1,0,0:0:0:25:drum-hitclap.wav
192,192,55835,1,0,0:0:0:25:drum-hitclap.wav
320,192,55997,1,0,0:0:0:50:hithat.wav
64,192,56159,1,0,0:0:0:25:drum-hitnormal.wav
192,192,56159,1,0,0:0:0:25:drum-hitnormal.wav
64,192,56321,1,0,0:0:0:50:hithat.wav
320,192,56483,1,0,0:0:0:25:drum-hitclap.wav
448,192,56483,1,0,0:0:0:25:drum-hitclap.wav
448,192,56645,1,0,0:0:0:50:hithat.wav
64,192,56808,1,0,0:0:0:25:drum-hitnormal.wav
192,192,56808,1,0,0:0:0:25:drum-hitnormal.wav
320,192,56970,1,0,0:0:0:50:hithat.wav
448,192,57132,1,0,0:0:0:25:drum-hitclap.wav
64,192,57132,1,0,0:0:0:25:drum-hitclap.wav
192,192,57294,1,0,0:0:0:50:hithat.wav
320,192,57456,1,0,0:0:0:25:drum-hitnormal.wav
448,192,57456,1,0,0:0:0:25:drum-hitnormal.wav
64,192,57618,1,0,0:0:0:50:hithat.wav
192,192,57781,1,0,0:0:0:25:drum-hitclap.wav
448,192,57781,1,0,0:0:0:25:drum-hitclap.wav
320,192,57943,1,0,0:0:0:50:hithat.wav
192,192,58105,1,0,0:0:0:25:drum-hitnormal.wav
64,192,58105,1,0,0:0:0:25:drum-hitnormal.wav
320,192,58267,1,0,0:0:0:50:hithat.wav
448,192,58429,1,0,0:0:0:25:drum-hitclap.wav
64,192,58429,1,0,0:0:0:25:drum-hitclap.wav
192,192,58591,1,0,0:0:0:50:hithat.wav
320,192,58754,1,0,0:0:0:25:drum-hitnormal.wav
448,192,58754,1,0,0:0:0:25:drum-hitnormal.wav
64,192,58916,1,0,0:0:0:50:hithat.wav
192,192,59078,1,0,0:0:0:17:drum-hitclap.wav
320,192,59078,1,0,0:0:0:17:drum-hitclap.wav
448,192,59078,1,0,0:0:0:17:drum-hitclap.wav
64,192,59240,1,0,0:0:0:50:hithat.wav
320,192,59402,1,0,0:0:0:25:drum-hitnormal.wav
448,192,59402,1,0,0:0:0:25:drum-hitnormal.wav
64,192,59564,1,0,0:0:0:50:hithat.wav
192,192,59727,1,0,0:0:0:25:drum-hitclap.wav
448,192,59727,1,0,0:0:0:25:drum-hitclap.wav
320,192,59889,1,0,0:0:0:50:hithat.wav
192,192,60051,1,0,0:0:0:25:drum-hitnormal.wav
64,192,60051,1,0,0:0:0:25:drum-hitnormal.wav
320,192,60213,1,0,0:0:0:50:hithat.wav
448,192,60375,1,0,0:0:0:25:drum-hitclap.wav
64,192,60375,1,0,0:0:0:25:drum-hitclap.wav
192,192,60537,1,0,0:0:0:50:hithat.wav
320,192,60700,1,0,0:0:0:25:drum-hitnormal.wav
448,192,60700,1,0,0:0:0:25:drum-hitnormal.wav
192,192,60862,1,0,0:0:0:50:hithat.wav
64,192,61024,1,0,0:0:0:25:drum-hitclap.wav
320,192,61024,1,0,0:0:0:25:drum-hitclap.wav
448,192,61186,1,0,0:0:0:50:hithat.wav
192,192,61348,1,0,0:0:0:25:drum-hitnormal.wav
64,192,61348,1,0,0:0:0:25:drum-hitnormal.wav
320,192,61510,1,0,0:0:0:50:hithat.wav
448,192,61672,1,0,0:0:0:25:drum-hitclap.wav
64,192,61672,1,0,0:0:0:25:drum-hitclap.wav
192,192,61835,1,0,0:0:0:50:hithat.wav
320,192,61997,1,0,0:0:0:25:drum-hitnormal.wav
448,192,61997,1,0,0:0:0:25:drum-hitnormal.wav
64,192,62159,1,0,0:0:0:50:hithat.wav
192,192,62321,1,0,0:0:0:25:drum-hitclap.wav
320,192,62321,1,0,0:0:0:25:drum-hitclap.wav
448,192,62483,1,0,0:0:0:25:drum-hitnormal.wav
64,192,62483,128,0,62970:0:0:0:25:drum-hitnormal.wav
192,192,62970,128,0,63294:0:0:0:25:drum-hitnormal.wav
448,192,62970,1,0,0:0:0:25:drum-hitnormal.wav
320,192,63294,128,0,63618:0:0:0:25:drum-hitnormal.wav
64,192,63294,1,0,0:0:0:25:drum-hitnormal.wav
448,192,63618,128,0,63943:0:0:0:25:drum-hitclap.wav
192,192,63618,1,0,0:0:0:25:drum-hitclap.wav
64,192,63943,1,0,0:0:0:50:Cymbal.wav
320,192,63943,1,0,0:0:0:50:drum-hitnormal.wav
192,192,64105,1,0,0:0:0:50:hithat.wav
64,192,64267,1,0,0:0:0:17:drum-hitclap.wav
320,192,64267,1,0,0:0:0:17:drum-hitclap.wav
448,192,64267,1,0,0:0:0:17:drum-hitclap.wav
192,192,64429,1,0,0:0:0:50:hithat.wav
320,192,64591,1,0,0:0:0:25:drum-hitnormal.wav
448,192,64591,1,0,0:0:0:25:drum-hitnormal.wav
64,192,64754,1,0,0:0:0:50:hithat.wav
192,192,64916,1,0,0:0:0:25:drum-hitclap.wav
448,192,64916,1,0,0:0:0:25:drum-hitclap.wav
320,192,65078,1,0,0:0:0:50:hithat.wav
64,192,65240,1,0,0:0:0:25:drum-hitnormal.wav
192,192,65240,1,0,0:0:0:25:drum-hitnormal.wav
448,192,65402,1,0,0:0:0:50:hithat.wav
320,192,65564,1,0,0:0:0:25:drum-hitclap.wav
64,192,65564,1,0,0:0:0:25:drum-hitclap.wav
192,192,65727,1,0,0:0:0:50:hithat.wav
320,192,65889,1,0,0:0:0:25:drum-hitnormal.wav
448,192,65889,1,0,0:0:0:25:drum-hitnormal.wav
64,192,66051,1,0,0:0:0:50:hithat.wav
192,192,66213,1,0,0:0:0:25:drum-hitclap.wav
320,192,66213,1,0,0:0:0:25:drum-hitclap.wav
448,192,66375,1,0,0:0:0:50:hithat.wav
64,192,66537,1,0,0:0:0:25:drum-hitnormal.wav
320,192,66537,1,0,0:0:0:25:drum-hitnormal.wav
64,192,66700,1,0,0:0:0:50:hithat.wav
192,192,66862,1,0,0:0:0:25:drum-hitclap.wav
448,192,66862,1,0,0:0:0:25:drum-hitclap.wav
448,192,67024,1,0,0:0:0:50:hithat.wav
64,192,67186,1,0,0:0:0:25:drum-hitnormal.wav
320,192,67186,1,0,0:0:0:25:drum-hitnormal.wav
192,192,67348,1,0,0:0:0:50:hithat.wav
320,192,67510,1,0,0:0:0:25:drum-hitclap.wav
448,192,67510,1,0,0:0:0:25:drum-hitclap.wav
64,192,67672,1,0,0:0:0:50:hithat.wav
192,192,67835,1,0,0:0:0:25:drum-hitnormal.wav
320,192,67835,1,0,0:0:0:25:drum-hitnormal.wav
448,192,67997,1,0,0:0:0:50:hithat.wav
64,192,68159,1,0,0:0:0:25:drum-hitclap.wav
192,192,68159,1,0,0:0:0:25:drum-hitclap.wav
320,192,68321,1,0,0:0:0:50:hithat.wav
448,192,68483,1,0,0:0:0:25:drum-hitnormal.wav
64,192,68483,1,0,0:0:0:25:drum-hitnormal.wav
192,192,68645,1,0,0:0:0:50:hithat.wav
320,192,68808,1,0,0:0:0:25:drum-hitclap.wav
448,192,68808,1,0,0:0:0:25:drum-hitclap.wav
64,192,68970,1,0,0:0:0:50:hithat.wav
192,192,69132,1,0,0:0:0:25:drum-hitnormal.wav
448,192,69132,1,0,0:0:0:25:drum-hitnormal.wav
320,192,69294,1,0,0:0:0:50:hithat.wav
64,192,69456,1,0,0:0:0:17:drum-hitclap.wav
192,192,69456,1,0,0:0:0:17:drum-hitclap.wav
448,192,69456,1,0,0:0:0:17:drum-hitclap.wav
320,192,69618,1,0,0:0:0:50:hithat.wav
192,192,69781,1,0,0:0:0:25:drum-hitnormal.wav
64,192,69781,1,0,0:0:0:25:drum-hitnormal.wav
448,192,69943,1,0,0:0:0:50:hithat.wav
320,192,70105,1,0,0:0:0:25:drum-hitclap.wav
192,192,70105,1,0,0:0:0:25:drum-hitclap.wav
64,192,70267,1,0,0:0:0:50:hithat.wav
320,192,70429,1,0,0:0:0:25:drum-hitnormal.wav
448,192,70429,1,0,0:0:0:25:drum-hitnormal.wav
192,192,70591,1,0,0:0:0:50:hithat.wav
64,192,70754,1,0,0:0:0:25:drum-hitclap.wav
448,192,70754,1,0,0:0:0:25:drum-hitclap.wav
320,192,70916,1,0,0:0:0:50:hithat.wav
192,192,71078,1,0,0:0:0:25:drum-hitnormal.wav
64,192,71078,1,0,0:0:0:25:drum-hitnormal.wav
448,192,71240,1,0,0:0:0:50:hithat.wav
320,192,71402,1,0,0:0:0:25:drum-hitclap.wav
64,192,71402,1,0,0:0:0:25:drum-hitclap.wav
192,192,71564,1,0,0:0:0:50:hithat.wav
320,192,71727,1,0,0:0:0:25:drum-hitnormal.wav
448,192,71727,1,0,0:0:0:25:drum-hitnormal.wav
64,192,71889,1,0,0:0:0:50:hithat.wav
192,192,72051,1,0,0:0:0:25:drum-hitclap.wav
448,192,72051,1,0,0:0:0:25:drum-hitclap.wav
320,192,72213,1,0,0:0:0:50:hithat.wav
192,192,72375,1,0,0:0:0:25:drum-hitnormal.wav
64,192,72375,1,0,0:0:0:25:drum-hitnormal.wav
448,192,72537,1,0,0:0:0:50:hithat.wav
320,192,72700,1,0,0:0:0:25:drum-hitclap.wav
192,192,72700,1,0,0:0:0:25:drum-hitclap.wav
64,192,72862,1,0,0:0:0:50:hithat.wav
320,192,73024,1,0,0:0:0:25:drum-hitnormal.wav
448,192,73024,1,0,0:0:0:25:drum-hitnormal.wav
192,192,73186,1,0,0:0:0:50:hithat.wav
64,192,73348,1,0,0:0:0:25:drum-hitclap.wav
448,192,73348,1,0,0:0:0:25:drum-hitclap.wav
320,192,73510,1,0,0:0:0:50:hithat.wav
192,192,73672,1,0,0:0:0:25:drum-hitnormal.wav
64,192,73672,1,0,0:0:0:25:drum-hitnormal.wav
448,192,73835,1,0,0:0:0:50:drum-hitclap.wav
192,192,73916,1,0,0:0:0:50:drum-hitclap.wav
320,192,73997,1,0,0:0:0:50:drum-hitnormal.wav
64,192,74078,1,0,0:0:0:50:drum-hitnormal.wav
192,192,74159,1,0,0:0:0:50:drum-hitnormal.wav
64,192,74321,1,0,0:0:0:25:drum-hitnormal.wav
448,192,74321,128,0,74483:0:0:0:25:drum-hitnormal.wav
64,192,74645,128,0,74808:0:0:0:25:drum-hitnormal.wav
448,192,74645,1,0,0:0:0:25:drum-hitnormal.wav
320,192,74970,1,0,0:0:0:17:drum-hitclap.wav
448,192,74970,1,0,0:0:0:17:drum-hitclap.wav
192,192,74970,128,0,75294:0:0:0:17:drum-hitclap.wav
448,192,75456,128,0,75781:0:0:0:25:drum-hitnormal.wav
320,192,75456,1,0,0:0:0:25:drum-hitnormal.wav
64,192,75781,128,0,75943:0:0:0:25:drum-hitnormal.wav
192,192,75781,1,0,0:0:0:25:drum-hitnormal.wav
320,192,75943,128,0,76105:0:0:0:25:drum-hitnormal.wav
448,192,75943,1,0,0:0:0:25:drum-hitnormal.wav
192,192,76105,128,0,76429:0:0:0:25:drum-hitnormal.wav
64,192,76105,1,0,0:0:0:25:drum-hitnormal.wav
320,192,76429,1,0,0:0:0:25:drum-hitclap.wav
448,192,76429,1,0,0:0:0:25:drum-hitclap.wav
64,192,76591,1,0,0:0:0:25:drum-hitclap.wav
192,192,76591,1,0,0:0:0:25:drum-hitclap.wav
320,192,76754,1,0,0:0:0:25:drum-hitclap.wav
448,192,76754,1,0,0:0:0:25:drum-hitclap.wav
64,192,76916,128,0,77078:0:0:0:50:drum-hitclap.wav
192,192,76916,1,0,0:0:0:50:drum-hitnormal.wav
448,192,77240,128,0,77402:0:0:0:25:drum-hitnormal.wav
320,192,77240,1,0,0:0:0:25:drum-hitnormal.wav
192,192,77564,128,0,77889:0:0:0:50:drum-hitclap.wav
64,192,77564,1,0,0:0:0:25:drum-hitnormal.wav
320,192,77564,1,0,0:0:0:25:drum-hitnormal.wav
448,192,78051,128,0,78375:0:0:0:50:drum-hitnormal.wav
64,192,78051,1,0,0:0:0:50:drum-hitclap.wav
192,192,78375,1,0,0:0:0:25:drum-hitnormal.wav
320,192,78375,1,0,0:0:0:25:drum-hitnormal.wav
64,192,78537,1,0,0:0:0:25:drum-hitnormal.wav
448,192,78537,1,0,0:0:0:25:drum-hitnormal.wav
192,192,78700,128,0,79186:0:0:0:50:drum-hitnormal.wav
320,192,78700,1,0,0:0:0:25:drum-hitclap.wav
64,192,78700,1,0,0:0:0:25:drum-hitclap.wav
64,192,79186,1,0,0:0:0:50:drum-hitclap.wav
320,192,79186,1,0,0:0:0:25:drum-hitnormal.wav
448,192,79186,1,0,0:0:0:25:drum-hitnormal.wav
192,192,79510,1,0,0:0:0:25:drum-hitnormal.wav
448,192,79510,1,0,0:0:0:25:drum-hitnormal.wav
320,192,79672,1,0,0:0:0:50:hithat.wav
64,192,79835,1,0,0:0:0:25:drum-hitclap.wav
192,192,79835,1,0,0:0:0:25:drum-hitclap.wav
448,192,79997,128,0,80483:0:0:0:25:hithat.wav
320,192,79997,1,0,0:0:0:25:hithat.wav
64,192,80159,1,0,0:0:0:25:drum-hitnormal.wav
192,192,80159,1,0,0:0:0:25:drum-hitnormal.wav
320,192,80321,1,0,0:0:0:50:hithat.wav
64,192,80483,1,0,0:0:0:25:drum-hitclap.wav
192,192,80483,1,0,0:0:0:25:drum-hitclap.wav
320,192,80645,128,0,80808:0:0:0:50:hithat.wav
64,192,80808,1,0,0:0:0:25:drum-hitnormal.wav
448,192,80808,1,0,0:0:0:25:drum-hitnormal.wav
192,192,80970,128,0,81132:0:0:0:50:hithat.wav
448,192,81132,1,0,0:0:0:25:drum-hitclap.wav
320,192,81132,128,0,81294:0:0:0:25:drum-hitclap.wav
64,192,81294,128,0,81456:0:0:0:25:hithat.wav
192,192,81294,1,0,0:0:0:25:hithat.wav
320,192,81456,1,0,0:0:0:25:drum-hitnormal.wav
448,192,81456,1,0,0:0:0:25:drum-hitnormal.wav
64,192,81618,1,0,0:0:0:25:hithat.wav
448,192,81618,128,0,81943:0:0:0:25:hithat.wav
64,192,81781,1,0,0:0:0:25:drum-hitclap.wav
192,192,81781,1,0,0:0:0:25:drum-hitclap.wav
320,192,81943,1,0,0:0:0:50:hithat.wav
320,192,82105,1,0,0:0:0:25:drum-hitnormal.wav
64,192,82105,1,0,0:0:0:25:drum-hitnormal.wav
192,192,82267,1,0,0:0:0:50:hithat.wav
64,192,82429,1,0,0:0:0:25:drum-hitclap.wav
448,192,82429,1,0,0:0:0:25:drum-hitclap.wav
192,192,82591,128,0,83078:0:0:0:25:hithat.wav
320,192,82591,1,0,0:0:0:25:hithat.wav
448,192,82754,1,0,0:0:0:25:drum-hitnormal.wav
64,192,82754,1,0,0:0:0:25:drum-hitnormal.wav
448,192,82916,1,0,0:0:0:50:hithat.wav
320,192,83078,1,0,0:0:0:25:drum-hitclap.wav
64,192,83078,1,0,0:0:0:25:drum-hitclap.wav
448,192,83240,128,0,83402:0:0:0:50:hithat.wav
64,192,83402,1,0,0:0:0:25:drum-hitnormal.wav
320,192,83402,1,0,0:0:0:25:drum-hitnormal.wav
192,192,83564,128,0,83727:0:0:0:50:hithat.wav
448,192,83727,1,0,0:0:0:25:drum-hitclap.wav
320,192,83727,1,0,0:0:0:25:drum-hitclap.wav
320,192,83889,128,0,84051:0:0:0:50:hithat.wav
64,192,84051,1,0,0:0:0:25:drum-hitnormal.wav
192,192,84051,1,0,0:0:0:25:drum-hitnormal.wav
64,192,84213,128,0,84537:0:0:0:50:hithat.wav
320,192,84375,1,0,0:0:0:25:drum-hitnormal.wav
448,192,84375,1,0,0:0:0:25:drum-hitnormal.wav
192,192,84537,1,0,0:0:0:25:drum-hitclap.wav
448,192,84537,1,0,0:0:0:25:drum-hitclap.wav
320,192,84618,1,0,0:0:0:25:drum-hitclap.wav
64,192,84618,1,0,0:0:0:25:drum-hitclap.wav
192,192,84700,1,0,0:0:0:25:drum-hitnormal.wav
448,192,84700,1,0,0:0:0:25:drum-hitnormal.wav
320,192,84862,1,0,0:0:0:50:hithat.wav
448,192,85024,1,0,0:0:0:25:drum-hitclap.wav
64,192,85024,1,0,0:0:0:25:drum-hitclap.wav
192,192,85186,128,0,85672:0:0:0:25:hithat.wav
320,192,85186,1,0,0:0:0:25:hithat.wav
448,192,85348,1,0,0:0:0:25:drum-hitnormal.wav
64,192,85348,1,0,0:0:0:25:drum-hitnormal.wav
64,192,85510,1,0,0:0:0:50:hithat.wav
320,192,85672,1,0,0:0:0:25:drum-hitclap.wav
448,192,85672,1,0,0:0:0:25:drum-hitclap.wav
64,192,85835,128,0,85997:0:0:0:50:hithat.wav
192,192,85997,1,0,0:0:0:25:drum-hitnormal.wav
448,192,85997,1,0,0:0:0:25:drum-hitnormal.wav
320,192,86159,128,0,86321:0:0:0:50:hithat.wav
192,192,86321,1,0,0:0:0:25:drum-hitclap.wav
64,192,86321,128,0,86483:0:0:0:25:drum-hitclap.wav
448,192,86483,128,0,86645:0:0:0:50:hithat.wav
320,192,86645,1,0,0:0:0:25:drum-hitnormal.wav
192,192,86645,1,0,0:0:0:25:drum-hitnormal.wav
448,192,86808,128,0,87294:0:0:0:25:hithat.wav
64,192,86808,1,0,0:0:0:25:hithat.wav
192,192,86970,1,0,0:0:0:25:drum-hitclap.wav
320,192,86970,1,0,0:0:0:25:drum-hitclap.wav
64,192,87132,1,0,0:0:0:50:hithat.wav
192,192,87294,1,0,0:0:0:25:drum-hitnormal.wav
320,192,87294,1,0,0:0:0:25:drum-hitnormal.wav
448,192,87456,1,0,0:0:0:50:hithat.wav
64,192,87618,1,0,0:0:0:25:drum-hitclap.wav
320,192,87618,1,0,0:0:0:25:drum-hitclap.wav
448,192,87781,128,0,88267:0:0:0:25:hithat.wav
192,192,87781,1,0,0:0:0:25:hithat.wav
320,192,87943,1,0,0:0:0:25:drum-hitnormal.wav
64,192,87943,1,0,0:0:0:25:drum-hitnormal.wav
64,192,88105,1,0,0:0:0:50:hithat.wav
192,192,88267,1,0,0:0:0:25:drum-hitclap.wav
320,192,88267,1,0,0:0:0:25:drum-hitclap.wav
64,192,88429,1,0,0:0:0:50:Cymbal.wav
448,192,88429,1,0,0:0:0:25:hithat.wav
192,192,88429,128,0,88672:0:0:0:25:hithat.wav
64,192,88754,128,0,88916:0:0:0:50:hithat.wav
320,192,88916,128,0,89078:0:0:0:25:drum-hitnormal.wav
448,192,88916,1,0,0:0:0:25:drum-hitnormal.wav
192,192,89078,128,0,89240:0:0:0:50:hithat.wav
448,192,89240,128,0,89402:0:0:0:25:drum-hitnormal.wav
64,192,89240,1,0,0:0:0:25:drum-hitnormal.wav
64,192,89402,1,0,0:0:0:25:drum-hitclap.wav
192,192,89402,1,0,0:0:0:25:drum-hitclap.wav
320,192,89483,1,0,0:0:0:25:drum-hitclap.wav
448,192,89483,1,0,0:0:0:25:drum-hitclap.wav
192,192,89564,1,0,0:0:0:50:drum-hitnormal.wav
64,192,89645,1,0,0:0:0:50:drum-hitnormal.wav
448,192,89727,1,0,0:0:0:50:drum-hitnormal.wav
320,192,89808,1,0,0:0:0:50:drum-hitnormal.wav
192,192,89889,1,0,0:0:0:50:drum-hitclap.wav
64,192,89889,1,0,0:0:0:50:drum-hitnormal.wav
64,192,90051,1,0,0:0:0:50:drum-hitnormal.wav
192,192,90051,1,0,0:0:0:50:drum-hitclap.wav
320,192,90375,1,0,0:0:0:50:drum-hitnormal.wav
448,192,90375,1,0,0:0:0:50:drum-hitclap.wav
320,192,90537,1,0,0:0:0:50:drum-hitclap.wav
448,192,90537,1,0,0:0:0:50:drum-hitnormal.wav
64,192,90862,1,0,0:0:0:50:drum-hitnormal.wav
192,192,90862,1,0,0:0:0:25:drum-hitclap.wav
448,192,90862,1,0,0:0:0:25:drum-hitclap.wav
64,192,91510,128,0,96375:0:0:0:70:Cymbal.wav
448,192,91510,128,0,95727:0:0:0:25:drum-hitnormal.wav
320,192,91510,1,0,0:0:0:25:drum-hitnormal.wav
192,192,94956,128,0,95727:0:0:0:0:
320,192,94956,128,0,95727:0:0:0:0:
