osu file format v14

[General]
AudioFilename: audio.mp3
AudioLeadIn: 0
PreviewTime: 53564
Countdown: 0
SampleSet: Soft
StackLeniency: 0.7
Mode: 3
LetterboxInBreaks: 0
SpecialStyle: 0
WidescreenStoryboard: 0

[Editor]
DistanceSpacing: 1.3
BeatDivisor: 4
GridSize: 4
TimelineZoom: 2.999999

[Metadata]
Title:Be My Zombie
TitleUnicode:ビーマイ☆ゾンビ
Artist:Idol College
ArtistUnicode:アイドルカレッジ
Creator:Rivals_7
Version:4K EZ 'Rom'
Source:激次元タッグ ブラン+ネプテューヌVSゾンビ軍団
Tags:opening Idea Factory Compile Heart Tamsoft ps vita MegaTagmension Blanc + Neptune vs Zombies Army Geki Jigen Tag Blanc + Neptune VS Zombie Gundan OP
BeatmapID:1062482
BeatmapSetID:499154

[Difficulty]
HPDrainRate:6.5
CircleSize:4
OverallDifficulty:6.5
ApproachRate:5
SliderMultiplier:1.4
SliderTickRate:1

[Events]
//Background and Video events
0,0,"tag.jpg",0,0
Video,0,"Extreme Dimension Tag Blanc + Neptune VS Zombie Army - Intro~1.flv"
//Break Periods
//Storyboard Layer 0 (Background)
//Storyboard Layer 1 (Fail)
//Storyboard Layer 2 (Pass)
//Storyboard Layer 3 (Foreground)
//Storyboard Sound Samples

[TimingPoints]
1673,324.324324324324,4,2,1,40,1,0
53564,-100,4,2,1,40,0,1
63618,-100,4,2,1,40,0,0
63943,-100,4,2,1,40,0,1
79186,-100,4,2,1,40,0,0

[HitObjects]
448,192,1673,5,0,0:0:0:50:drum-hitclap.wav
64,192,1997,1,0,0:0:0:50:drum-hitclap.wav
320,192,2321,1,0,0:0:0:50:drum-hitclap.wav
192,192,2645,1,0,0:0:0:50:drum-hitclap.wav
448,192,2970,1,0,0:0:0:50:drum-hitclap.wav
64,192,3132,128,0,3294:0:0:0:50:drum-hitclap.wav
320,192,3294,1,0,0:0:0:50:drum-hitclap.wav
448,192,3456,128,0,3700:0:0:0:50:drum-hitclap.wav
192,192,3700,1,0,0:0:0:50:drum-hitclap.wav
64,192,3943,128,0,4267:0:0:0:0:
320,192,4267,1,0,0:0:0:50:drum-hitnormal.wav
192,192,4591,1,0,0:0:0:50:drum-hitclap.wav
448,192,4916,1,0,0:0:0:50:drum-hitnormal.wav
64,192,5240,1,0,0:0:0:50:drum-hitclap.wav
320,192,5564,1,0,0:0:0:50:drum-hitnormal.wav
192,192,5889,1,0,0:0:0:50:drum-hitclap.wav
320,192,6213,1,0,0:0:0:50:drum-hitnormal.wav
448,192,6537,1,0,0:0:0:50:drum-hitclap.wav
64,192,6862,1,0,0:0:0:50:drum-hitnormal.wav
320,192,7186,1,0,0:0:0:50:drum-hitclap.wav
192,192,7510,1,0,0:0:0:50:drum-hitnormal.wav
448,192,7835,1,0,0:0:0:50:drum-hitclap.wav
320,192,8159,1,0,0:0:0:50:drum-hitnormal.wav
64,192,8483,1,0,0:0:0:50:drum-hitclap.wav
192,192,8808,1,0,0:0:0:50:drum-hitnormal.wav
448,192,9132,1,0,0:0:0:50:drum-hitnormal.wav
64,192,9294,128,0,9456:0:0:0:50:drum-hitclap.wav
320,192,9456,1,0,0:0:0:50:drum-hitnormal.wav
192,192,9781,1,0,0:0:0:50:drum-hitclap.wav
448,192,10105,1,0,0:0:0:50:drum-hitnormal.wav
64,192,10429,1,0,0:0:0:50:drum-hitclap.wav
320,192,10754,1,0,0:0:0:50:drum-hitnormal.wav
192,192,11078,1,0,0:0:0:50:drum-hitclap.wav
448,192,11402,1,0,0:0:0:50:drum-hitnormal.wav
320,192,11727,1,0,0:0:0:50:drum-hitclap.wav
64,192,12051,1,0,0:0:0:50:drum-hitnormal.wav
192,192,12375,1,0,0:0:0:50:drum-hitclap.wav
320,192,12700,1,0,0:0:0:50:drum-hitnormal.wav
64,192,13024,1,0,0:0:0:50:drum-hitclap.wav
448,192,13186,1,0,0:0:0:50:Cymbal.wav
192,192,13510,1,0,0:0:0:50:hithat.wav
448,192,13672,1,0,0:0:0:50:drum-hitnormal.wav
64,192,13835,1,0,0:0:0:50:hithat.wav
320,192,13997,1,0,0:0:0:50:drum-hitnormal.wav
64,192,14159,128,0,14645:0:0:0:50:drum-hitclap.wav
448,192,14645,1,0,0:0:0:50:drum-hitnormal.wav
192,192,15132,1,0,0:0:0:50:drum-hitnormal.wav
448,192,15294,128,0,15943:0:0:0:50:hithat.wav
320,192,15294,1,0,0:0:0:50:drum-hitclap.wav
64,192,15943,1,0,0:0:0:50:drum-hitnormal.wav
320,192,16105,1,0,0:0:0:50:drum-hitclap.wav
192,192,16429,1,0,0:0:0:50:hithat.wav
448,192,16754,1,0,0:0:0:50:hithat.wav
64,192,17078,128,0,17240:0:0:0:50:drum-hitnormal.wav
448,192,17240,1,0,0:0:0:50:drum-hitnormal.wav
192,192,17564,1,0,0:0:0:50:drum-hitnormal.wav
64,192,17889,128,0,18537:0:0:0:50:drum-hitclap.wav
320,192,17889,1,0,0:0:0:50:hithat.wav
448,192,18537,1,0,0:0:0:50:drum-hitnormal.wav
192,192,18700,1,0,0:0:0:50:drum-hitclap.wav
448,192,19024,1,0,0:0:0:50:hithat.wav
64,192,19348,1,0,0:0:0:50:drum-hitclap.wav
320,192,19672,1,0,0:0:0:50:drum-hitnormal.wav
64,192,19835,1,0,0:0:0:50:Cymbal.wav
448,192,19835,1,0,0:0:0:50:drum-hitclap.wav
448,192,20321,1,0,0:0:0:50:drum-hitnormal.wav
192,192,20483,128,0,21132:0:0:0:50:drum-hitclap.wav
320,192,20483,1,0,0:0:0:50:hithat.wav
448,192,21132,1,0,0:0:0:50:drum-hitnormal.wav
64,192,21294,1,0,0:0:0:50:drum-hitclap.wav
320,192,21618,1,0,0:0:0:50:drum-hitnormal.wav
192,192,21943,1,0,0:0:0:50:hithat.wav
448,192,22267,128,0,22429:0:0:0:50:drum-hitnormal.wav
64,192,22429,1,0,0:0:0:50:drum-hitnormal.wav
192,192,22754,1,0,0:0:0:50:drum-hitnormal.wav
320,192,23078,128,0,23727:0:0:0:25:drum-hitclap.wav
64,192,23078,1,0,0:0:0:25:drum-hitclap.wav
192,192,23727,1,0,0:0:0:50:drum-hitnormal.wav
448,192,23889,1,0,0:0:0:50:drum-hitclap.wav
64,192,24213,1,0,0:0:0:50:hithat.wav
320,192,24375,1,0,0:0:0:50:drum-hitclap.wav
192,192,24537,1,0,0:0:0:50:drum-hitclap.wav
448,192,24862,1,0,0:0:0:50:hithat.wav
64,192,25024,1,0,0:0:0:50:drum-hitnormal.wav
320,192,25348,1,0,0:0:0:50:drum-hitnormal.wav
64,192,25672,1,0,0:0:0:50:drum-hitnormal.wav
320,192,25997,1,0,0:0:0:50:drum-hitnormal.wav
192,192,26321,1,0,0:0:0:50:drum-hitnormal.wav
448,192,26645,1,0,0:0:0:50:drum-hitnormal.wav
192,192,26970,1,0,0:0:0:50:drum-hitnormal.wav
448,192,27294,1,0,0:0:0:50:drum-hitnormal.wav
192,192,27618,1,0,0:0:0:50:drum-hitnormal.wav
320,192,27943,1,0,0:0:0:50:drum-hitnormal.wav
192,192,28267,1,0,0:0:0:50:drum-hitnormal.wav
320,192,28591,1,0,0:0:0:50:drum-hitnormal.wav
64,192,28916,1,0,0:0:0:50:drum-hitnormal.wav
320,192,29240,1,0,0:0:0:50:drum-hitnormal.wav
64,192,29564,1,0,0:0:0:50:drum-hitnormal.wav
320,192,29889,1,0,0:0:0:50:drum-hitnormal.wav
192,192,30213,1,0,0:0:0:50:drum-hitnormal.wav
448,192,30537,1,0,0:0:0:50:drum-hitnormal.wav
192,192,30862,1,0,0:0:0:50:drum-hitnormal.wav
448,192,31186,1,0,0:0:0:50:drum-hitnormal.wav
64,192,31510,1,0,0:0:0:50:drum-hitnormal.wav
448,192,31835,1,0,0:0:0:50:drum-hitnormal.wav
64,192,32159,1,0,0:0:0:50:drum-hitnormal.wav
448,192,32483,1,0,0:0:0:50:drum-hitnormal.wav
192,192,32808,1,0,0:0:0:50:drum-hitnormal.wav
320,192,33132,1,0,0:0:0:50:drum-hitnormal.wav
192,192,33456,1,0,0:0:0:50:drum-hitnormal.wav
320,192,33781,1,0,0:0:0:50:drum-hitnormal.wav
64,192,33943,1,0,0:0:0:50:drum-hitnormal.wav
64,192,34916,128,0,35078:0:0:0:50:drum-hitnormal.wav
320,192,35078,1,0,0:0:0:50:drum-hitclap.wav
192,192,35402,1,0,0:0:0:25:drum-hitnormal.wav
448,192,35402,1,0,0:0:0:25:drum-hitnormal.wav
64,192,35727,1,0,0:0:0:50:drum-hitclap.wav
320,192,36051,1,0,0:0:0:50:drum-hitnormal.wav
448,192,36375,1,0,0:0:0:50:drum-hitclap.wav
64,192,36700,1,0,0:0:0:50:drum-hitnormal.wav
320,192,37024,1,0,0:0:0:50:drum-hitclap.wav
192,192,37348,1,0,0:0:0:50:drum-hitnormal.wav
448,192,37672,1,0,0:0:0:50:drum-hitclap.wav
320,192,37997,1,0,0:0:0:50:drum-hitnormal.wav
64,192,38321,1,0,0:0:0:50:drum-hitclap.wav
192,192,38645,1,0,0:0:0:50:drum-hitnormal.wav
448,192,38970,1,0,0:0:0:50:drum-hitclap.wav
64,192,39294,1,0,0:0:0:50:drum-hitnormal.wav
320,192,39618,1,0,0:0:0:50:drum-hitclap.wav
192,192,39943,1,0,0:0:0:50:drum-hitnormal.wav
320,192,40267,1,0,0:0:0:50:drum-hitclap.wav
448,192,40591,1,0,0:0:0:50:drum-hitnormal.wav
64,192,40916,1,0,0:0:0:50:drum-hitclap.wav
320,192,41240,1,0,0:0:0:50:drum-hitnormal.wav
192,192,41564,1,0,0:0:0:50:drum-hitclap.wav
448,192,41889,1,0,0:0:0:50:drum-hitnormal.wav
64,192,42213,1,0,0:0:0:50:drum-hitclap.wav
192,192,42537,1,0,0:0:0:50:drum-hitnormal.wav
320,192,42862,1,0,0:0:0:50:drum-hitclap.wav
64,192,43186,1,0,0:0:0:50:drum-hitnormal.wav
448,192,43510,1,0,0:0:0:50:drum-hitclap.wav
320,192,43835,1,0,0:0:0:50:drum-hitnormal.wav
64,192,44159,1,0,0:0:0:50:drum-hitclap.wav
448,192,44321,1,0,0:0:0:50:drum-hitnormal.wav
192,192,44645,1,0,0:0:0:0:
320,192,44808,1,0,0:0:0:50:drum-hitclap.wav
64,192,44970,1,0,0:0:0:0:
448,192,45132,1,0,0:0:0:50:drum-hitnormal.wav
64,192,45456,1,0,0:0:0:25:drum-hitclap.wav
320,192,45456,1,0,0:0:0:25:drum-hitclap.wav
192,192,45781,1,0,0:0:0:25:drum-hitnormal.wav
448,192,45781,1,0,0:0:0:25:drum-hitnormal.wav
320,192,46267,1,0,0:0:0:50:drum-hitnormal.wav
64,192,46429,1,0,0:0:0:50:drum-hitclap.wav
448,192,47078,1,0,0:0:0:50:drum-hitnormal.wav
320,192,47402,1,0,0:0:0:50:drum-hitnormal.wav
64,192,47727,1,0,0:0:0:50:drum-hitclap.wav
448,192,48051,1,0,0:0:0:50:drum-hitnormal.wav
192,192,48375,1,0,0:0:0:50:drum-hitnormal.wav
64,192,48862,1,0,0:0:0:50:drum-hitnormal.wav
448,192,49024,1,0,0:0:0:50:drum-hitclap.wav
192,192,49672,1,0,0:0:0:50:drum-hitnormal.wav
320,192,49997,1,0,0:0:0:50:drum-hitnormal.wav
448,192,50321,1,0,0:0:0:50:drum-hitclap.wav
64,192,50645,1,0,0:0:0:50:drum-hitnormal.wav
320,192,51132,1,0,0:0:0:50:drum-hitclap.wav
192,192,51294,1,0,0:0:0:50:drum-hitnormal.wav
448,192,51618,1,0,0:0:0:50:drum-hitclap.wav
64,192,51943,1,0,0:0:0:50:drum-hitnormal.wav
320,192,52105,1,0,0:0:0:50:drum-hitclap.wav
64,192,52429,1,0,0:0:0:50:drum-hitnormal.wav
192,192,52591,1,0,0:0:0:50:drum-hitnormal.wav
320,192,52754,1,0,0:0:0:50:drum-hitnormal.wav
448,192,52916,1,0,0:0:0:50:drum-hitnormal.wav
64,192,53240,1,0,0:0:0:50:drum-hitclap.wav
192,192,53240,1,0,0:0:0:50:Cymbal.wav
320,192,53564,1,0,0:0:0:50:drum-hitnormal.wav
192,192,53889,1,0,0:0:0:50:drum-hitclap.wav
448,192,54213,1,0,0:0:0:50:drum-hitnormal.wav
64,192,54537,1,0,0:0:0:50:drum-hitclap.wav
320,192,54862,1,0,0:0:0:50:drum-hitnormal.wav
192,192,55186,1,0,0:0:0:50:drum-hitclap.wav
448,192,55510,1,0,0:0:0:50:drum-hitnormal.wav
64,192,55835,1,0,0:0:0:50:drum-hitclap.wav
320,192,56159,1,0,0:0:0:50:drum-hitnormal.wav
448,192,56483,1,0,0:0:0:50:drum-hitclap.wav
64,192,56808,1,0,0:0:0:50:drum-hitnormal.wav
320,192,57132,1,0,0:0:0:50:drum-hitclap.wav
192,192,57456,1,0,0:0:0:50:drum-hitnormal.wav
448,192,57781,1,0,0:0:0:50:drum-hitclap.wav
192,192,58105,1,0,0:0:0:50:drum-hitnormal.wav
320,192,58429,1,0,0:0:0:50:drum-hitclap.wav
64,192,58754,1,0,0:0:0:50:drum-hitnormal.wav
448,192,59078,1,0,0:0:0:50:drum-hitclap.wav
192,192,59402,1,0,0:0:0:50:drum-hitnormal.wav
320,192,59727,1,0,0:0:0:50:drum-hitclap.wav
64,192,60051,1,0,0:0:0:50:drum-hitnormal.wav
448,192,60375,1,0,0:0:0:50:drum-hitclap.wav
320,192,60700,1,0,0:0:0:50:drum-hitnormal.wav
64,192,61024,1,0,0:0:0:50:drum-hitclap.wav
320,192,61348,1,0,0:0:0:50:drum-hitnormal.wav
192,192,61672,1,0,0:0:0:50:drum-hitclap.wav
448,192,61997,1,0,0:0:0:50:drum-hitnormal.wav
320,192,62321,1,0,0:0:0:50:drum-hitclap.wav
64,192,62483,128,0,62970:0:0:0:50:drum-hitnormal.wav
320,192,62970,128,0,63294:0:0:0:50:drum-hitnormal.wav
192,192,63294,128,0,63618:0:0:0:50:drum-hitnormal.wav
448,192,63618,128,0,63943:0:0:0:50:drum-hitclap.wav
64,192,63943,1,0,0:0:0:50:Cymbal.wav
320,192,64267,1,0,0:0:0:50:drum-hitclap.wav
192,192,64591,1,0,0:0:0:50:drum-hitnormal.wav
448,192,64916,1,0,0:0:0:50:drum-hitclap.wav
320,192,65240,1,0,0:0:0:50:drum-hitnormal.wav
64,192,65564,1,0,0:0:0:50:drum-hitclap.wav
320,192,65889,1,0,0:0:0:50:drum-hitnormal.wav
192,192,66213,1,0,0:0:0:50:drum-hitclap.wav
448,192,66537,1,0,0:0:0:50:drum-hitnormal.wav
64,192,66862,1,0,0:0:0:50:drum-hitclap.wav
320,192,67186,1,0,0:0:0:50:drum-hitnormal.wav
192,192,67510,1,0,0:0:0:50:drum-hitclap.wav
448,192,67835,1,0,0:0:0:50:drum-hitnormal.wav
64,192,68159,1,0,0:0:0:50:drum-hitclap.wav
320,192,68483,1,0,0:0:0:50:drum-hitnormal.wav
192,192,68808,1,0,0:0:0:50:drum-hitclap.wav
448,192,69132,1,0,0:0:0:50:drum-hitnormal.wav
320,192,69456,1,0,0:0:0:50:drum-hitclap.wav
192,192,69781,1,0,0:0:0:50:drum-hitnormal.wav
448,192,70105,1,0,0:0:0:50:drum-hitclap.wav
320,192,70429,1,0,0:0:0:50:drum-hitnormal.wav
64,192,70754,1,0,0:0:0:50:drum-hitclap.wav
192,192,71078,1,0,0:0:0:50:drum-hitnormal.wav
448,192,71402,1,0,0:0:0:50:drum-hitclap.wav
64,192,71727,1,0,0:0:0:50:drum-hitnormal.wav
320,192,72051,1,0,0:0:0:50:drum-hitclap.wav
448,192,72375,1,0,0:0:0:50:drum-hitnormal.wav
64,192,72700,1,0,0:0:0:50:drum-hitclap.wav
192,192,73024,1,0,0:0:0:50:drum-hitnormal.wav
448,192,73348,1,0,0:0:0:50:drum-hitclap.wav
320,192,73672,1,0,0:0:0:50:drum-hitnormal.wav
192,192,73997,1,0,0:0:0:50:drum-hitnormal.wav
64,192,74321,1,0,0:0:0:50:drum-hitnormal.wav
320,192,74645,1,0,0:0:0:50:drum-hitnormal.wav
192,192,74970,1,0,0:0:0:50:drum-hitclap.wav
448,192,75456,1,0,0:0:0:50:drum-hitnormal.wav
64,192,75781,1,0,0:0:0:50:drum-hitnormal.wav
320,192,75943,1,0,0:0:0:50:drum-hitnormal.wav
192,192,76105,1,0,0:0:0:50:drum-hitnormal.wav
448,192,76429,1,0,0:0:0:50:drum-hitclap.wav
320,192,76591,1,0,0:0:0:50:drum-hitclap.wav
64,192,76754,1,0,0:0:0:50:drum-hitclap.wav
192,192,76916,1,0,0:0:0:50:drum-hitclap.wav
448,192,77240,1,0,0:0:0:50:drum-hitnormal.wav
320,192,77564,1,0,0:0:0:50:drum-hitnormal.wav
64,192,78051,1,0,0:0:0:50:drum-hitclap.wav
448,192,78375,1,0,0:0:0:50:drum-hitnormal.wav
320,192,78537,1,0,0:0:0:50:drum-hitnormal.wav
192,192,78700,1,0,0:0:0:50:drum-hitnormal.wav
64,192,79186,1,0,0:0:0:50:drum-hitnormal.wav
448,192,79186,1,0,0:0:0:50:drum-hitclap.wav
320,192,79510,1,0,0:0:0:50:drum-hitnormal.wav
192,192,79835,1,0,0:0:0:50:drum-hitclap.wav
448,192,80159,1,0,0:0:0:50:drum-hitnormal.wav
64,192,80483,1,0,0:0:0:50:drum-hitclap.wav
320,192,80808,1,0,0:0:0:50:drum-hitnormal.wav
192,192,81132,1,0,0:0:0:50:drum-hitclap.wav
448,192,81456,1,0,0:0:0:50:drum-hitnormal.wav
320,192,81781,1,0,0:0:0:50:drum-hitclap.wav
64,192,82105,1,0,0:0:0:50:drum-hitnormal.wav
448,192,82429,1,0,0:0:0:50:drum-hitclap.wav
192,192,82754,1,0,0:0:0:50:drum-hitnormal.wav
320,192,83078,1,0,0:0:0:50:drum-hitclap.wav
192,192,83402,1,0,0:0:0:50:drum-hitnormal.wav
448,192,83727,1,0,0:0:0:50:drum-hitclap.wav
64,192,84051,1,0,0:0:0:50:drum-hitnormal.wav
448,192,84375,1,0,0:0:0:50:drum-hitnormal.wav
64,192,84537,128,0,84700:0:0:0:50:drum-hitclap.wav
192,192,84700,1,0,0:0:0:50:drum-hitnormal.wav
320,192,85024,1,0,0:0:0:50:drum-hitclap.wav
64,192,85348,1,0,0:0:0:50:drum-hitnormal.wav
448,192,85672,1,0,0:0:0:50:drum-hitclap.wav
192,192,85997,1,0,0:0:0:50:drum-hitnormal.wav
320,192,86321,1,0,0:0:0:50:drum-hitclap.wav
64,192,86645,1,0,0:0:0:50:drum-hitnormal.wav
448,192,86970,1,0,0:0:0:50:drum-hitclap.wav
192,192,87294,1,0,0:0:0:50:drum-hitnormal.wav
320,192,87618,1,0,0:0:0:50:drum-hitclap.wav
192,192,87943,1,0,0:0:0:50:drum-hitnormal.wav
64,192,88267,1,0,0:0:0:50:drum-hitclap.wav
448,192,88429,1,0,0:0:0:50:hithat.wav
64,192,88754,1,0,0:0:0:50:hithat.wav
192,192,88916,1,0,0:0:0:50:drum-hitnormal.wav
448,192,89078,1,0,0:0:0:50:hithat.wav
320,192,89240,1,0,0:0:0:50:drum-hitnormal.wav
64,192,89402,128,0,89889:0:0:0:50:drum-hitclap.wav
448,192,89889,1,0,0:0:0:50:drum-hitclap.wav
192,192,90051,1,0,0:0:0:50:drum-hitnormal.wav
448,192,90375,1,0,0:0:0:50:drum-hitnormal.wav
64,192,90537,1,0,0:0:0:50:drum-hitclap.wav
320,192,90862,1,0,0:0:0:50:drum-hitclap.wav
192,192,90862,1,0,0:0:0:50:drum-hitnormal.wav
64,192,91510,128,0,96375:0:0:0:70:Cymbal.wav
448,192,91510,1,0,0:0:0:50:drum-hitnormal.wav
