osu file format v14

[General]
AudioFilename: Abracadabra (feat. BrainDead).ogg
AudioLeadIn: 0
PreviewTime: 156771
Countdown: 0
SampleSet: Normal
StackLeniency: 0
Mode: 1
LetterboxInBreaks: 0
WidescreenStoryboard: 1

[Editor]
Bookmarks: 12855,36855,72855,96855,120855,132855,156855
DistanceSpacing: 1.7
BeatDivisor: 4
GridSize: 32
TimelineZoom: 1.2

[Metadata]
Title:Abracadabra (feat. BrainDead)
TitleUnicode:Abracadabra (feat. BrainDead)
Artist:Ido B Zooki
ArtistUnicode:Ido B Zooki
Creator:komasy
Version:yassu-'s Muzukashii
Source:
Tags:Electronic English Ido Ben Dov Zook Algasi Hardstyle Hardcore EDM Drops Genjuro uone yassu-
BeatmapID:3610518
BeatmapSetID:1752410

[Difficulty]
HPDrainRate:6
CircleSize:2
OverallDifficulty:5
ApproachRate:10
SliderMultiplier:1.4
SliderTickRate:1

[Events]
//Background and Video events
0,0,"bg.jpg",0,50
//Break Periods
2,73065,84415
2,127065,132415
//Storyboard Layer 0 (Background)
//Storyboard Layer 1 (Fail)
//Storyboard Layer 2 (Pass)
//Storyboard Layer 3 (Foreground)
//Storyboard Layer 4 (Overlay)
//Storyboard Sound Samples

[TimingPoints]
865,375,4,1,0,66,1,0
865,-111.111111111111,4,1,0,66,0,0
12865,-100,4,1,0,66,0,0
36677,-100,4,1,0,88,0,0
36865,-90.9090909090909,4,1,0,88,0,1
47365,-100,4,1,0,88,0,0
48865,-90.9090909090909,4,1,0,88,0,1
59365,-90.9090909090909,4,1,0,88,0,0
60490,-100,4,1,0,88,0,0
60865,-111.111111111111,4,1,0,88,0,1
72115,-111.111111111111,4,1,0,88,0,0
73052,-111.111111111111,4,1,0,66,0,0
96677,-100,4,1,0,77,0,0
121052,-111.111111111111,4,1,0,66,0,0
132865,-100,4,1,0,66,0,0
156677,-100,4,1,0,88,0,0
156865,-90.9090909090909,4,1,0,88,0,1
179365,-90.9090909090909,4,1,0,88,0,0
180490,-100,4,1,0,88,0,0
180865,-111.111111111111,4,1,0,88,0,1
192115,-111.111111111111,4,1,0,88,0,0
192865,-90.9090909090909,4,1,0,88,0,1
203365,-90.9090909090909,4,1,0,88,0,0

[HitObjects]
250,190,865,5,2,0:0:0:0:
260,188,1615,1,2,0:0:0:0:
257,191,1990,1,2,0:0:0:0:
260,188,2365,1,2,0:0:0:0:
262,176,3115,1,2,0:0:0:0:
245,202,3865,1,2,0:0:0:0:
251,206,4240,1,2,0:0:0:0:
262,202,4615,1,2,0:0:0:0:
262,202,5365,1,2,0:0:0:0:
267,200,5740,1,2,0:0:0:0:
262,179,6115,1,2,0:0:0:0:
290,197,6490,1,2,0:0:0:0:
274,197,6865,1,2,0:0:0:0:
302,177,7615,1,2,0:0:0:0:
310,179,7990,1,2,0:0:0:0:
315,178,8365,1,2,0:0:0:0:
315,178,9115,1,2,0:0:0:0:
270,190,9865,1,2,0:0:0:0:
270,190,10240,1,2,0:0:0:0:
276,188,10615,1,2,0:0:0:0:
287,188,10990,1,2,0:0:0:0:
276,188,11365,1,2,0:0:0:0:
160,96,12865,5,0,0:0:0:0:
242,186,13240,1,2,0:0:0:0:
352,96,13615,1,0,0:0:0:0:
260,188,13802,1,2,0:0:0:0:
160,96,13990,1,0,0:0:0:0:
247,200,14177,1,0,0:0:0:0:
352,96,14365,1,8,0:0:0:0:
242,179,14740,1,0,0:0:0:0:
352,96,15115,1,8,0:0:0:0:
160,96,15865,1,0,0:0:0:0:
160,96,16240,1,2,0:0:0:0:
242,179,16427,1,0,0:0:0:0:
352,96,16615,1,8,0:0:0:0:
242,179,16990,1,0,0:0:0:0:
352,96,17365,1,8,0:0:0:0:
264,177,17552,1,0,0:0:0:0:
160,96,17740,1,2,0:0:0:0:
268,212,17927,1,2,0:0:0:0:
352,96,18115,1,0,0:0:0:0:
352,96,18490,1,0,0:0:0:0:
275,193,18677,1,2,0:0:0:0:
160,96,18865,1,0,0:0:0:0:
287,139,19240,1,2,0:0:0:0:
352,96,19615,1,0,0:0:0:0:
298,120,19802,1,8,0:0:0:0:
160,96,19990,1,0,0:0:0:0:
258,159,20177,1,0,0:0:0:0:
352,96,20365,1,8,0:0:0:0:
258,159,20740,1,0,0:0:0:0:
352,96,21115,1,8,0:0:0:0:
160,96,21865,1,0,0:0:0:0:
160,96,22146,1,0,0:0:0:0:
306,191,22427,1,2,0:0:0:0:
352,96,22615,1,0,0:0:0:0:
352,96,22896,1,8,0:0:0:0:
292,186,23177,1,2,0:0:0:0:
160,96,23365,1,0,0:0:0:0:
352,96,23646,1,8,0:0:0:0:
352,96,23927,1,8,0:0:0:0:
352,96,24208,1,8,0:0:0:0:
352,96,24490,1,8,0:0:0:0:
160,96,24865,1,0,0:0:0:0:
274,179,25146,1,0,0:0:0:0:
255,161,25427,1,2,0:0:0:0:
264,156,25615,1,0,0:0:0:0:
160,96,25990,1,2,0:0:0:0:
352,96,26365,1,0,0:0:0:0:
299,192,26646,1,2,0:0:0:0:
262,190,26927,1,2,0:0:0:0:
352,96,27115,1,0,0:0:0:0:
352,96,27490,1,8,0:0:0:0:
160,96,27865,1,0,0:0:0:0:
213,166,28146,1,0,0:0:0:0:
250,156,28427,1,2,0:0:0:0:
290,189,28615,1,0,0:0:0:0:
160,96,28990,1,8,0:0:0:0:
352,96,29365,1,0,0:0:0:0:
248,110,29646,1,2,0:0:0:0:
255,144,29927,1,2,0:0:0:0:
352,96,30115,1,0,0:0:0:0:
160,96,30865,1,0,0:0:0:0:
160,96,31146,1,0,0:0:0:0:
160,96,31427,1,8,0:0:0:0:
352,96,31615,1,0,0:0:0:0:
352,96,31896,1,8,0:0:0:0:
352,96,32177,1,2,0:0:0:0:
160,96,32365,1,0,0:0:0:0:
160,96,32646,1,0,0:0:0:0:
160,96,32927,1,8,0:0:0:0:
352,96,33115,1,0,0:0:0:0:
352,96,33396,1,8,0:0:0:0:
352,96,33677,1,8,0:0:0:0:
322,171,33865,1,0,0:0:0:0:
322,171,34052,1,8,0:0:0:0:
322,171,34240,1,8,0:0:0:0:
322,171,34427,1,8,0:0:0:0:
322,171,34615,1,0,0:0:0:0:
322,171,34802,1,0,0:0:0:0:
322,171,34990,1,0,0:0:0:0:
322,171,35177,1,0,0:0:0:0:
160,288,35365,1,12,0:0:0:0:
160,288,35740,1,12,0:0:0:0:
160,288,36115,1,12,0:0:0:0:
160,288,36865,1,4,0:0:0:0:
322,210,37240,1,0,0:0:0:0:
329,216,37333,1,0,0:0:0:0:
329,216,37427,1,0,0:0:0:0:
352,96,37615,1,8,0:0:0:0:
160,96,37990,1,0,0:0:0:0:
323,197,38083,1,0,0:0:0:0:
322,210,38177,1,0,0:0:0:0:
352,96,38365,1,8,0:0:0:0:
160,96,38740,1,0,0:0:0:0:
323,204,38833,1,0,0:0:0:0:
326,206,38927,1,0,0:0:0:0:
352,96,39115,1,8,0:0:0:0:
282,186,39865,1,4,0:0:0:0:
282,186,40240,1,0,0:0:0:0:
282,186,40333,1,0,0:0:0:0:
282,186,40427,1,0,0:0:0:0:
352,96,40615,1,8,0:0:0:0:
160,96,40990,1,0,0:0:0:0:
282,186,41083,1,0,0:0:0:0:
282,186,41177,1,0,0:0:0:0:
352,96,41365,1,8,0:0:0:0:
352,96,42115,1,8,0:0:0:0:
160,96,42490,1,0,0:0:0:0:
160,288,42865,1,4,0:0:0:0:
284,193,43240,1,0,0:0:0:0:
284,193,43333,1,0,0:0:0:0:
298,193,43427,1,0,0:0:0:0:
352,96,43615,1,8,0:0:0:0:
160,96,43990,1,0,0:0:0:0:
304,190,44083,1,0,0:0:0:0:
304,190,44177,1,0,0:0:0:0:
352,96,44365,1,8,0:0:0:0:
160,96,44740,1,0,0:0:0:0:
304,190,44833,1,0,0:0:0:0:
294,178,44927,1,0,0:0:0:0:
352,96,45115,1,8,0:0:0:0:
160,96,45865,1,0,0:0:0:0:
160,96,46240,1,0,0:0:0:0:
260,211,46333,1,0,0:0:0:0:
273,197,46427,1,0,0:0:0:0:
352,96,46615,1,8,0:0:0:0:
160,96,47365,1,0,0:0:0:0:
352,96,47646,1,8,0:0:0:0:
352,96,47927,1,8,0:0:0:0:
352,96,48208,1,8,0:0:0:0:
352,96,48490,1,8,0:0:0:0:
160,288,48865,1,4,0:0:0:0:
271,192,49146,1,0,0:0:0:0:
271,192,49240,1,0,0:0:0:0:
271,192,49427,1,0,0:0:0:0:
352,96,49615,1,8,0:0:0:0:
277,195,49896,1,0,0:0:0:0:
160,96,49990,1,0,0:0:0:0:
160,96,50177,1,0,0:0:0:0:
352,96,50365,1,8,0:0:0:0:
279,171,50646,1,0,0:0:0:0:
160,96,50740,1,0,0:0:0:0:
276,176,50927,1,0,0:0:0:0:
352,96,51115,1,8,0:0:0:0:
352,96,51865,1,0,0:0:0:0:
277,197,52146,1,0,0:0:0:0:
274,204,52240,1,0,0:0:0:0:
271,201,52427,1,0,0:0:0:0:
352,96,52615,1,8,0:0:0:0:
260,216,52896,1,0,0:0:0:0:
160,96,52990,1,0,0:0:0:0:
160,96,53177,1,0,0:0:0:0:
352,96,53365,1,8,0:0:0:0:
260,216,53646,1,0,0:0:0:0:
160,96,53740,1,0,0:0:0:0:
272,207,53927,1,0,0:0:0:0:
352,96,54115,1,8,0:0:0:0:
352,288,54865,1,4,0:0:0:0:
253,220,55146,1,0,0:0:0:0:
253,220,55240,1,0,0:0:0:0:
263,225,55427,1,2,0:0:0:0:
352,96,55615,1,8,0:0:0:0:
280,211,55896,1,0,0:0:0:0:
160,96,55990,1,0,0:0:0:0:
352,96,56177,1,8,0:0:0:0:
352,96,56365,1,8,0:0:0:0:
280,211,56646,1,0,0:0:0:0:
160,96,56740,1,0,0:0:0:0:
280,211,56927,1,2,0:0:0:0:
352,96,57115,1,8,0:0:0:0:
160,96,57865,1,0,0:0:0:0:
260,131,58146,1,0,0:0:0:0:
260,131,58240,1,0,0:0:0:0:
260,131,58427,1,2,0:0:0:0:
160,96,58615,1,0,0:0:0:0:
352,96,58802,1,8,0:0:0:0:
230,165,58896,1,2,0:0:0:0:
352,96,58990,1,8,0:0:0:0:
352,96,59177,1,8,0:0:0:0:
160,96,59365,1,0,0:0:0:0:
160,96,60490,1,0,0:0:0:0:
352,96,60865,1,12,0:0:0:0:
352,96,61615,1,8,0:0:0:0:
160,96,61990,1,0,0:0:0:0:
254,154,62177,1,2,0:0:0:0:
254,154,62271,1,2,0:0:0:0:
352,96,62365,1,8,0:0:0:0:
352,96,62552,1,8,0:0:0:0:
160,96,62740,1,0,0:0:0:0:
352,96,63115,1,8,0:0:0:0:
223,168,63302,1,0,0:0:0:0:
254,175,63396,1,0,0:0:0:0:
160,96,63490,1,0,0:0:0:0:
160,96,63677,1,0,0:0:0:0:
352,96,63865,1,8,0:0:0:0:
352,96,64615,1,8,0:0:0:0:
160,96,64990,1,0,0:0:0:0:
265,200,65177,1,2,0:0:0:0:
280,195,65271,1,2,0:0:0:0:
352,96,65365,1,8,0:0:0:0:
280,195,65552,1,2,0:0:0:0:
160,96,65740,1,0,0:0:0:0:
352,96,66115,1,8,0:0:0:0:
262,189,66302,1,0,0:0:0:0:
271,184,66396,1,0,0:0:0:0:
272,180,66583,1,0,0:0:0:0:
352,96,66865,1,8,0:0:0:0:
352,96,67615,1,8,0:0:0:0:
160,96,67990,1,0,0:0:0:0:
288,173,68177,1,2,0:0:0:0:
288,173,68271,1,2,0:0:0:0:
352,96,68365,1,8,0:0:0:0:
352,96,68552,1,8,0:0:0:0:
160,96,68740,1,0,0:0:0:0:
352,96,69115,1,8,0:0:0:0:
288,173,69302,1,0,0:0:0:0:
288,173,69396,1,0,0:0:0:0:
160,96,69490,1,0,0:0:0:0:
160,96,69677,1,0,0:0:0:0:
352,96,69865,1,8,0:0:0:0:
292,222,70240,1,0,0:0:0:0:
265,229,70333,1,0,0:0:0:0:
265,229,70427,1,0,0:0:0:0:
352,96,70615,1,8,0:0:0:0:
352,96,70802,1,8,0:0:0:0:
352,96,70990,1,8,0:0:0:0:
276,172,71177,1,2,0:0:0:0:
160,96,71365,1,0,0:0:0:0:
352,96,71552,1,8,0:0:0:0:
305,172,71646,1,2,0:0:0:0:
352,96,71740,1,8,0:0:0:0:
352,96,71927,1,8,0:0:0:0:
256,192,72115,12,0,72677,0:0:0:0:
253,180,72865,5,4,0:0:0:0:
160,96,84865,5,0,0:0:0:0:
160,96,85615,1,8,0:0:0:0:
256,189,85990,1,0,0:0:0:0:
352,96,86365,1,8,0:0:0:0:
352,96,87115,1,8,0:0:0:0:
160,96,87865,1,0,0:0:0:0:
266,191,88240,1,0,0:0:0:0:
288,196,88615,1,2,0:0:0:0:
352,96,89365,1,8,0:0:0:0:
285,197,89740,1,0,0:0:0:0:
352,96,90115,1,8,0:0:0:0:
352,96,90490,1,8,0:0:0:0:
160,96,90865,1,0,0:0:0:0:
281,194,91615,1,2,0:0:0:0:
263,190,91990,1,0,0:0:0:0:
352,96,92365,1,8,0:0:0:0:
352,96,93115,1,8,0:0:0:0:
160,96,93865,1,0,0:0:0:0:
263,190,94146,1,0,0:0:0:0:
253,189,94427,1,0,0:0:0:0:
253,189,94615,1,2,0:0:0:0:
252,188,94896,1,2,0:0:0:0:
263,190,95177,1,2,0:0:0:0:
261,190,95365,1,0,0:0:0:0:
352,96,95646,1,8,0:0:0:0:
352,96,95927,1,8,0:0:0:0:
352,96,96208,1,8,0:0:0:0:
352,96,96490,1,8,0:0:0:0:
160,288,96865,1,4,0:0:0:0:
352,96,97427,1,0,0:0:0:0:
160,96,97615,1,8,0:0:0:0:
224,179,97802,1,0,0:0:0:0:
160,96,97990,1,0,0:0:0:0:
352,96,98177,1,8,0:0:0:0:
160,96,98365,1,0,0:0:0:0:
160,96,98740,1,0,0:0:0:0:
160,96,98927,1,0,0:0:0:0:
352,96,99115,1,8,0:0:0:0:
250,165,99490,1,0,0:0:0:0:
280,161,99677,1,2,0:0:0:0:
160,96,99865,1,0,0:0:0:0:
352,96,100427,1,0,0:0:0:0:
160,96,100615,1,8,0:0:0:0:
160,96,100990,1,0,0:0:0:0:
352,96,101177,1,8,0:0:0:0:
160,96,101365,1,0,0:0:0:0:
319,141,101552,1,2,0:0:0:0:
160,96,101740,1,0,0:0:0:0:
160,96,101927,1,0,0:0:0:0:
352,96,102115,1,8,0:0:0:0:
352,96,102490,1,8,0:0:0:0:
318,142,102677,1,2,0:0:0:0:
160,96,102865,1,0,0:0:0:0:
160,96,103427,1,0,0:0:0:0:
352,96,103615,1,8,0:0:0:0:
311,140,103802,1,0,0:0:0:0:
308,147,103896,1,0,0:0:0:0:
352,96,103990,1,0,0:0:0:0:
160,96,104177,1,2,0:0:0:0:
352,96,104365,1,0,0:0:0:0:
160,96,104740,1,8,0:0:0:0:
352,96,104927,1,0,0:0:0:0:
352,96,105115,1,8,0:0:0:0:
308,196,105490,1,0,0:0:0:0:
160,96,105865,1,0,0:0:0:0:
274,190,106146,1,0,0:0:0:0:
160,96,106427,1,8,0:0:0:0:
352,96,106615,1,0,0:0:0:0:
269,174,106896,1,2,0:0:0:0:
160,96,107177,1,8,0:0:0:0:
352,96,107365,1,0,0:0:0:0:
272,193,107552,1,2,0:0:0:0:
283,145,107740,1,2,0:0:0:0:
279,146,107927,1,2,0:0:0:0:
352,96,108115,1,8,0:0:0:0:
352,96,108490,1,8,0:0:0:0:
352,96,108677,1,8,0:0:0:0:
160,288,108865,1,4,0:0:0:0:
280,213,109427,1,0,0:0:0:0:
263,186,109615,1,6,0:0:0:0:
229,152,109802,1,0,0:0:0:0:
246,176,109990,1,0,0:0:0:0:
250,191,110177,1,2,0:0:0:0:
352,96,110365,1,8,0:0:0:0:
160,96,110740,1,0,0:0:0:0:
285,197,110927,1,0,0:0:0:0:
352,288,111115,1,12,0:0:0:0:
352,96,111677,1,8,0:0:0:0:
160,96,111865,1,0,0:0:0:0:
249,190,112240,1,0,0:0:0:0:
160,96,112427,1,0,0:0:0:0:
352,288,112615,1,12,0:0:0:0:
269,213,112802,1,0,0:0:0:0:
269,213,112896,1,0,0:0:0:0:
352,96,112990,1,0,0:0:0:0:
160,96,113365,1,0,0:0:0:0:
160,96,113552,1,2,0:0:0:0:
160,96,113740,1,0,0:0:0:0:
294,212,113927,1,0,0:0:0:0:
352,288,114115,1,12,0:0:0:0:
352,96,114490,1,8,0:0:0:0:
352,96,114677,1,8,0:0:0:0:
160,96,114865,1,0,0:0:0:0:
296,208,115427,1,0,0:0:0:0:
352,288,115615,1,12,0:0:0:0:
258,289,115990,1,0,0:0:0:0:
273,195,116177,1,2,0:0:0:0:
352,96,116365,1,8,0:0:0:0:
160,96,116740,1,0,0:0:0:0:
273,195,116927,1,0,0:0:0:0:
352,288,117115,1,12,0:0:0:0:
160,288,117865,1,0,0:0:0:0:
289,191,118146,1,0,0:0:0:0:
160,96,118427,1,0,0:0:0:0:
352,288,118615,1,12,0:0:0:0:
306,188,118896,1,2,0:0:0:0:
352,96,119177,1,8,0:0:0:0:
160,96,119365,1,0,0:0:0:0:
352,96,119646,1,8,0:0:0:0:
352,96,119927,1,8,0:0:0:0:
352,96,120208,1,8,0:0:0:0:
352,96,120490,1,8,0:0:0:0:
256,192,120865,12,0,126865,0:0:0:0:
352,96,132865,5,8,0:0:0:0:
277,198,133146,1,2,0:0:0:0:
160,96,133427,1,2,0:0:0:0:
160,96,133615,1,0,0:0:0:0:
277,198,133896,1,2,0:0:0:0:
160,96,134177,1,2,0:0:0:0:
352,96,134365,1,0,0:0:0:0:
249,172,134646,1,2,0:0:0:0:
352,96,134927,1,8,0:0:0:0:
352,96,135115,1,0,0:0:0:0:
352,96,135865,1,2,0:0:0:0:
249,172,136146,1,2,0:0:0:0:
160,96,136427,1,0,0:0:0:0:
160,96,136615,1,0,0:0:0:0:
249,172,136896,1,2,0:0:0:0:
160,96,137177,1,0,0:0:0:0:
352,96,137365,1,0,0:0:0:0:
249,172,137646,1,2,0:0:0:0:
352,96,137927,1,0,0:0:0:0:
352,96,138115,1,0,0:0:0:0:
259,135,138208,1,0,0:0:0:0:
259,135,138396,1,2,0:0:0:0:
352,96,138865,1,8,0:0:0:0:
292,126,139146,1,2,0:0:0:0:
352,96,139427,1,8,0:0:0:0:
259,190,139615,1,0,0:0:0:0:
266,142,139896,1,2,0:0:0:0:
263,195,140177,1,2,0:0:0:0:
352,96,140365,1,0,0:0:0:0:
274,145,140646,1,2,0:0:0:0:
352,96,140927,1,8,0:0:0:0:
352,96,141115,1,0,0:0:0:0:
263,195,141677,1,2,0:0:0:0:
263,195,141771,1,2,0:0:0:0:
352,96,141865,1,8,0:0:0:0:
263,195,142146,1,2,0:0:0:0:
352,96,142427,1,0,0:0:0:0:
352,96,142615,1,0,0:0:0:0:
249,193,142896,1,2,0:0:0:0:
249,193,143177,1,0,0:0:0:0:
249,193,143365,1,0,0:0:0:0:
352,96,143646,1,8,0:0:0:0:
352,96,143927,1,8,0:0:0:0:
352,96,144208,1,8,0:0:0:0:
352,96,144490,1,8,0:0:0:0:
160,288,144865,1,4,0:0:0:0:
352,96,145146,1,0,0:0:0:0:
269,182,145427,1,0,0:0:0:0:
352,96,145615,1,8,0:0:0:0:
352,96,145990,1,0,0:0:0:0:
160,96,146365,1,8,0:0:0:0:
160,96,146646,1,2,0:0:0:0:
267,215,146927,1,2,0:0:0:0:
352,96,147115,1,0,0:0:0:0:
352,96,147490,1,8,0:0:0:0:
160,96,147865,1,0,0:0:0:0:
160,96,148146,1,0,0:0:0:0:
257,204,148427,1,0,0:0:0:0:
160,96,148615,1,2,0:0:0:0:
352,96,148990,1,0,0:0:0:0:
160,96,149365,1,8,0:0:0:0:
160,96,149646,1,10,0:0:0:0:
257,178,149927,1,8,0:0:0:0:
160,96,150115,1,0,0:0:0:0:
352,96,150865,1,0,0:0:0:0:
352,96,151146,1,0,0:0:0:0:
352,96,151427,1,0,0:0:0:0:
160,96,151615,1,8,0:0:0:0:
160,96,151896,1,2,0:0:0:0:
160,96,152177,1,8,0:0:0:0:
352,96,152365,1,0,0:0:0:0:
352,96,152646,1,0,0:0:0:0:
352,96,152927,1,0,0:0:0:0:
160,96,153115,1,8,0:0:0:0:
160,96,153396,1,2,0:0:0:0:
160,96,153677,1,8,0:0:0:0:
352,96,153865,1,0,0:0:0:0:
255,165,154052,1,2,0:0:0:0:
265,172,154240,1,2,0:0:0:0:
267,172,154427,1,2,0:0:0:0:
264,174,154615,1,0,0:0:0:0:
255,165,154708,1,0,0:0:0:0:
266,177,154802,1,0,0:0:0:0:
266,177,154990,1,0,0:0:0:0:
282,177,155177,1,0,0:0:0:0:
160,288,155365,1,12,0:0:0:0:
160,288,155740,1,12,0:0:0:0:
160,288,156115,1,12,0:0:0:0:
160,288,156865,1,4,0:0:0:0:
160,96,157615,1,0,0:0:0:0:
160,96,157990,1,0,0:0:0:0:
352,96,158177,1,8,0:0:0:0:
250,168,158365,1,0,0:0:0:0:
250,168,158740,1,0,0:0:0:0:
352,96,158927,1,8,0:0:0:0:
160,96,159115,1,0,0:0:0:0:
250,168,159208,1,0,0:0:0:0:
250,168,159302,1,0,0:0:0:0:
250,168,159490,1,2,0:0:0:0:
243,165,159583,1,2,0:0:0:0:
352,96,159677,1,8,0:0:0:0:
160,96,159865,1,0,0:0:0:0:
160,96,160615,1,0,0:0:0:0:
160,96,160990,1,0,0:0:0:0:
352,96,161177,1,8,0:0:0:0:
290,198,161365,1,0,0:0:0:0:
328,183,161740,1,0,0:0:0:0:
352,96,161927,1,8,0:0:0:0:
160,96,162115,1,0,0:0:0:0:
308,207,162208,1,0,0:0:0:0:
320,206,162302,1,0,0:0:0:0:
320,206,162490,1,2,0:0:0:0:
160,288,162865,1,4,0:0:0:0:
310,170,163240,1,2,0:0:0:0:
160,96,163615,1,0,0:0:0:0:
160,96,163990,1,0,0:0:0:0:
352,96,164177,1,8,0:0:0:0:
315,187,164365,1,0,0:0:0:0:
315,187,164740,1,0,0:0:0:0:
352,96,164927,1,8,0:0:0:0:
160,96,165115,1,0,0:0:0:0:
315,187,165208,1,0,0:0:0:0:
315,187,165302,1,0,0:0:0:0:
315,187,165490,1,2,0:0:0:0:
315,187,165583,1,2,0:0:0:0:
352,96,165677,1,8,0:0:0:0:
160,96,165865,1,0,0:0:0:0:
352,96,166240,1,8,0:0:0:0:
246,163,166427,1,0,0:0:0:0:
352,96,166615,1,8,0:0:0:0:
250,157,167365,1,0,0:0:0:0:
248,177,167740,1,2,0:0:0:0:
160,96,168115,1,0,0:0:0:0:
256,153,168208,1,0,0:0:0:0:
233,174,168302,1,0,0:0:0:0:
253,173,168490,1,2,0:0:0:0:
160,288,168865,1,4,0:0:0:0:
237,183,169146,1,0,0:0:0:0:
239,184,169240,1,0,0:0:0:0:
239,184,169427,1,0,0:0:0:0:
352,96,169615,1,8,0:0:0:0:
237,183,169896,1,0,0:0:0:0:
160,96,169990,1,0,0:0:0:0:
160,96,170177,1,0,0:0:0:0:
352,96,170365,1,8,0:0:0:0:
249,186,170646,1,0,0:0:0:0:
160,96,170740,1,0,0:0:0:0:
253,186,170927,1,0,0:0:0:0:
352,96,171115,1,8,0:0:0:0:
352,96,171865,1,0,0:0:0:0:
242,208,172146,1,0,0:0:0:0:
242,208,172240,1,0,0:0:0:0:
269,208,172427,1,0,0:0:0:0:
352,96,172615,1,8,0:0:0:0:
269,208,172896,1,0,0:0:0:0:
160,96,172990,1,0,0:0:0:0:
160,96,173177,1,0,0:0:0:0:
352,96,173365,1,8,0:0:0:0:
269,208,173646,1,0,0:0:0:0:
160,96,173740,1,0,0:0:0:0:
269,208,173927,1,0,0:0:0:0:
352,96,174115,1,8,0:0:0:0:
352,288,174865,1,4,0:0:0:0:
274,194,175146,1,0,0:0:0:0:
281,204,175240,1,0,0:0:0:0:
286,204,175427,1,2,0:0:0:0:
352,96,175615,1,8,0:0:0:0:
283,196,175896,1,0,0:0:0:0:
160,96,175990,1,0,0:0:0:0:
352,96,176177,1,8,0:0:0:0:
352,96,176365,1,8,0:0:0:0:
283,196,176646,1,0,0:0:0:0:
160,96,176740,1,0,0:0:0:0:
283,196,176927,1,2,0:0:0:0:
352,96,177115,1,8,0:0:0:0:
160,96,177865,1,0,0:0:0:0:
286,190,178146,1,0,0:0:0:0:
278,184,178240,1,0,0:0:0:0:
278,184,178427,1,2,0:0:0:0:
160,96,178615,1,0,0:0:0:0:
352,96,178802,1,8,0:0:0:0:
304,175,178896,1,2,0:0:0:0:
352,96,178990,1,8,0:0:0:0:
352,96,179177,1,8,0:0:0:0:
160,96,179365,1,0,0:0:0:0:
160,96,180490,1,0,0:0:0:0:
352,96,180865,5,12,0:0:0:0:
352,96,181615,1,8,0:0:0:0:
160,96,181990,1,0,0:0:0:0:
229,171,182177,1,2,0:0:0:0:
294,184,182271,1,2,0:0:0:0:
352,96,182365,1,8,0:0:0:0:
323,165,182552,1,2,0:0:0:0:
160,96,182740,1,0,0:0:0:0:
352,96,183115,1,8,0:0:0:0:
253,204,183302,1,0,0:0:0:0:
253,204,183396,1,0,0:0:0:0:
253,204,183490,1,0,0:0:0:0:
160,96,183677,1,0,0:0:0:0:
352,96,183865,1,8,0:0:0:0:
284,232,184240,1,0,0:0:0:0:
352,96,184615,1,8,0:0:0:0:
160,96,184990,1,0,0:0:0:0:
160,96,185177,1,0,0:0:0:0:
352,96,185365,1,8,0:0:0:0:
255,201,185552,1,0,0:0:0:0:
255,201,185646,1,0,0:0:0:0:
160,96,185833,1,0,0:0:0:0:
352,96,186115,1,8,0:0:0:0:
230,161,186302,1,2,0:0:0:0:
245,162,186396,1,2,0:0:0:0:
352,96,186490,1,8,0:0:0:0:
160,96,186677,1,0,0:0:0:0:
352,96,186865,1,8,0:0:0:0:
352,96,187615,1,8,0:0:0:0:
160,96,187990,1,0,0:0:0:0:
250,162,188177,1,2,0:0:0:0:
242,158,188271,1,2,0:0:0:0:
352,96,188365,1,8,0:0:0:0:
286,165,188552,1,2,0:0:0:0:
160,96,188740,1,0,0:0:0:0:
352,96,189115,1,8,0:0:0:0:
293,156,189302,1,0,0:0:0:0:
264,152,189396,1,0,0:0:0:0:
264,155,189490,1,0,0:0:0:0:
160,96,189677,1,0,0:0:0:0:
352,96,189865,1,8,0:0:0:0:
160,96,190240,1,0,0:0:0:0:
277,160,190333,1,0,0:0:0:0:
277,160,190427,1,0,0:0:0:0:
352,96,190615,1,8,0:0:0:0:
352,96,190802,1,8,0:0:0:0:
352,96,190990,1,8,0:0:0:0:
277,160,191177,1,2,0:0:0:0:
313,235,191365,1,0,0:0:0:0:
313,235,191552,1,2,0:0:0:0:
313,235,191646,1,2,0:0:0:0:
313,218,191740,1,2,0:0:0:0:
313,219,191927,1,2,0:0:0:0:
235,146,192115,1,0,0:0:0:0:
254,195,192865,5,4,0:0:0:0:
283,191,193052,1,0,0:0:0:0:
265,192,193240,1,2,0:0:0:0:
264,211,193615,1,0,0:0:0:0:
258,209,193802,1,0,0:0:0:0:
261,206,193896,1,0,0:0:0:0:
267,209,193990,1,0,0:0:0:0:
287,184,194177,1,2,0:0:0:0:
272,138,194271,1,2,0:0:0:0:
352,96,194365,1,8,0:0:0:0:
281,204,194552,1,2,0:0:0:0:
222,181,194740,1,0,0:0:0:0:
352,96,195115,1,8,0:0:0:0:
160,96,195490,1,2,0:0:0:0:
352,96,195677,1,8,0:0:0:0:
160,96,195865,1,0,0:0:0:0:
272,199,196052,1,0,0:0:0:0:
281,203,196240,1,2,0:0:0:0:
266,190,196615,1,0,0:0:0:0:
262,180,196802,1,0,0:0:0:0:
258,198,196896,1,0,0:0:0:0:
352,96,196990,1,0,0:0:0:0:
281,159,197177,1,2,0:0:0:0:
281,159,197271,1,2,0:0:0:0:
352,96,197365,1,8,0:0:0:0:
281,159,197552,1,2,0:0:0:0:
160,96,197740,1,0,0:0:0:0:
352,96,198115,1,8,0:0:0:0:
252,217,198677,1,2,0:0:0:0:
160,288,198865,1,4,0:0:0:0:
257,185,199052,1,0,0:0:0:0:
276,192,199240,1,2,0:0:0:0:
274,191,199615,1,0,0:0:0:0:
267,196,199802,1,0,0:0:0:0:
277,196,199896,1,0,0:0:0:0:
160,96,199990,1,0,0:0:0:0:
251,211,200177,1,2,0:0:0:0:
275,200,200271,1,2,0:0:0:0:
262,200,200365,1,2,0:0:0:0:
262,200,200552,1,2,0:0:0:0:
265,200,200740,1,0,0:0:0:0:
160,96,201115,1,2,0:0:0:0:
246,202,201490,1,2,0:0:0:0:
352,96,201677,1,8,0:0:0:0:
160,96,201865,1,0,0:0:0:0:
261,188,202052,1,0,0:0:0:0:
262,177,202240,1,2,0:0:0:0:
265,166,202333,1,2,0:0:0:0:
266,167,202427,1,2,0:0:0:0:
266,167,202615,1,0,0:0:0:0:
260,177,202708,1,0,0:0:0:0:
261,176,202802,1,0,0:0:0:0:
253,174,202990,1,2,0:0:0:0:
249,174,203177,1,2,0:0:0:0:
160,96,203365,1,0,0:0:0:0:
352,96,203646,1,8,0:0:0:0:
352,96,203927,1,8,0:0:0:0:
352,96,204208,1,8,0:0:0:0:
352,96,204490,1,8,0:0:0:0:
