osu file format v14

[General]
AudioFilename: Abracadabra (feat. BrainDead).ogg
AudioLeadIn: 0
PreviewTime: 156771
Countdown: 0
SampleSet: Normal
StackLeniency: 0.7
Mode: 1
LetterboxInBreaks: 0
WidescreenStoryboard: 1

[Editor]
DistanceSpacing: 1.7
BeatDivisor: 4
GridSize: 32
TimelineZoom: 2.4

[Metadata]
Title:Abracadabra (feat. BrainDead)
TitleUnicode:Abracadabra (feat. BrainDead)
Artist:Ido B Zooki
ArtistUnicode:Ido B Zooki
Creator:komasy
Version:uone's Oni
Source:
Tags:Electronic English Ido Ben Dov Zook Algasi Hardstyle Hardcore EDM Drops Genjuro uone yassu-
BeatmapID:3594781
BeatmapSetID:1752410

[Difficulty]
HPDrainRate:5
CircleSize:5
OverallDifficulty:5.5
ApproachRate:10
SliderMultiplier:1.4
SliderTickRate:1

[Events]
//Background and Video events
0,0,"bg.jpg",0,50
//Break Periods
2,73065,83665
2,126855,131665
//Storyboard Layer 0 (Background)
//Storyboard Layer 1 (Fail)
//Storyboard Layer 2 (Pass)
//Storyboard Layer 3 (Foreground)
//Storyboard Layer 4 (Overlay)
//Storyboard Sound Samples

[TimingPoints]
865,375,4,1,0,70,1,0
865,-111.111111111111,4,1,0,70,0,0
12115,-105.263157894737,4,1,0,70,0,0
24802,-111.111111111111,4,1,0,80,0,0
24865,-111.111111111111,4,1,0,80,0,0
25146,-109.966643451486,4,1,0,80,0,0
25240,-109.58904109589,4,1,0,80,0,0
25427,-108.845511936724,4,1,0,80,0,0
25615,-108.108108108108,4,1,0,80,0,0
25802,-107.384472205319,4,1,0,80,0,0
25990,-106.666666666667,4,1,0,80,0,0
26365,-105.263157894737,4,1,0,80,0,0
26646,-104.235433098225,4,1,0,80,0,0
26740,-103.896103896104,4,1,0,80,0,0
26927,-103.22758241002,4,1,0,80,0,0
27115,-102.564102564103,4,1,0,80,0,0
27302,-101.912559024357,4,1,0,80,0,0
27490,-101.26582278481,4,1,0,80,0,0
27865,-100,4,1,0,80,0,0
27958,-99.690958030107,4,1,0,80,0,0
28146,-99.072025362438,4,1,0,80,0,0
28240,-98.765432098765,4,1,0,80,0,0
28427,-98.161115110268,4,1,0,80,0,0
28615,-97.560975609756,4,1,0,80,0,0
28802,-96.971264182047,4,1,0,80,0,0
28990,-96.385542168675,4,1,0,80,0,0
29365,-95.238095238095,4,1,0,80,0,0
29458,-94.957743804007,4,1,0,80,0,0
29646,-94.396022780907,4,1,0,80,0,0
29740,-94.117647058824,4,1,0,80,0,0
29927,-93.568710623168,4,1,0,80,0,0
30115,-93.023255813953,4,1,0,80,0,0
30302,-92.486974751056,4,1,0,80,0,0
30490,-91.954022988506,4,1,0,80,0,0
30865,-90.909090909091,4,1,0,80,0,0
31052,-90.396842136981,4,1,0,80,0,0
31146,-90.141522189838,4,1,0,80,0,0
31240,-89.887640449438,4,1,0,80,0,0
31427,-89.38680650736,4,1,0,80,0,0
31615,-88.888888888889,4,1,0,80,0,0
31802,-88.399092435984,4,1,0,80,0,0
31896,-88.154917575152,4,1,0,80,0,0
31990,-87.912087912088,4,1,0,80,0,0
32177,-87.432968057822,4,1,0,80,0,0
32365,-86.95652173913,4,1,0,80,0,0
32552,-86.487733156514,4,1,0,80,0,0
32646,-86.253989247003,4,1,0,80,0,0
32740,-86.021505376344,4,1,0,80,0,0
32927,-85.562717471907,4,1,0,80,0,0
33115,-85.106382978723,4,1,0,80,0,0
33302,-84.657279115049,4,1,0,80,0,0
33396,-84.433311755931,4,1,0,80,0,0
33490,-84.210526315789,4,1,0,80,0,0
33677,-83.770803082766,4,1,0,80,0,0
33865,-83.333333333333,4,1,0,80,0,0
34052,-82.902699864592,4,1,0,80,0,0
34146,-82.687908271547,4,1,0,80,0,0
34240,-82.474226804124,4,1,0,80,0,0
34427,-82.052404135441,4,1,0,80,0,0
34521,-81.841990397206,4,1,0,80,0,0
34615,-81.632653061224,4,1,0,80,0,0
34802,-81.219373527899,4,1,0,80,0,0
34896,-81.01320515244,4,1,0,80,0,0
34990,-80.808080808081,4,1,0,80,0,0
35177,-80.403087478559,4,1,0,80,0,0
35271,-80.201037266749,4,1,0,80,0,0
35365,-80,4,1,0,80,0,0
35740,-86.95652173913,4,1,0,80,0,0
36115,-95.238095238095,4,1,0,80,0,0
36490,-105.263157894737,4,1,0,80,0,0
36802,-105.263157894737,4,1,0,90,0,0
36865,-86.95652173913,4,1,0,90,0,1
45865,-86.95652173913,4,1,0,90,0,1
46052,-87.669311357559,4,1,0,90,0,1
46240,-88.397790055249,4,1,0,90,0,1
46333,-88.762648677437,4,1,0,90,0,1
46427,-89.134503966485,4,1,0,90,0,1
46615,-89.887640449438,4,1,0,90,0,1
46896,-91.03737084073,4,1,0,90,0,1
47177,-92.216894135006,4,1,0,90,0,1
47365,-93.023255813953,4,1,0,90,0,0
47552,-93.839440716933,4,1,0,90,0,0
47740,-94.674556213018,4,1,0,90,0,0
47833,-95.093191327501,4,1,0,90,0,0
47927,-95.52010698252,4,1,0,90,0,0
48115,-96.385542168675,4,1,0,90,0,0
48208,-96.819480079392,4,1,0,90,0,0
48396,-97.70873027505,4,1,0,90,0,0
48490,-98.159509202454,4,1,0,90,0,0
48865,-90.909090909091,4,1,0,90,0,1
59365,-90.909090909091,4,1,0,90,0,0
60865,-90.909090909091,4,1,0,90,0,1
61240,-111.111111111111,4,1,0,90,0,1
72052,-111.111111111111,4,1,0,60,0,1
72802,-100,4,1,0,90,0,0
72927,-111.111111111111,4,1,0,70,0,0
84052,-105.263157894737,4,1,0,80,0,0
96865,-100,4,1,0,80,0,0
108865,-95.2380952380952,4,1,0,80,0,0
120802,-111.111111111111,4,1,0,60,0,0
126552,-111.111111111111,4,1,0,70,0,0
132052,-105.263157894737,4,1,0,80,0,0
133146,-105.004331428671,4,1,0,80,0,0
133240,-104.918032786885,4,1,0,80,0,0
133427,-104.74677467223,4,1,0,80,0,0
133615,-104.575163398693,4,1,0,80,0,0
133896,-104.319705122967,4,1,0,80,0,0
133990,-104.234527687296,4,1,0,80,0,0
134177,-104.065491882892,4,1,0,80,0,0
134365,-103.896103896104,4,1,0,80,0,0
134646,-103.643948488958,4,1,0,80,0,0
134740,-103.559870550162,4,1,0,80,0,0
134927,-103.393014078682,4,1,0,80,0,0
135115,-103.225806451613,4,1,0,80,0,0
135396,-102.976890269542,4,1,0,80,0,0
135490,-102.893890675241,4,1,0,80,0,0
135677,-102.729171660446,4,1,0,80,0,0
135771,-102.646570749149,4,1,0,80,0,0
135865,-102.564102564103,4,1,0,80,0,0
136146,-102.318363588305,4,1,0,80,0,0
136240,-102.23642172524,4,1,0,80,0,0
136427,-102.073799356935,4,1,0,80,0,0
136615,-101.910828025478,4,1,0,80,0,0
136896,-101.668205810338,4,1,0,80,0,0
136990,-101.587301587302,4,1,0,80,0,0
137177,-101.426736087633,4,1,0,80,0,0
137365,-101.26582278481,4,1,0,80,0,0
137646,-101.026258408331,4,1,0,80,0,0
137740,-100.946372239748,4,1,0,80,0,0
137927,-100.78782483076,4,1,0,80,0,0
138115,-100.62893081761,4,1,0,80,0,0
138208,-100.550514064503,4,1,0,80,0,0
138396,-100.392366833708,4,1,0,80,0,0
138490,-100.313479623824,4,1,0,80,0,0
138677,-100.156912496244,4,1,0,80,0,0
138771,-100.078394742548,4,1,0,80,0,0
138865,-100,4,1,0,80,0,0
139146,-99.766380392581,4,1,0,80,0,0
139240,-99.688473520249,4,1,0,80,0,0
139427,-99.533849803421,4,1,0,80,0,0
139615,-99.378881987578,4,1,0,80,0,0
139896,-99.148152126315,4,1,0,80,0,0
139990,-99.071207430341,4,1,0,80,0,0
140177,-98.918491163281,4,1,0,80,0,0
140365,-98.765432098765,4,1,0,80,0,0
140646,-98.537538696513,4,1,0,80,0,0
140740,-98.461538461538,4,1,0,80,0,0
140927,-98.310694565057,4,1,0,80,0,0
141115,-98.159509202454,4,1,0,80,0,0
141208,-98.084892474437,4,1,0,80,0,0
141396,-97.934400274216,4,1,0,80,0,0
141490,-97.859327217125,4,1,0,80,0,0
141677,-97.710321466958,4,1,0,80,0,0
141771,-97.635591427595,4,1,0,80,0,0
141865,-97.560975609756,4,1,0,80,0,0
142146,-97.338600433157,4,1,0,80,0,0
142240,-97.26443768997,4,1,0,80,0,0
142427,-97.117236690892,4,1,0,80,0,0
142615,-96.969696969697,4,1,0,80,0,0
142708,-96.896877498123,4,1,0,80,0,0
142896,-96.750006046875,4,1,0,80,0,0
142990,-96.676737160121,4,1,0,80,0,0
143177,-96.531308320999,4,1,0,80,0,0
143365,-96.385542168675,4,1,0,80,0,0
143646,-96.168487189556,4,1,0,80,0,0
143927,-95.952407605828,4,1,0,80,0,0
144208,-95.737296857423,4,1,0,80,0,0
144302,-95.665553225922,4,1,0,80,0,0
144490,-95.522388059701,4,1,0,80,0,0
144865,-105.610561056104,4,1,0,80,0,0
145146,-104.381020548149,4,1,0,80,0,0
145240,-104.089219330855,4,1,0,80,0,0
145427,-103.513545486809,4,1,0,80,0,0
145615,-102.941176470588,4,1,0,80,0,0
145802,-102.378096937432,4,1,0,80,0,0
145990,-101.818181818182,4,1,0,80,0,0
146365,-100.719424460432,4,1,0,80,0,0
146646,-99.911506950986,4,1,0,80,0,0
146740,-99.644128113879,4,1,0,80,0,0
146927,-99.116447666516,4,1,0,80,0,0
147115,-98.591549295775,4,1,0,80,0,0
147302,-98.074929245944,4,1,0,80,0,0
147490,-97.560975609756,4,1,0,80,0,0
147865,-96.551724137931,4,1,0,80,0,0
147958,-96.304652890515,4,1,0,80,0,0
148146,-95.80903889847,4,1,0,80,0,0
148240,-95.563139931741,4,1,0,80,0,0
148427,-95.077692056938,4,1,0,80,0,0
148615,-94.594594594595,4,1,0,80,0,0
148802,-94.118912523194,4,1,0,80,0,0
148990,-93.645484949833,4,1,0,80,0,0
149365,-92.715231788079,4,1,0,80,0,0
149458,-92.487382078588,4,1,0,80,0,0
149646,-92.030185900976,4,1,0,80,0,0
149740,-91.803278688525,4,1,0,80,0,0
149927,-91.355188974734,4,1,0,80,0,0
150115,-90.909090909091,4,1,0,80,0,0
150302,-90.469666813141,4,1,0,80,0,0
150490,-90.032154340836,4,1,0,80,0,0
150865,-89.171974522293,4,1,0,80,0,0
151052,-88.749144204681,4,1,0,80,0,0
151146,-88.538109331917,4,1,0,80,0,0
151240,-88.328075709779,4,1,0,80,0,0
151427,-87.913192002411,4,1,0,80,0,0
151615,-87.5,4,1,0,80,0,0
151802,-87.092840968472,4,1,0,80,0,0
151896,-86.889600556093,4,1,0,80,0,0
151990,-86.687306501548,4,1,0,80,0,0
152177,-86.287658399487,4,1,0,80,0,0
152365,-85.889570552147,4,1,0,80,0,0
152552,-85.497227447053,4,1,0,80,0,0
152646,-85.301357510175,4,1,0,80,0,0
152740,-85.106382978723,4,1,0,80,0,0
152927,-84.721146398141,4,1,0,80,0,0
153115,-84.33734939759,4,1,0,80,0,0
153302,-83.959027994339,4,1,0,80,0,0
153396,-83.770134750245,4,1,0,80,0,0
153490,-83.582089552239,4,1,0,80,0,0
153677,-83.210498787504,4,1,0,80,0,0
153865,-82.840236686391,4,1,0,80,0,0
154052,-82.475198529585,4,1,0,80,0,0
154146,-82.292915755567,4,1,0,80,0,0
154240,-82.111436950147,4,1,0,80,0,0
154427,-81.752779594506,4,1,0,80,0,0
154615,-81.395348837209,4,1,0,80,0,0
154708,-81.219687652287,4,1,0,80,0,0
154802,-81.042906430176,4,1,0,80,0,0
154896,-80.866893093967,4,1,0,80,0,0
154990,-80.691642651297,4,1,0,80,0,0
155177,-80.345255038795,4,1,0,80,0,0
155365,-80,4,1,0,80,0,0
155740,-86.9565217391304,4,1,0,80,0,0
156115,-95.2380952380952,4,1,0,80,0,0
156490,-105.263157894737,4,1,0,80,0,0
156802,-105.263157894737,4,1,0,90,0,0
156865,-86.9565217391304,4,1,0,90,0,1
166052,-87.669311357559,4,1,0,90,0,1
166240,-88.397790055249,4,1,0,90,0,1
166427,-89.134503966485,4,1,0,90,0,1
166521,-89.509488005729,4,1,0,90,0,1
166615,-89.887640449438,4,1,0,90,0,1
166896,-91.03737084073,4,1,0,90,0,1
167177,-92.216894135006,4,1,0,90,0,1
167271,-92.618319903677,4,1,0,90,0,1
167365,-93.023255813953,4,1,0,90,0,1
167552,-93.839440716933,4,1,0,90,0,1
167740,-94.674556213018,4,1,0,90,0,1
167927,-95.52010698252,4,1,0,90,0,1
168021,-95.950873152946,4,1,0,90,0,1
168115,-96.385542168675,4,1,0,90,0,1
168208,-96.819480079392,4,1,0,90,0,1
168302,-97.262072654768,4,1,0,90,0,1
168490,-98.159509202454,4,1,0,90,0,1
168865,-90.9090909090909,4,1,0,90,0,1
179365,-90.9090909090909,4,1,0,90,0,0
180865,-90.9090909090909,4,1,0,90,0,1
181240,-111.111111111111,4,1,0,90,0,1
192115,-111.111111111111,4,1,0,90,0,0
192865,-90.9090909090909,4,1,0,90,0,1
203318,-90.9090909090909,4,1,0,80,0,1
203365,-90.9090909090909,4,1,0,80,0,0

[HitObjects]
256,192,865,5,8,0:0:0:0:
256,192,1240,1,8,0:0:0:0:
256,192,1615,1,8,0:0:0:0:
256,192,1990,1,8,0:0:0:0:
256,192,2365,1,8,0:0:0:0:
256,192,2740,1,8,0:0:0:0:
256,192,3115,1,8,0:0:0:0:
256,192,3490,1,8,0:0:0:0:
256,192,3677,1,8,0:0:0:0:
256,192,3865,1,8,0:0:0:0:
256,192,4240,1,8,0:0:0:0:
256,192,4615,1,8,0:0:0:0:
256,192,4990,1,8,0:0:0:0:
256,192,5365,1,8,0:0:0:0:
256,192,5552,1,8,0:0:0:0:
256,192,5740,1,8,0:0:0:0:
256,192,6115,1,8,0:0:0:0:
256,192,6490,1,8,0:0:0:0:
256,192,6677,1,8,0:0:0:0:
256,192,6865,1,8,0:0:0:0:
256,192,7146,1,8,0:0:0:0:
256,192,7240,1,8,0:0:0:0:
256,192,7615,1,8,0:0:0:0:
256,192,7990,1,8,0:0:0:0:
256,192,8177,1,8,0:0:0:0:
256,192,8365,1,8,0:0:0:0:
256,192,8740,1,8,0:0:0:0:
256,192,9115,1,8,0:0:0:0:
256,192,9490,1,8,0:0:0:0:
256,192,9865,1,8,0:0:0:0:
256,192,10240,1,8,0:0:0:0:
256,192,10615,1,8,0:0:0:0:
256,192,10990,1,8,0:0:0:0:
256,192,11365,1,8,0:0:0:0:
256,192,12115,1,8,0:0:0:0:
256,192,12240,1,8,0:0:0:0:
256,192,12365,1,8,0:0:0:0:
256,192,12490,1,8,0:0:0:0:
256,192,12865,1,8,0:0:0:0:
256,192,13146,1,8,0:0:0:0:
256,192,13240,1,0,0:0:0:0:
256,192,13427,1,8,0:0:0:0:
256,192,13615,1,8,0:0:0:0:
256,192,13896,1,8,0:0:0:0:
256,192,13990,1,0,0:0:0:0:
256,192,14177,1,0,0:0:0:0:
256,192,14365,1,8,0:0:0:0:
256,192,14646,1,8,0:0:0:0:
256,192,14740,1,0,0:0:0:0:
256,192,14927,1,8,0:0:0:0:
256,192,15115,1,8,0:0:0:0:
256,192,15396,1,8,0:0:0:0:
256,192,15490,1,0,0:0:0:0:
256,192,15677,1,0,0:0:0:0:
256,192,15771,1,0,0:0:0:0:
256,192,15865,1,8,0:0:0:0:
256,192,16146,1,8,0:0:0:0:
256,192,16240,1,0,0:0:0:0:
256,192,16427,1,8,0:0:0:0:
256,192,16615,1,8,0:0:0:0:
256,192,16896,1,8,0:0:0:0:
256,192,16990,1,0,0:0:0:0:
256,192,17177,1,0,0:0:0:0:
256,192,17365,1,8,0:0:0:0:
256,192,17646,1,8,0:0:0:0:
256,192,17740,1,0,0:0:0:0:
256,192,17927,1,8,0:0:0:0:
256,192,18115,1,8,0:0:0:0:
256,192,18302,1,0,0:0:0:0:
256,192,18490,1,8,0:0:0:0:
256,192,18677,1,8,0:0:0:0:
256,192,18771,1,8,0:0:0:0:
256,192,18865,1,8,0:0:0:0:
256,192,19146,1,8,0:0:0:0:
256,192,19240,1,0,0:0:0:0:
256,192,19427,1,8,0:0:0:0:
256,192,19615,1,8,0:0:0:0:
256,192,19896,1,8,0:0:0:0:
256,192,19990,1,0,0:0:0:0:
256,192,20177,1,0,0:0:0:0:
256,192,20365,1,8,0:0:0:0:
256,192,20646,1,8,0:0:0:0:
256,192,20740,1,0,0:0:0:0:
256,192,20927,1,8,0:0:0:0:
256,192,21115,1,8,0:0:0:0:
256,192,21396,1,8,0:0:0:0:
256,192,21490,1,0,0:0:0:0:
256,192,21677,1,0,0:0:0:0:
256,192,21771,1,0,0:0:0:0:
256,192,21865,1,8,0:0:0:0:
256,192,22146,1,8,0:0:0:0:
256,192,22240,1,0,0:0:0:0:
256,192,22427,1,8,0:0:0:0:
256,192,22615,1,8,0:0:0:0:
256,192,22802,1,0,0:0:0:0:
256,192,22896,1,8,0:0:0:0:
256,192,22990,1,0,0:0:0:0:
256,192,23177,1,0,0:0:0:0:
256,192,23365,1,8,0:0:0:0:
256,192,23646,1,8,0:0:0:0:
256,192,23927,1,8,0:0:0:0:
256,192,24208,1,8,0:0:0:0:
256,192,24490,1,8,0:0:0:0:
256,192,24865,1,0,0:0:0:0:
256,192,25146,1,8,0:0:0:0:
256,192,25240,1,0,0:0:0:0:
256,192,25427,1,8,0:0:0:0:
256,192,25615,1,0,0:0:0:0:
256,192,25802,1,8,0:0:0:0:
256,192,25990,1,0,0:0:0:0:
256,192,26365,1,0,0:0:0:0:
256,192,26646,1,8,0:0:0:0:
256,192,26740,1,0,0:0:0:0:
256,192,26927,1,8,0:0:0:0:
256,192,27115,1,0,0:0:0:0:
256,192,27302,1,8,0:0:0:0:
256,192,27490,1,0,0:0:0:0:
256,192,27865,1,0,0:0:0:0:
256,192,27958,1,8,0:0:0:0:
256,192,28146,1,8,0:0:0:0:
256,192,28240,1,0,0:0:0:0:
256,192,28427,1,8,0:0:0:0:
256,192,28615,1,0,0:0:0:0:
256,192,28802,1,8,0:0:0:0:
256,192,28990,1,0,0:0:0:0:
256,192,29365,1,0,0:0:0:0:
256,192,29458,1,8,0:0:0:0:
256,192,29646,1,8,0:0:0:0:
256,192,29740,1,0,0:0:0:0:
256,192,29927,1,8,0:0:0:0:
256,192,30115,1,0,0:0:0:0:
256,192,30302,1,8,0:0:0:0:
256,192,30490,1,0,0:0:0:0:
256,192,30865,1,0,0:0:0:0:
256,192,31052,1,0,0:0:0:0:
256,192,31146,1,8,0:0:0:0:
256,192,31240,1,0,0:0:0:0:
256,192,31427,1,8,0:0:0:0:
256,192,31615,1,0,0:0:0:0:
256,192,31802,1,0,0:0:0:0:
256,192,31896,1,8,0:0:0:0:
256,192,31990,1,0,0:0:0:0:
256,192,32177,1,8,0:0:0:0:
256,192,32365,1,0,0:0:0:0:
256,192,32552,1,8,0:0:0:0:
256,192,32646,1,8,0:0:0:0:
256,192,32740,1,0,0:0:0:0:
256,192,32927,1,8,0:0:0:0:
256,192,33115,1,0,0:0:0:0:
256,192,33302,1,8,0:0:0:0:
256,192,33396,1,8,0:0:0:0:
256,192,33490,1,0,0:0:0:0:
256,192,33677,1,8,0:0:0:0:
256,192,33865,1,0,0:0:0:0:
256,192,34052,1,8,0:0:0:0:
256,192,34146,1,8,0:0:0:0:
256,192,34240,1,0,0:0:0:0:
256,192,34427,1,8,0:0:0:0:
256,192,34521,1,8,0:0:0:0:
256,192,34615,1,0,0:0:0:0:
256,192,34802,1,8,0:0:0:0:
256,192,34896,1,8,0:0:0:0:
256,192,34990,1,0,0:0:0:0:
256,192,35177,1,8,0:0:0:0:
256,192,35271,1,8,0:0:0:0:
256,192,35365,1,0,0:0:0:0:
256,192,35740,1,0,0:0:0:0:
256,192,36115,1,0,0:0:0:0:
256,192,36490,1,8,0:0:0:0:
256,192,36865,1,4,0:0:0:0:
256,192,37240,1,0,0:0:0:0:
256,192,37333,1,0,0:0:0:0:
256,192,37427,1,0,0:0:0:0:
256,192,37521,1,0,0:0:0:0:
256,192,37615,1,8,0:0:0:0:
256,192,37990,1,0,0:0:0:0:
256,192,38083,1,0,0:0:0:0:
256,192,38177,1,0,0:0:0:0:
256,192,38271,1,0,0:0:0:0:
256,192,38365,1,8,0:0:0:0:
256,192,38740,1,0,0:0:0:0:
256,192,38833,1,0,0:0:0:0:
256,192,38927,1,0,0:0:0:0:
256,192,39021,1,0,0:0:0:0:
256,192,39115,1,8,0:0:0:0:
256,192,39396,1,8,0:0:0:0:
256,192,39490,1,0,0:0:0:0:
256,192,39677,1,8,0:0:0:0:
256,192,39865,1,4,0:0:0:0:
256,192,40240,1,0,0:0:0:0:
256,192,40333,1,0,0:0:0:0:
256,192,40427,1,0,0:0:0:0:
256,192,40521,1,0,0:0:0:0:
256,192,40615,1,8,0:0:0:0:
256,192,40990,1,0,0:0:0:0:
256,192,41083,1,0,0:0:0:0:
256,192,41177,1,0,0:0:0:0:
256,192,41271,1,0,0:0:0:0:
256,192,41365,1,8,0:0:0:0:
256,192,41646,1,8,0:0:0:0:
256,192,41740,1,0,0:0:0:0:
256,192,41927,1,0,0:0:0:0:
256,192,42021,1,0,0:0:0:0:
256,192,42115,1,8,0:0:0:0:
256,192,42302,1,8,0:0:0:0:
256,192,42396,1,8,0:0:0:0:
256,192,42490,1,0,0:0:0:0:
256,192,42677,1,8,0:0:0:0:
256,192,42865,1,4,0:0:0:0:
256,192,43146,1,8,0:0:0:0:
256,192,43240,1,0,0:0:0:0:
256,192,43427,1,8,0:0:0:0:
256,192,43615,1,0,0:0:0:0:
256,192,43708,1,0,0:0:0:0:
256,192,43896,1,8,0:0:0:0:
256,192,43990,1,0,0:0:0:0:
256,192,44177,1,8,0:0:0:0:
256,192,44365,1,0,0:0:0:0:
256,192,44458,1,0,0:0:0:0:
256,192,44646,1,8,0:0:0:0:
256,192,44740,1,0,0:0:0:0:
256,192,44927,1,8,0:0:0:0:
256,192,45115,1,0,0:0:0:0:
256,192,45208,1,8,0:0:0:0:
256,192,45396,1,8,0:0:0:0:
256,192,45490,1,0,0:0:0:0:
256,192,45677,1,8,0:0:0:0:
256,192,45865,1,0,0:0:0:0:
256,192,46052,1,0,0:0:0:0:
256,192,46240,1,8,0:0:0:0:
256,192,46333,1,8,0:0:0:0:
256,192,46427,1,8,0:0:0:0:
256,192,46615,1,8,0:0:0:0:
256,192,46896,1,8,0:0:0:0:
256,192,47177,1,8,0:0:0:0:
256,192,47365,1,0,0:0:0:0:
256,192,47552,1,0,0:0:0:0:
256,192,47740,1,8,0:0:0:0:
256,192,47833,1,8,0:0:0:0:
256,192,47927,1,0,0:0:0:0:
256,192,48115,1,0,0:0:0:0:
256,192,48208,1,0,0:0:0:0:
256,192,48396,1,0,0:0:0:0:
256,192,48490,1,8,0:0:0:0:
256,192,48865,1,4,0:0:0:0:
256,192,49146,1,8,0:0:0:0:
256,192,49240,1,0,0:0:0:0:
256,192,49427,1,8,0:0:0:0:
256,192,49615,1,0,0:0:0:0:
256,192,49896,1,8,0:0:0:0:
256,192,49990,1,0,0:0:0:0:
256,192,50177,1,8,0:0:0:0:
256,192,50365,1,0,0:0:0:0:
256,192,50458,1,8,0:0:0:0:
256,192,50646,1,8,0:0:0:0:
256,192,50740,1,0,0:0:0:0:
256,192,50927,1,8,0:0:0:0:
256,192,51115,1,0,0:0:0:0:
256,192,51302,1,8,0:0:0:0:
256,192,51396,1,8,0:0:0:0:
256,192,51490,1,0,0:0:0:0:
256,192,51677,1,8,0:0:0:0:
256,192,51865,1,0,0:0:0:0:
256,192,52146,1,8,0:0:0:0:
256,192,52240,1,0,0:0:0:0:
256,192,52427,1,8,0:0:0:0:
256,192,52615,1,0,0:0:0:0:
256,192,52896,1,8,0:0:0:0:
256,192,52990,1,0,0:0:0:0:
256,192,53177,1,8,0:0:0:0:
256,192,53365,1,0,0:0:0:0:
256,192,53458,1,8,0:0:0:0:
256,192,53646,1,8,0:0:0:0:
256,192,53740,1,0,0:0:0:0:
256,192,53927,1,8,0:0:0:0:
256,192,54115,1,0,0:0:0:0:
256,192,54302,1,0,0:0:0:0:
256,192,54396,1,0,0:0:0:0:
256,192,54490,1,8,0:0:0:0:
256,192,54677,1,8,0:0:0:0:
256,192,54865,1,4,0:0:0:0:
256,192,55146,1,8,0:0:0:0:
256,192,55240,1,8,0:0:0:0:
256,192,55427,1,8,0:0:0:0:
256,192,55615,1,0,0:0:0:0:
256,192,55896,1,8,0:0:0:0:
256,192,55990,1,8,0:0:0:0:
256,192,56177,1,8,0:0:0:0:
256,192,56365,1,0,0:0:0:0:
256,192,56458,1,8,0:0:0:0:
256,192,56646,1,8,0:0:0:0:
256,192,56740,1,8,0:0:0:0:
256,192,56927,1,8,0:0:0:0:
256,192,57115,1,0,0:0:0:0:
256,192,57208,1,8,0:0:0:0:
256,192,57396,1,8,0:0:0:0:
256,192,57490,1,8,0:0:0:0:
256,192,57583,1,0,0:0:0:0:
256,192,57677,1,8,0:0:0:0:
256,192,57865,1,0,0:0:0:0:
256,192,58146,1,8,0:0:0:0:
256,192,58240,1,0,0:0:0:0:
256,192,58427,1,8,0:0:0:0:
256,192,58521,1,8,0:0:0:0:
256,192,58615,1,0,0:0:0:0:
256,192,58802,1,8,0:0:0:0:
256,192,58990,1,0,0:0:0:0:
256,192,59083,1,8,0:0:0:0:
256,192,59177,1,8,0:0:0:0:
256,192,59271,1,8,0:0:0:0:
256,192,59365,1,0,0:0:0:0:
256,192,59740,1,8,0:0:0:0:
256,192,60115,1,8,0:0:0:0:
256,192,60302,1,0,0:0:0:0:
256,192,60490,1,8,0:0:0:0:
256,192,60865,1,0,0:0:0:0:
256,192,61240,1,8,0:0:0:0:
256,192,61333,1,8,0:0:0:0:
256,192,61427,1,8,0:0:0:0:
256,192,61521,1,8,0:0:0:0:
256,192,61615,1,8,0:0:0:0:
256,192,61802,1,8,0:0:0:0:
256,192,61896,1,8,0:0:0:0:
256,192,61990,1,0,0:0:0:0:
256,192,62177,1,8,0:0:0:0:
256,192,62365,1,8,0:0:0:0:
256,192,62552,1,8,0:0:0:0:
256,192,62646,1,8,0:0:0:0:
256,192,62740,1,0,0:0:0:0:
256,192,62927,1,8,0:0:0:0:
256,192,63115,1,8,0:0:0:0:
256,192,63302,1,8,0:0:0:0:
256,192,63396,1,8,0:0:0:0:
256,192,63490,1,8,0:0:0:0:
256,192,63677,1,8,0:0:0:0:
256,192,63865,1,0,0:0:0:0:
256,192,64240,1,8,0:0:0:0:
256,192,64333,1,8,0:0:0:0:
256,192,64427,1,8,0:0:0:0:
256,192,64521,1,8,0:0:0:0:
256,192,64615,1,8,0:0:0:0:
256,192,64802,1,8,0:0:0:0:
256,192,64896,1,8,0:0:0:0:
256,192,64990,1,0,0:0:0:0:
256,192,65177,1,8,0:0:0:0:
256,192,65365,1,8,0:0:0:0:
256,192,65552,1,8,0:0:0:0:
256,192,65646,1,8,0:0:0:0:
256,192,65740,1,0,0:0:0:0:
256,192,65927,1,8,0:0:0:0:
256,192,66115,1,8,0:0:0:0:
256,192,66208,1,8,0:0:0:0:
256,192,66302,1,8,0:0:0:0:
256,192,66396,1,8,0:0:0:0:
256,192,66583,1,8,0:0:0:0:
256,192,66677,1,8,0:0:0:0:
256,192,66865,1,0,0:0:0:0:
256,192,67240,1,8,0:0:0:0:
256,192,67333,1,8,0:0:0:0:
256,192,67427,1,8,0:0:0:0:
256,192,67521,1,8,0:0:0:0:
256,192,67615,1,8,0:0:0:0:
256,192,67802,1,8,0:0:0:0:
256,192,67896,1,8,0:0:0:0:
256,192,67990,1,0,0:0:0:0:
256,192,68177,1,8,0:0:0:0:
256,192,68365,1,8,0:0:0:0:
256,192,68552,1,8,0:0:0:0:
256,192,68646,1,8,0:0:0:0:
256,192,68740,1,0,0:0:0:0:
256,192,68927,1,8,0:0:0:0:
256,192,69115,1,8,0:0:0:0:
256,192,69302,1,8,0:0:0:0:
256,192,69396,1,8,0:0:0:0:
256,192,69490,1,8,0:0:0:0:
256,192,69677,1,8,0:0:0:0:
256,192,69865,1,0,0:0:0:0:
256,192,70240,1,8,0:0:0:0:
256,192,70333,1,8,0:0:0:0:
256,192,70427,1,8,0:0:0:0:
256,192,70521,1,8,0:0:0:0:
256,192,70615,1,8,0:0:0:0:
256,192,70802,1,8,0:0:0:0:
256,192,70896,1,8,0:0:0:0:
256,192,70990,1,8,0:0:0:0:
256,192,71177,1,8,0:0:0:0:
256,192,71365,1,0,0:0:0:0:
256,192,71458,1,0,0:0:0:0:
256,192,71552,1,8,0:0:0:0:
256,192,71646,1,8,0:0:0:0:
256,192,71740,1,8,0:0:0:0:
256,192,71927,1,8,0:0:0:0:
256,192,72115,12,0,72677,0:0:0:0:
256,192,72865,5,4,0:0:0:0:
256,192,84115,5,8,0:0:0:0:
256,192,84240,1,8,0:0:0:0:
256,192,84365,1,8,0:0:0:0:
256,192,84490,1,8,0:0:0:0:
256,192,84865,1,0,0:0:0:0:
256,192,85146,1,8,0:0:0:0:
256,192,85240,1,0,0:0:0:0:
256,192,85427,1,8,0:0:0:0:
256,192,85615,1,0,0:0:0:0:
256,192,85990,1,0,0:0:0:0:
256,192,86177,1,0,0:0:0:0:
256,192,86365,1,8,0:0:0:0:
256,192,86740,1,8,0:0:0:0:
256,192,86927,1,0,0:0:0:0:
256,192,87115,1,8,0:0:0:0:
256,192,87396,1,8,0:0:0:0:
256,192,87490,1,0,0:0:0:0:
256,192,87677,1,8,0:0:0:0:
256,192,87865,1,0,0:0:0:0:
256,192,88240,1,0,0:0:0:0:
256,192,88427,1,8,0:0:0:0:
256,192,88615,1,0,0:0:0:0:
256,192,88990,1,0,0:0:0:0:
256,192,89271,1,0,0:0:0:0:
256,192,89365,1,8,0:0:0:0:
256,192,89740,1,8,0:0:0:0:
256,192,89927,1,0,0:0:0:0:
256,192,90115,1,8,0:0:0:0:
256,192,90302,1,0,0:0:0:0:
256,192,90396,1,0,0:0:0:0:
256,192,90490,1,8,0:0:0:0:
256,192,90677,1,8,0:0:0:0:
256,192,90865,1,0,0:0:0:0:
256,192,91240,1,0,0:0:0:0:
256,192,91427,1,8,0:0:0:0:
256,192,91615,1,0,0:0:0:0:
256,192,91990,1,0,0:0:0:0:
256,192,92177,1,0,0:0:0:0:
256,192,92365,1,8,0:0:0:0:
256,192,92740,1,8,0:0:0:0:
256,192,92927,1,0,0:0:0:0:
256,192,93115,1,8,0:0:0:0:
256,192,93396,1,8,0:0:0:0:
256,192,93490,1,0,0:0:0:0:
256,192,93677,1,0,0:0:0:0:
256,192,93865,1,8,0:0:0:0:
256,192,94146,1,8,0:0:0:0:
256,192,94427,1,8,0:0:0:0:
256,192,94615,1,8,0:0:0:0:
256,192,94896,1,8,0:0:0:0:
256,192,95177,1,8,0:0:0:0:
256,192,95365,1,8,0:0:0:0:
256,192,95646,1,8,0:0:0:0:
256,192,95740,1,0,0:0:0:0:
256,192,95927,1,8,0:0:0:0:
256,192,96115,1,0,0:0:0:0:
256,192,96208,1,8,0:0:0:0:
256,192,96302,1,0,0:0:0:0:
256,192,96490,1,8,0:0:0:0:
256,192,96865,1,0,0:0:0:0:
256,192,97240,1,0,0:0:0:0:
256,192,97427,1,8,0:0:0:0:
256,192,97615,1,0,0:0:0:0:
256,192,97802,1,8,0:0:0:0:
256,192,97896,1,8,0:0:0:0:
256,192,97990,1,0,0:0:0:0:
256,192,98177,1,8,0:0:0:0:
256,192,98365,1,0,0:0:0:0:
256,192,98646,1,8,0:0:0:0:
256,192,98740,1,0,0:0:0:0:
256,192,98927,1,8,0:0:0:0:
256,192,99115,1,0,0:0:0:0:
256,192,99302,1,0,0:0:0:0:
256,192,99396,1,8,0:0:0:0:
256,192,99490,1,0,0:0:0:0:
256,192,99677,1,8,0:0:0:0:
256,192,99865,1,0,0:0:0:0:
256,192,100146,1,8,0:0:0:0:
256,192,100240,1,0,0:0:0:0:
256,192,100427,1,8,0:0:0:0:
256,192,100615,1,0,0:0:0:0:
256,192,100802,1,8,0:0:0:0:
256,192,100896,1,8,0:0:0:0:
256,192,100990,1,0,0:0:0:0:
256,192,101177,1,8,0:0:0:0:
256,192,101365,1,0,0:0:0:0:
256,192,101552,1,0,0:0:0:0:
256,192,101646,1,8,0:0:0:0:
256,192,101740,1,0,0:0:0:0:
256,192,101927,1,8,0:0:0:0:
256,192,102115,1,0,0:0:0:0:
256,192,102302,1,0,0:0:0:0:
256,192,102396,1,0,0:0:0:0:
256,192,102490,1,8,0:0:0:0:
256,192,102677,1,8,0:0:0:0:
256,192,102865,1,0,0:0:0:0:
256,192,103240,1,0,0:0:0:0:
256,192,103427,1,8,0:0:0:0:
256,192,103615,1,0,0:0:0:0:
256,192,103802,1,8,0:0:0:0:
256,192,103896,1,8,0:0:0:0:
256,192,103990,1,0,0:0:0:0:
256,192,104177,1,8,0:0:0:0:
256,192,104365,1,0,0:0:0:0:
256,192,104646,1,8,0:0:0:0:
256,192,104740,1,0,0:0:0:0:
256,192,104927,1,8,0:0:0:0:
256,192,105115,1,0,0:0:0:0:
256,192,105302,1,0,0:0:0:0:
256,192,105396,1,8,0:0:0:0:
256,192,105490,1,0,0:0:0:0:
256,192,105677,1,8,0:0:0:0:
256,192,105865,1,0,0:0:0:0:
256,192,106146,1,8,0:0:0:0:
256,192,106240,1,0,0:0:0:0:
256,192,106427,1,8,0:0:0:0:
256,192,106615,1,0,0:0:0:0:
256,192,106708,1,8,0:0:0:0:
256,192,106896,1,8,0:0:0:0:
256,192,106990,1,0,0:0:0:0:
256,192,107177,1,0,0:0:0:0:
256,192,107365,1,8,0:0:0:0:
256,192,107552,1,8,0:0:0:0:
256,192,107740,1,8,0:0:0:0:
256,192,107927,1,8,0:0:0:0:
256,192,108115,1,8,0:0:0:0:
256,192,108490,1,8,0:0:0:0:
256,192,108865,1,0,0:0:0:0:
256,192,109146,1,8,0:0:0:0:
256,192,109240,1,0,0:0:0:0:
256,192,109427,1,0,0:0:0:0:
256,192,109615,1,8,0:0:0:0:
256,192,109802,1,8,0:0:0:0:
256,192,109896,1,8,0:0:0:0:
256,192,109990,1,0,0:0:0:0:
256,192,110177,1,8,0:0:0:0:
256,192,110365,1,0,0:0:0:0:
256,192,110458,1,8,0:0:0:0:
256,192,110646,1,8,0:0:0:0:
256,192,110740,1,0,0:0:0:0:
256,192,110927,1,0,0:0:0:0:
256,192,111115,1,8,0:0:0:0:
256,192,111302,1,0,0:0:0:0:
256,192,111396,1,8,0:0:0:0:
256,192,111490,1,0,0:0:0:0:
256,192,111677,1,8,0:0:0:0:
256,192,111865,1,0,0:0:0:0:
256,192,112146,1,8,0:0:0:0:
256,192,112240,1,0,0:0:0:0:
256,192,112427,1,0,0:0:0:0:
256,192,112615,1,8,0:0:0:0:
256,192,112802,1,8,0:0:0:0:
256,192,112896,1,8,0:0:0:0:
256,192,112990,1,0,0:0:0:0:
256,192,113177,1,8,0:0:0:0:
256,192,113365,1,0,0:0:0:0:
256,192,113552,1,0,0:0:0:0:
256,192,113646,1,8,0:0:0:0:
256,192,113740,1,0,0:0:0:0:
256,192,113927,1,0,0:0:0:0:
256,192,114115,1,8,0:0:0:0:
256,192,114208,1,8,0:0:0:0:
256,192,114302,1,0,0:0:0:0:
256,192,114396,1,0,0:0:0:0:
256,192,114490,1,8,0:0:0:0:
256,192,114677,1,8,0:0:0:0:
256,192,114865,1,0,0:0:0:0:
256,192,115146,1,8,0:0:0:0:
256,192,115240,1,0,0:0:0:0:
256,192,115427,1,0,0:0:0:0:
256,192,115615,1,8,0:0:0:0:
256,192,115802,1,8,0:0:0:0:
256,192,115896,1,8,0:0:0:0:
256,192,115990,1,0,0:0:0:0:
256,192,116177,1,8,0:0:0:0:
256,192,116365,1,0,0:0:0:0:
256,192,116458,1,8,0:0:0:0:
256,192,116646,1,8,0:0:0:0:
256,192,116740,1,0,0:0:0:0:
256,192,116927,1,0,0:0:0:0:
256,192,117115,1,8,0:0:0:0:
256,192,117302,1,0,0:0:0:0:
256,192,117396,1,8,0:0:0:0:
256,192,117490,1,0,0:0:0:0:
256,192,117677,1,8,0:0:0:0:
256,192,117865,1,0,0:0:0:0:
256,192,118146,1,8,0:0:0:0:
256,192,118240,1,0,0:0:0:0:
256,192,118427,1,0,0:0:0:0:
256,192,118615,1,8,0:0:0:0:
256,192,118708,1,8,0:0:0:0:
256,192,118896,1,8,0:0:0:0:
256,192,118990,1,0,0:0:0:0:
256,192,119177,1,0,0:0:0:0:
256,192,119365,1,8,0:0:0:0:
256,192,119646,1,8,0:0:0:0:
256,192,119927,1,8,0:0:0:0:
256,192,120208,1,8,0:0:0:0:
256,192,120490,1,8,0:0:0:0:
256,192,120865,12,0,126490,0:0:0:0:
256,192,132115,5,8,0:0:0:0:
256,192,132240,1,8,0:0:0:0:
256,192,132365,1,8,0:0:0:0:
256,192,132490,1,8,0:0:0:0:
256,192,132865,1,8,0:0:0:0:
256,192,133146,1,8,0:0:0:0:
256,192,133240,1,0,0:0:0:0:
256,192,133427,1,8,0:0:0:0:
256,192,133615,1,8,0:0:0:0:
256,192,133896,1,8,0:0:0:0:
256,192,133990,1,0,0:0:0:0:
256,192,134177,1,0,0:0:0:0:
256,192,134365,1,8,0:0:0:0:
256,192,134646,1,8,0:0:0:0:
256,192,134740,1,0,0:0:0:0:
256,192,134927,1,8,0:0:0:0:
256,192,135115,1,8,0:0:0:0:
256,192,135396,1,8,0:0:0:0:
256,192,135490,1,0,0:0:0:0:
256,192,135677,1,0,0:0:0:0:
256,192,135771,1,0,0:0:0:0:
256,192,135865,1,8,0:0:0:0:
256,192,136146,1,8,0:0:0:0:
256,192,136240,1,0,0:0:0:0:
256,192,136427,1,8,0:0:0:0:
256,192,136615,1,8,0:0:0:0:
256,192,136896,1,8,0:0:0:0:
256,192,136990,1,0,0:0:0:0:
256,192,137177,1,0,0:0:0:0:
256,192,137365,1,8,0:0:0:0:
256,192,137646,1,8,0:0:0:0:
256,192,137740,1,0,0:0:0:0:
256,192,137927,1,8,0:0:0:0:
256,192,138115,1,8,0:0:0:0:
256,192,138208,1,8,0:0:0:0:
256,192,138396,1,8,0:0:0:0:
256,192,138490,1,0,0:0:0:0:
256,192,138677,1,8,0:0:0:0:
256,192,138771,1,8,0:0:0:0:
256,192,138865,1,8,0:0:0:0:
256,192,139146,1,8,0:0:0:0:
256,192,139240,1,0,0:0:0:0:
256,192,139427,1,8,0:0:0:0:
256,192,139615,1,8,0:0:0:0:
256,192,139896,1,8,0:0:0:0:
256,192,139990,1,0,0:0:0:0:
256,192,140177,1,0,0:0:0:0:
256,192,140365,1,8,0:0:0:0:
256,192,140646,1,8,0:0:0:0:
256,192,140740,1,0,0:0:0:0:
256,192,140927,1,8,0:0:0:0:
256,192,141115,1,8,0:0:0:0:
256,192,141208,1,0,0:0:0:0:
256,192,141396,1,8,0:0:0:0:
256,192,141490,1,0,0:0:0:0:
256,192,141677,1,0,0:0:0:0:
256,192,141771,1,0,0:0:0:0:
256,192,141865,1,8,0:0:0:0:
256,192,142146,1,8,0:0:0:0:
256,192,142240,1,0,0:0:0:0:
256,192,142427,1,8,0:0:0:0:
256,192,142615,1,8,0:0:0:0:
256,192,142708,1,0,0:0:0:0:
256,192,142896,1,8,0:0:0:0:
256,192,142990,1,0,0:0:0:0:
256,192,143177,1,0,0:0:0:0:
256,192,143365,1,8,0:0:0:0:
256,192,143646,1,8,0:0:0:0:
256,192,143927,1,8,0:0:0:0:
256,192,144208,1,8,0:0:0:0:
256,192,144302,1,0,0:0:0:0:
256,192,144490,1,8,0:0:0:0:
256,192,144865,1,8,0:0:0:0:
256,192,145146,1,0,0:0:0:0:
256,192,145240,1,8,0:0:0:0:
256,192,145427,1,0,0:0:0:0:
256,192,145615,1,8,0:0:0:0:
256,192,145802,1,0,0:0:0:0:
256,192,145990,1,8,0:0:0:0:
256,192,146365,1,8,0:0:0:0:
256,192,146646,1,0,0:0:0:0:
256,192,146740,1,8,0:0:0:0:
256,192,146927,1,0,0:0:0:0:
256,192,147115,1,8,0:0:0:0:
256,192,147302,1,0,0:0:0:0:
256,192,147490,1,8,0:0:0:0:
256,192,147865,1,8,0:0:0:0:
256,192,147958,1,0,0:0:0:0:
256,192,148146,1,0,0:0:0:0:
256,192,148240,1,8,0:0:0:0:
256,192,148427,1,0,0:0:0:0:
256,192,148615,1,8,0:0:0:0:
256,192,148802,1,0,0:0:0:0:
256,192,148990,1,8,0:0:0:0:
256,192,149365,1,8,0:0:0:0:
256,192,149458,1,0,0:0:0:0:
256,192,149646,1,0,0:0:0:0:
256,192,149740,1,8,0:0:0:0:
256,192,149927,1,0,0:0:0:0:
256,192,150115,1,8,0:0:0:0:
256,192,150302,1,0,0:0:0:0:
256,192,150490,1,8,0:0:0:0:
256,192,150865,1,8,0:0:0:0:
256,192,151052,1,0,0:0:0:0:
256,192,151146,1,8,0:0:0:0:
256,192,151240,1,0,0:0:0:0:
256,192,151427,1,0,0:0:0:0:
256,192,151615,1,8,0:0:0:0:
256,192,151802,1,0,0:0:0:0:
256,192,151896,1,8,0:0:0:0:
256,192,151990,1,0,0:0:0:0:
256,192,152177,1,0,0:0:0:0:
256,192,152365,1,8,0:0:0:0:
256,192,152552,1,8,0:0:0:0:
256,192,152646,1,8,0:0:0:0:
256,192,152740,1,0,0:0:0:0:
256,192,152927,1,0,0:0:0:0:
256,192,153115,1,8,0:0:0:0:
256,192,153302,1,8,0:0:0:0:
256,192,153396,1,8,0:0:0:0:
256,192,153490,1,0,0:0:0:0:
256,192,153677,1,0,0:0:0:0:
256,192,153865,1,8,0:0:0:0:
256,192,154052,1,0,0:0:0:0:
256,192,154146,1,0,0:0:0:0:
256,192,154240,1,8,0:0:0:0:
256,192,154427,1,0,0:0:0:0:
256,192,154615,1,8,0:0:0:0:
256,192,154708,1,8,0:0:0:0:
256,192,154802,1,0,0:0:0:0:
256,192,154896,1,0,0:0:0:0:
256,192,154990,1,8,0:0:0:0:
256,192,155177,1,8,0:0:0:0:
256,192,155365,1,0,0:0:0:0:
256,192,155740,1,0,0:0:0:0:
256,192,156115,1,0,0:0:0:0:
256,192,156490,1,8,0:0:0:0:
256,192,156865,1,4,0:0:0:0:
256,192,157052,1,0,0:0:0:0:
256,192,157240,1,8,0:0:0:0:
256,192,157615,1,0,0:0:0:0:
256,192,157990,1,8,0:0:0:0:
256,192,158177,1,8,0:0:0:0:
256,192,158365,1,0,0:0:0:0:
256,192,158740,1,8,0:0:0:0:
256,192,158927,1,0,0:0:0:0:
256,192,159115,1,0,0:0:0:0:
256,192,159208,1,8,0:0:0:0:
256,192,159302,1,8,0:0:0:0:
256,192,159490,1,8,0:0:0:0:
256,192,159583,1,8,0:0:0:0:
256,192,159677,1,8,0:0:0:0:
256,192,159865,1,0,0:0:0:0:
256,192,160052,1,0,0:0:0:0:
256,192,160240,1,8,0:0:0:0:
256,192,160615,1,0,0:0:0:0:
256,192,160990,1,8,0:0:0:0:
256,192,161177,1,8,0:0:0:0:
256,192,161365,1,0,0:0:0:0:
256,192,161740,1,8,0:0:0:0:
256,192,161927,1,0,0:0:0:0:
256,192,162115,1,0,0:0:0:0:
256,192,162208,1,8,0:0:0:0:
256,192,162302,1,8,0:0:0:0:
256,192,162490,1,8,0:0:0:0:
256,192,162865,1,4,0:0:0:0:
256,192,163146,1,8,0:0:0:0:
256,192,163240,1,0,0:0:0:0:
256,192,163427,1,8,0:0:0:0:
256,192,163615,1,0,0:0:0:0:
256,192,163896,1,8,0:0:0:0:
256,192,163990,1,0,0:0:0:0:
256,192,164177,1,8,0:0:0:0:
256,192,164365,1,0,0:0:0:0:
256,192,164458,1,8,0:0:0:0:
256,192,164646,1,8,0:0:0:0:
256,192,164740,1,0,0:0:0:0:
256,192,164927,1,8,0:0:0:0:
256,192,165115,1,0,0:0:0:0:
256,192,165208,1,8,0:0:0:0:
256,192,165396,1,8,0:0:0:0:
256,192,165490,1,0,0:0:0:0:
256,192,165583,1,8,0:0:0:0:
256,192,165677,1,8,0:0:0:0:
256,192,165865,1,0,0:0:0:0:
256,192,166052,1,0,0:0:0:0:
256,192,166240,1,8,0:0:0:0:
256,192,166427,1,8,0:0:0:0:
256,192,166521,1,8,0:0:0:0:
256,192,166615,1,8,0:0:0:0:
256,192,166896,1,8,0:0:0:0:
256,192,167177,1,0,0:0:0:0:
256,192,167271,1,0,0:0:0:0:
256,192,167365,1,8,0:0:0:0:
256,192,167552,1,8,0:0:0:0:
256,192,167740,1,0,0:0:0:0:
256,192,167927,1,8,0:0:0:0:
256,192,168021,1,8,0:0:0:0:
256,192,168115,1,0,0:0:0:0:
256,192,168208,1,8,0:0:0:0:
256,192,168302,1,8,0:0:0:0:
256,192,168490,1,8,0:0:0:0:
256,192,168865,1,4,0:0:0:0:
256,192,169146,1,8,0:0:0:0:
256,192,169240,1,0,0:0:0:0:
256,192,169427,1,8,0:0:0:0:
256,192,169615,1,0,0:0:0:0:
256,192,169802,1,8,0:0:0:0:
256,192,169896,1,8,0:0:0:0:
256,192,169990,1,0,0:0:0:0:
256,192,170177,1,8,0:0:0:0:
256,192,170365,1,0,0:0:0:0:
256,192,170458,1,8,0:0:0:0:
256,192,170646,1,8,0:0:0:0:
256,192,170740,1,0,0:0:0:0:
256,192,170927,1,8,0:0:0:0:
256,192,171115,1,0,0:0:0:0:
256,192,171208,1,8,0:0:0:0:
256,192,171302,1,8,0:0:0:0:
256,192,171396,1,8,0:0:0:0:
256,192,171490,1,0,0:0:0:0:
256,192,171677,1,8,0:0:0:0:
256,192,171865,1,0,0:0:0:0:
256,192,172146,1,8,0:0:0:0:
256,192,172240,1,0,0:0:0:0:
256,192,172427,1,8,0:0:0:0:
256,192,172615,1,0,0:0:0:0:
256,192,172802,1,8,0:0:0:0:
256,192,172896,1,8,0:0:0:0:
256,192,172990,1,0,0:0:0:0:
256,192,173177,1,8,0:0:0:0:
256,192,173365,1,0,0:0:0:0:
256,192,173458,1,8,0:0:0:0:
256,192,173646,1,8,0:0:0:0:
256,192,173740,1,0,0:0:0:0:
256,192,173927,1,8,0:0:0:0:
256,192,174115,1,0,0:0:0:0:
256,192,174208,1,8,0:0:0:0:
256,192,174302,1,0,0:0:0:0:
256,192,174396,1,0,0:0:0:0:
256,192,174490,1,8,0:0:0:0:
256,192,174677,1,8,0:0:0:0:
256,192,174865,1,4,0:0:0:0:
256,192,175146,1,8,0:0:0:0:
256,192,175240,1,8,0:0:0:0:
256,192,175427,1,8,0:0:0:0:
256,192,175615,1,0,0:0:0:0:
256,192,175802,1,8,0:0:0:0:
256,192,175896,1,8,0:0:0:0:
256,192,175990,1,8,0:0:0:0:
256,192,176177,1,8,0:0:0:0:
256,192,176365,1,0,0:0:0:0:
256,192,176458,1,8,0:0:0:0:
256,192,176646,1,8,0:0:0:0:
256,192,176740,1,8,0:0:0:0:
256,192,176927,1,8,0:0:0:0:
256,192,177115,1,0,0:0:0:0:
256,192,177208,1,8,0:0:0:0:
256,192,177396,1,8,0:0:0:0:
256,192,177490,1,0,0:0:0:0:
256,192,177583,1,8,0:0:0:0:
256,192,177677,1,8,0:0:0:0:
256,192,177865,1,0,0:0:0:0:
256,192,178146,1,8,0:0:0:0:
256,192,178240,1,0,0:0:0:0:
256,192,178427,1,8,0:0:0:0:
256,192,178521,1,8,0:0:0:0:
256,192,178615,1,0,0:0:0:0:
256,192,178802,1,8,0:0:0:0:
256,192,178990,1,0,0:0:0:0:
256,192,179083,1,8,0:0:0:0:
256,192,179177,1,8,0:0:0:0:
256,192,179271,1,8,0:0:0:0:
256,192,179365,1,0,0:0:0:0:
256,192,179552,1,0,0:0:0:0:
256,192,179740,1,8,0:0:0:0:
256,192,179927,1,0,0:0:0:0:
256,192,180021,1,8,0:0:0:0:
256,192,180208,1,8,0:0:0:0:
256,192,180302,1,0,0:0:0:0:
256,192,180490,1,8,0:0:0:0:
256,192,180865,1,0,0:0:0:0:
256,192,181240,1,8,0:0:0:0:
256,192,181615,1,8,0:0:0:0:
256,192,181802,1,8,0:0:0:0:
256,192,181896,1,8,0:0:0:0:
256,192,181990,1,0,0:0:0:0:
256,192,182177,1,8,0:0:0:0:
256,192,182271,1,8,0:0:0:0:
256,192,182365,1,8,0:0:0:0:
256,192,182552,1,8,0:0:0:0:
256,192,182646,1,8,0:0:0:0:
256,192,182740,1,0,0:0:0:0:
256,192,182833,1,8,0:0:0:0:
256,192,183021,1,8,0:0:0:0:
256,192,183115,1,8,0:0:0:0:
256,192,183302,1,8,0:0:0:0:
256,192,183396,1,8,0:0:0:0:
256,192,183490,1,8,0:0:0:0:
256,192,183677,1,8,0:0:0:0:
256,192,183865,1,0,0:0:0:0:
256,192,184240,1,8,0:0:0:0:
256,192,184302,1,8,0:0:0:0:
256,192,184365,1,8,0:0:0:0:
256,192,184427,1,8,0:0:0:0:
256,192,184615,1,8,0:0:0:0:
256,192,184802,1,8,0:0:0:0:
256,192,184990,1,0,0:0:0:0:
256,192,185083,1,8,0:0:0:0:
256,192,185177,1,8,0:0:0:0:
256,192,185271,1,8,0:0:0:0:
256,192,185365,1,8,0:0:0:0:
256,192,185552,1,8,0:0:0:0:
256,192,185646,1,8,0:0:0:0:
256,192,185740,1,0,0:0:0:0:
256,192,185833,1,8,0:0:0:0:
256,192,186021,1,8,0:0:0:0:
256,192,186115,1,8,0:0:0:0:
256,192,186302,1,8,0:0:0:0:
256,192,186396,1,8,0:0:0:0:
256,192,186490,1,8,0:0:0:0:
256,192,186677,1,8,0:0:0:0:
256,192,186865,1,0,0:0:0:0:
256,192,187240,1,8,0:0:0:0:
256,192,187615,1,8,0:0:0:0:
256,192,187802,1,8,0:0:0:0:
256,192,187896,1,8,0:0:0:0:
256,192,187990,1,0,0:0:0:0:
256,192,188177,1,8,0:0:0:0:
256,192,188271,1,8,0:0:0:0:
256,192,188365,1,8,0:0:0:0:
256,192,188552,1,8,0:0:0:0:
256,192,188646,1,8,0:0:0:0:
256,192,188740,1,0,0:0:0:0:
256,192,188833,1,8,0:0:0:0:
256,192,189021,1,8,0:0:0:0:
256,192,189115,1,8,0:0:0:0:
256,192,189302,1,8,0:0:0:0:
256,192,189396,1,8,0:0:0:0:
256,192,189490,1,8,0:0:0:0:
256,192,189677,1,8,0:0:0:0:
256,192,189865,1,0,0:0:0:0:
256,192,190052,1,0,0:0:0:0:
256,192,190240,1,8,0:0:0:0:
256,192,190333,1,8,0:0:0:0:
256,192,190427,1,8,0:0:0:0:
256,192,190521,1,8,0:0:0:0:
256,192,190615,1,8,0:0:0:0:
256,192,190802,1,8,0:0:0:0:
256,192,190896,1,8,0:0:0:0:
256,192,190990,1,8,0:0:0:0:
256,192,191177,1,8,0:0:0:0:
256,192,191365,1,0,0:0:0:0:
256,192,191458,1,8,0:0:0:0:
256,192,191552,1,8,0:0:0:0:
256,192,191646,1,8,0:0:0:0:
256,192,191740,1,8,0:0:0:0:
256,192,191927,1,8,0:0:0:0:
256,192,192021,1,8,0:0:0:0:
256,192,192115,1,0,0:0:0:0:
256,192,192208,1,0,0:0:0:0:
256,192,192396,1,0,0:0:0:0:
256,192,192490,1,8,0:0:0:0:
256,192,192865,1,4,0:0:0:0:
256,192,193052,1,0,0:0:0:0:
256,192,193240,1,8,0:0:0:0:
256,192,193427,1,8,0:0:0:0:
256,192,193521,1,8,0:0:0:0:
256,192,193615,1,0,0:0:0:0:
256,192,193802,1,8,0:0:0:0:
256,192,193990,1,0,0:0:0:0:
256,192,194083,1,8,0:0:0:0:
256,192,194177,1,8,0:0:0:0:
256,192,194271,1,8,0:0:0:0:
256,192,194365,1,0,0:0:0:0:
256,192,194552,1,8,0:0:0:0:
256,192,194646,1,8,0:0:0:0:
256,192,194740,1,0,0:0:0:0:
256,192,194833,1,8,0:0:0:0:
256,192,195021,1,8,0:0:0:0:
256,192,195115,1,0,0:0:0:0:
256,192,195302,1,8,0:0:0:0:
256,192,195396,1,8,0:0:0:0:
256,192,195490,1,8,0:0:0:0:
256,192,195677,1,8,0:0:0:0:
256,192,195865,1,0,0:0:0:0:
256,192,196240,1,8,0:0:0:0:
256,192,196427,1,8,0:0:0:0:
256,192,196521,1,8,0:0:0:0:
256,192,196615,1,0,0:0:0:0:
256,192,196802,1,0,0:0:0:0:
256,192,196990,1,8,0:0:0:0:
256,192,197083,1,8,0:0:0:0:
256,192,197177,1,8,0:0:0:0:
256,192,197271,1,8,0:0:0:0:
256,192,197365,1,0,0:0:0:0:
256,192,197552,1,0,0:0:0:0:
256,192,197646,1,0,0:0:0:0:
256,192,197740,1,8,0:0:0:0:
256,192,197833,1,8,0:0:0:0:
256,192,198021,1,8,0:0:0:0:
256,192,198115,1,0,0:0:0:0:
256,192,198302,1,0,0:0:0:0:
256,192,198396,1,8,0:0:0:0:
256,192,198490,1,0,0:0:0:0:
256,192,198677,1,8,0:0:0:0:
256,192,198865,1,0,0:0:0:0:
256,192,199240,1,8,0:0:0:0:
256,192,199427,1,8,0:0:0:0:
256,192,199521,1,8,0:0:0:0:
256,192,199615,1,0,0:0:0:0:
256,192,199802,1,8,0:0:0:0:
256,192,199990,1,0,0:0:0:0:
256,192,200083,1,8,0:0:0:0:
256,192,200177,1,8,0:0:0:0:
256,192,200271,1,8,0:0:0:0:
256,192,200365,1,0,0:0:0:0:
256,192,200552,1,8,0:0:0:0:
256,192,200646,1,8,0:0:0:0:
256,192,200740,1,0,0:0:0:0:
256,192,200833,1,8,0:0:0:0:
256,192,201021,1,8,0:0:0:0:
256,192,201115,1,0,0:0:0:0:
256,192,201302,1,8,0:0:0:0:
256,192,201396,1,8,0:0:0:0:
256,192,201490,1,0,0:0:0:0:
256,192,201677,1,8,0:0:0:0:
256,192,201865,1,0,0:0:0:0:
256,192,202052,1,0,0:0:0:0:
256,192,202240,1,8,0:0:0:0:
256,192,202427,1,8,0:0:0:0:
256,192,202521,1,8,0:0:0:0:
256,192,202615,1,0,0:0:0:0:
256,192,202802,1,0,0:0:0:0:
256,192,202896,1,0,0:0:0:0:
256,192,202990,1,8,0:0:0:0:
256,192,203083,1,8,0:0:0:0:
256,192,203177,1,8,0:0:0:0:
256,192,203271,1,8,0:0:0:0:
256,192,203365,1,0,0:0:0:0:
256,192,203646,1,0,0:0:0:0:
256,192,203927,1,8,0:0:0:0:
256,192,204208,1,8,0:0:0:0:
256,192,204490,1,8,0:0:0:0:
