osu file format v14

[General]
AudioFilename: Abracadabra (feat. BrainDead).ogg
AudioLeadIn: 0
PreviewTime: 156771
Countdown: 0
SampleSet: Normal
StackLeniency: 0.7
Mode: 1
LetterboxInBreaks: 0
WidescreenStoryboard: 0

[Editor]
Bookmarks: 12403,24403,96405,120405,156405,168405
DistanceSpacing: 1.7
BeatDivisor: 4
GridSize: 4
TimelineZoom: 2.4

[Metadata]
Title:Abracadabra (feat. BrainDead)
TitleUnicode:Abracadabra (feat. BrainDead)
Artist:Ido B Zooki
ArtistUnicode:Ido B Zooki
Creator:komasy
Version:Open Sesame
Source:
Tags:Electronic English Ido Ben Dov Zook Algasi Hardstyle Hardcore EDM Drops Genjuro uone yassu-
BeatmapID:3586104
BeatmapSetID:1752410

[Difficulty]
HPDrainRate:6
CircleSize:7
OverallDifficulty:6
ApproachRate:10
SliderMultiplier:1.4
SliderTickRate:1

[Events]
//Background and Video events
0,0,"bg.jpg",0,50
//Break Periods
2,73065,77353
//Storyboard Layer 0 (Background)
//Storyboard Layer 1 (Fail)
//Storyboard Layer 2 (Pass)
//Storyboard Layer 3 (Foreground)
//Storyboard Layer 4 (Overlay)
//Storyboard Sound Samples

[TimingPoints]
865,375,4,1,0,60,1,0
865,-125,4,1,0,60,0,0
11740,-111.111111111111,4,1,0,60,0,0
12771,-100,4,1,0,70,0,0
24841,-100,4,1,0,80,0,0
25122,-99.999041665981,4,1,0,80,0,0
25216,-99.997722355085,4,1,0,80,0,0
25404,-99.992333842123,4,1,0,80,0,0
25591,-99.981781745309,4,1,0,80,0,0
25685,-99.97413142709,4,1,0,80,0,0
25966,-99.938539983155,4,1,0,80,0,0
26341,-99.854439592431,4,1,0,80,0,0
26622,-99.756591652547,4,1,0,80,0,0
26716,-99.716096209317,4,1,0,80,0,0
26904,-99.622752278169,4,1,0,80,0,0
27091,-99.510426110607,4,1,0,80,0,0
27185,-99.44752459336,4,1,0,80,0,0
27466,-99.22480620155,4,1,0,80,0,0
27654,-99.048744824685,4,1,0,80,0,0
27747,-98.951158602132,4,1,0,80,0,0
27841,-98.847262247839,4,1,0,80,0,0
28122,-98.497392569052,4,1,0,80,0,0
28216,-98.366679362803,4,1,0,80,0,0
28404,-98.085356042885,4,1,0,80,0,0
28591,-97.773026901835,4,1,0,80,0,0
28685,-97.607260687094,4,1,0,80,0,0
28966,-97.057588150768,4,1,0,80,0,0
29154,-96.6530149729,4,1,0,80,0,0
29247,-96.437289125906,4,1,0,80,0,0
29341,-96.213183730715,4,1,0,80,0,0
29435,-95.983142652071,4,1,0,80,0,0
29622,-95.492580614328,4,1,0,80,0,0
29716,-95.234376694649,4,1,0,80,0,0
29904,-94.694882132052,4,1,0,80,0,0
30091,-94.117647058824,4,1,0,80,0,0
30185,-93.819137721745,4,1,0,80,0,0
30466,-92.861524143912,4,1,0,80,0,0
30560,-92.528463687144,4,1,0,80,0,0
30654,-92.183171733103,4,1,0,80,0,0
30747,-91.829223226383,4,1,0,80,0,0
30841,-91.466666666667,4,1,0,80,0,0
31029,-90.720048064782,4,1,0,80,0,0
31122,-90.332131282676,4,1,0,80,0,0
31216,-89.935882991581,4,1,0,80,0,0
31404,-89.123190759682,4,1,0,80,0,0
31591,-88.274087180312,4,1,0,80,0,0
31779,-87.398527239597,4,1,0,80,0,0
31872,-86.947061026624,4,1,0,80,0,0
31966,-86.488190217284,4,1,0,80,0,0
32154,-85.553904262145,4,1,0,80,0,0
32341,-84.5869297164,4,1,0,80,0,0
32529,-83.598889368265,4,1,0,80,0,0
32622,-83.092798164432,4,1,0,80,0,0
32716,-82.58064516129,4,1,0,80,0,0
32810,-82.068162551158,4,1,0,80,0,0
32904,-81.544522626873,4,1,0,80,0,0
33091,-80.481008945593,4,1,0,80,0,0
33279,-79.403030251278,4,1,0,80,0,0
33372,-78.854098533024,4,1,0,80,0,0
33466,-78.300725865421,4,1,0,80,0,0
33560,-77.749080492734,4,1,0,80,0,0
33654,-77.187513554071,4,1,0,80,0,0
33841,-76.053215077605,4,1,0,80,0,0
33935,-75.487026366353,4,1,0,80,0,0
34029,-74.911627522197,4,1,0,80,0,0
34122,-74.333308599534,4,1,0,80,0,0
34216,-73.752288800417,4,1,0,80,0,0
34310,-73.175006537188,4,1,0,80,0,0
34404,-72.589263021039,4,1,0,80,0,0
34497,-72.001469475603,4,1,0,80,0,0
34591,-71.411841249187,4,1,0,80,0,0
34685,-70.826889748733,4,1,0,80,0,0
34779,-70.234245383611,4,1,0,80,0,0
34872,-69.640399510498,4,1,0,80,0,0
34966,-69.045559626968,4,1,0,80,0,0
35060,-68.456270629315,4,1,0,80,0,0
35154,-67.860060110921,4,1,0,80,0,0
35247,-67.263460033616,4,1,0,80,0,0
35341,-66.666666666667,4,1,0,70,0,0
35646,-80,4,1,0,80,0,0
36021,-100,4,1,0,80,0,0
36396,-125,4,1,0,60,0,0
36771,-125,4,1,0,90,0,0
36865,-66.666666666667,4,1,0,90,0,1
45865,-66.666666666667,4,1,0,80,0,0
46029,-68.081243617383,4,1,0,80,0,0
46216,-69.565217391304,4,1,0,80,0,0
46310,-70.323488045007,4,1,0,80,0,0
46404,-71.106897369045,4,1,0,80,0,0
46497,-71.907957813998,4,1,0,80,0,0
46591,-72.727272727273,4,1,0,80,0,0
46779,-74.413989830088,4,1,0,80,0,0
46872,-75.291755552767,4,1,0,80,0,0
47060,-77.10100231303,4,1,0,80,0,0
47154,-78.043704474506,4,1,0,80,0,0
47247,-79.009744535159,4,1,0,80,0,0
47341,-80,4,1,0,80,0,0
47529,-82.045672090797,4,1,0,80,0,0
47622,-83.114004709794,4,1,0,80,0,0
47716,-84.210526315789,4,1,0,80,0,0
47763,-84.757734143241,4,1,0,80,0,0
47810,-85.324232081911,4,1,0,80,0,0
47904,-86.480253675411,4,1,0,80,0,0
47997,-87.668030391584,4,1,0,80,0,0
48091,-88.888888888889,4,1,0,80,0,0
48185,-90.130689499775,4,1,0,80,0,0
48372,-92.750038645849,4,1,0,80,0,0
48466,-94.117647058824,4,1,0,80,0,0
48529,-95.041976873119,4,1,0,80,0,0
48591,-96,4,1,0,80,0,0
48654,-96.961861667744,4,1,0,80,0,0
48841,-100,4,1,0,90,0,0
48865,-100,4,1,0,90,0,1
54841,-100,4,1,0,90,0,1
55122,-99.987826973913,4,1,0,90,0,1
55216,-99.971073184842,4,1,0,90,0,1
55404,-99.902698702888,4,1,0,90,0,1
55591,-99.769053117783,4,1,0,90,0,1
55685,-99.672365255281,4,1,0,90,0,1
55872,-99.402270400077,4,1,0,90,0,1
55966,-99.22480620155,4,1,0,90,0,1
56060,-99.018275372686,4,1,0,90,0,1
56154,-98.775988904969,4,1,0,90,0,1
56247,-98.497843616159,4,1,0,90,0,1
56341,-98.181818181818,4,1,0,90,0,1
56435,-97.830038566988,4,1,0,90,0,1
56622,-96.993462100594,4,1,0,90,0,1
56716,-96.509354928791,4,1,0,90,0,1
56810,-95.985660462433,4,1,0,90,0,1
56904,-95.410205137886,4,1,0,90,0,1
56997,-94.787685053742,4,1,0,90,0,1
57091,-94.117647058824,4,1,0,90,0,1
57185,-93.407770263142,4,1,0,90,0,1
57372,-91.83049360247,4,1,0,90,0,1
57466,-90.97130823901,4,1,0,90,0,1
57560,-90.075935022074,4,1,0,90,0,1
57654,-89.126145071155,4,1,0,90,0,1
57747,-88.132592908022,4,1,0,90,0,1
57841,-87.096774193548,4,1,0,90,0,1
58029,-84.917425702316,4,1,0,90,0,1
58122,-83.766206969974,4,1,0,90,0,1
58216,-82.58064516129,4,1,0,90,0,1
58404,-80.129578976625,4,1,0,90,0,1
58497,-78.856053071971,4,1,0,90,0,1
58591,-77.558348294434,4,1,0,90,0,1
58685,-76.253341943779,4,1,0,90,0,1
58779,-74.915718905835,4,1,0,90,0,1
58872,-73.562188640214,4,1,0,90,0,1
58966,-72.195529559223,4,1,0,90,0,1
59060,-70.833187263058,4,1,0,90,0,1
59154,-69.448546331114,4,1,0,90,0,1
59247,-68.058850017872,4,1,0,90,0,1
59341,-66.666666666667,4,1,0,60,0,1
59365,-67.096081588835,4,1,0,60,0,0
59529,-70.185289163391,4,1,0,60,0,0
59622,-72.066878062842,4,1,0,60,0,0
59716,-74.074074074074,4,1,0,60,0,0
59904,-78.443677439598,4,1,0,60,0,0
59997,-80.801551389787,4,1,0,60,0,0
60091,-83.333333333333,4,1,0,60,0,0
60185,-86.028905712319,4,1,0,60,0,0
60279,-88.904694167852,4,1,0,60,0,0
60466,-95.238095238095,4,1,0,60,0,0
60841,-111.111111111111,4,1,0,80,0,0
61216,-133.333333333333,4,1,0,80,0,0
61240,-133.333333333333,4,1,0,80,0,1
63865,-133.333333333333,4,1,0,80,0,0
64240,-133.333333333333,4,1,0,80,0,1
66865,-133.333333333333,4,1,0,80,0,0
67240,-133.333333333333,4,1,0,80,0,1
69865,-133.333333333333,4,1,0,80,0,0
70216,-133.333333333333,4,1,0,80,0,0
70240,-133.333333333333,4,1,0,80,0,1
70310,-127.032520325203,4,1,0,80,0,1
70404,-121.241513094083,4,1,0,80,0,1
70497,-115.95547309833,4,1,0,80,0,1
70591,-111.111111111111,4,1,0,80,0,1
70685,-106.700810926163,4,1,0,80,0,1
70779,-102.585145670907,4,1,0,80,0,1
70872,-98.775187672857,4,1,0,80,0,1
70966,-95.238095238095,4,1,0,80,0,1
71060,-91.979396615158,4,1,0,80,0,1
71154,-88.904694167852,4,1,0,80,0,1
71247,-86.028905712319,4,1,0,80,0,1
71341,-83.333333333333,4,1,0,80,0,1
71435,-80.827675396056,4,1,0,80,0,1
71529,-78.443677439598,4,1,0,80,0,1
71622,-76.196281621457,4,1,0,80,0,1
71716,-74.074074074074,4,1,0,80,0,1
71810,-72.087658592849,4,1,0,80,0,1
71904,-70.185289163391,4,1,0,80,0,1
71997,-68.380743982495,4,1,0,80,0,1
72091,-66.666666666667,4,1,0,40,0,1
72771,-66.666666666667,4,1,0,60,0,1
72865,-125,4,1,0,60,0,0
72958,-125,4,1,0,20,0,0
78771,-125,4,1,0,30,0,0
81771,-125,4,1,0,40,0,0
83271,-125,4,1,0,50,0,0
83833,-111.111111111111,4,1,0,60,0,0
84771,-111.111111111111,4,1,0,70,0,0
93841,-111.111111111111,4,1,0,70,0,0
94122,-109.966643451486,4,1,0,70,0,0
94404,-108.845511936724,4,1,0,70,0,0
94591,-108.108108108108,4,1,0,70,0,0
94872,-107.024365880632,4,1,0,70,0,0
95154,-105.962136196666,4,1,0,70,0,0
95341,-105.263157894737,4,1,0,70,0,0
95622,-104.235433098225,4,1,0,70,0,0
95716,-103.896103896104,4,1,0,70,0,0
95904,-103.22758241002,4,1,0,70,0,0
96091,-102.564102564103,4,1,0,70,0,0
96185,-102.239034863511,4,1,0,70,0,0
96279,-101.912559024357,4,1,0,70,0,0
96466,-101.26582278481,4,1,0,70,0,0
96654,-100.630618542869,4,1,0,60,0,0
96841,-100,4,1,0,80,0,0
107341,-100,4,1,0,80,0,0
107529,-97.0873786407767,4,1,0,80,0,0
107716,-94.117647058824,4,1,0,80,0,0
107904,-91.435537945748,4,1,0,80,0,0
108091,-88.888888888889,4,1,0,80,0,0
108466,-84.210526315789,4,1,0,80,0,0
108654,-82.056892778993,4,1,0,80,0,0
108841,-80,4,1,0,90,0,0
108865,-80,4,1,0,90,0,1
119271,-80,4,1,0,80,0,1
119365,-80,4,1,0,80,0,0
120771,-80,4,1,0,25,0,0
122271,-133.333333333333,4,1,0,15,0,0
131880,-111.111111111111,4,1,0,60,0,0
132771,-111.111111111111,4,1,0,70,0,0
143341,-111.111111111111,4,1,0,80,0,0
143622,-108.845511936724,4,1,0,80,0,0
143904,-106.670459394112,4,1,0,80,0,0
144185,-104.580631667015,4,1,0,80,0,0
144279,-103.899702154187,4,1,0,80,0,0
144372,-103.22758241002,4,1,0,80,0,0
144466,-102.564102564103,4,1,0,80,0,0
144560,-101.916021198532,4,1,0,80,0,0
144654,-101.26924115582,4,1,0,80,0,0
144841,-100,4,1,0,80,0,0
145122,-99.999041665981,4,1,0,80,0,0
145216,-99.997722355085,4,1,0,80,0,0
145404,-99.992333842123,4,1,0,80,0,0
145591,-99.981781745309,4,1,0,80,0,0
145685,-99.97413142709,4,1,0,80,0,0
145966,-99.938539983155,4,1,0,80,0,0
146341,-99.854439592431,4,1,0,80,0,0
146622,-99.756591652547,4,1,0,80,0,0
146716,-99.716096209317,4,1,0,80,0,0
146904,-99.622752278169,4,1,0,80,0,0
147091,-99.510426110607,4,1,0,80,0,0
147185,-99.44752459336,4,1,0,80,0,0
147466,-99.22480620155,4,1,0,80,0,0
147654,-99.048744824685,4,1,0,80,0,0
147747,-98.951158602132,4,1,0,80,0,0
147841,-98.847262247839,4,1,0,80,0,0
148122,-98.497392569052,4,1,0,80,0,0
148216,-98.366679362803,4,1,0,80,0,0
148404,-98.085356042885,4,1,0,80,0,0
148591,-97.773026901835,4,1,0,80,0,0
148685,-97.607260687094,4,1,0,80,0,0
148966,-97.057588150768,4,1,0,80,0,0
149154,-96.6530149729,4,1,0,80,0,0
149247,-96.437289125906,4,1,0,80,0,0
149341,-96.213183730715,4,1,0,80,0,0
149435,-95.983142652071,4,1,0,80,0,0
149622,-95.492580614328,4,1,0,80,0,0
149716,-95.234376694649,4,1,0,80,0,0
149904,-94.694882132052,4,1,0,80,0,0
150091,-94.117647058824,4,1,0,80,0,0
150185,-93.819137721745,4,1,0,80,0,0
150466,-92.861524143912,4,1,0,80,0,0
150841,-91.466666666667,4,1,0,80,0,0
151029,-90.720048064782,4,1,0,80,0,0
151122,-90.332131282676,4,1,0,80,0,0
151216,-89.935882991581,4,1,0,80,0,0
151404,-89.123190759682,4,1,0,80,0,0
151591,-88.274087180312,4,1,0,80,0,0
151779,-87.398527239597,4,1,0,80,0,0
151872,-86.947061026624,4,1,0,80,0,0
151966,-86.488190217284,4,1,0,80,0,0
152154,-85.553904262145,4,1,0,80,0,0
152341,-84.5869297164,4,1,0,80,0,0
152529,-83.598889368265,4,1,0,80,0,0
152622,-83.092798164432,4,1,0,80,0,0
152716,-82.58064516129,4,1,0,80,0,0
152810,-82.068162551158,4,1,0,80,0,0
152904,-81.544522626873,4,1,0,80,0,0
153091,-80.481008945593,4,1,0,80,0,0
153279,-79.403030251278,4,1,0,80,0,0
153372,-78.854098533024,4,1,0,80,0,0
153466,-78.300725865421,4,1,0,80,0,0
153560,-77.749080492734,4,1,0,80,0,0
153654,-77.187513554071,4,1,0,80,0,0
153841,-76.053215077605,4,1,0,80,0,0
153935,-75.487026366353,4,1,0,80,0,0
154029,-74.911627522197,4,1,0,80,0,0
154122,-74.333308599534,4,1,0,80,0,0
154216,-73.752288800417,4,1,0,80,0,0
154310,-73.175006537188,4,1,0,80,0,0
154404,-72.589263021039,4,1,0,80,0,0
154497,-72.001469475603,4,1,0,80,0,0
154591,-71.411841249187,4,1,0,80,0,0
154685,-70.826889748733,4,1,0,80,0,0
154779,-70.234245383611,4,1,0,80,0,0
154872,-69.640399510498,4,1,0,80,0,0
154966,-69.045559626968,4,1,0,80,0,0
155060,-68.456270629315,4,1,0,80,0,0
155154,-67.860060110921,4,1,0,80,0,0
155247,-67.263460033616,4,1,0,80,0,0
155341,-66.666666666667,4,1,0,80,0,0
155646,-76.923076923077,4,1,0,70,0,0
156021,-90.909090909091,4,1,0,70,0,0
156396,-111.111111111111,4,1,0,60,0,0
156771,-111.111111111111,4,1,0,90,0,0
156865,-66.666666666667,4,1,0,90,0,1
165865,-66.666666666667,4,1,0,90,0,0
166029,-68.081243617383,4,1,0,90,0,0
166216,-69.565217391304,4,1,0,90,0,0
166404,-71.106897369045,4,1,0,90,0,0
166497,-71.907957813998,4,1,0,90,0,0
166591,-72.727272727273,4,1,0,90,0,0
166779,-74.413989830088,4,1,0,90,0,0
166872,-75.291755552767,4,1,0,90,0,0
166966,-76.190476190476,4,1,0,90,0,0
167060,-77.10100231303,4,1,0,90,0,0
167154,-78.043704474506,4,1,0,90,0,0
167247,-79.009744535159,4,1,0,90,0,0
167341,-80,4,1,0,90,0,0
167529,-82.045672090797,4,1,0,90,0,0
167716,-84.210526315789,4,1,0,90,0,0
167779,-84.949738071641,4,1,0,90,0,0
167841,-85.714285714286,4,1,0,90,0,0
167904,-86.480253675411,4,1,0,90,0,0
167997,-87.668030391584,4,1,0,90,0,0
168091,-88.888888888889,4,1,0,90,0,0
168185,-90.130689499775,4,1,0,90,0,0
168279,-91.421605972878,4,1,0,90,0,0
168466,-94.117647058824,4,1,0,90,0,0
168529,-95.041976873119,4,1,0,90,0,0
168591,-96,4,1,0,90,0,0
168654,-96.961861667744,4,1,0,90,0,0
168716,-97.959183673469,4,1,0,90,0,0
168779,-98.960910440376,4,1,0,90,0,0
168841,-100,4,1,0,90,0,0
168865,-100,4,1,0,90,0,1
174841,-100,4,1,0,90,0,1
175122,-96.972309018425,4,1,0,90,0,1
175216,-96,4,1,0,90,0,1
175404,-94.122568500314,4,1,0,90,0,1
175591,-92.307692307692,4,1,0,90,0,1
175685,-91.435537945748,4,1,0,90,0,1
175872,-89.721862227096,4,1,0,90,0,1
175966,-88.888888888889,4,1,0,90,0,1
176060,-88.079859072225,4,1,0,90,0,1
176154,-87.276958882855,4,1,0,90,0,1
176247,-86.488564289833,4,1,0,90,0,1
176341,-85.714285714286,4,1,0,90,0,1
176435,-84.961767204758,4,1,0,90,0,1
176622,-83.480196642241,4,1,0,90,0,1
176716,-82.758620689655,4,1,0,90,0,1
176810,-82.056892778993,4,1,0,90,0,1
176904,-81.359609473875,4,1,0,90,0,1
176997,-80.674076730011,4,1,0,90,0,1
177091,-80,4,1,0,90,0,1
177185,-79.34408886538,4,1,0,90,0,1
177372,-78.050472638973,4,1,0,90,0,1
177466,-77.41935483871,4,1,0,90,0,1
177560,-76.804915514593,4,1,0,90,0,1
177654,-76.193701320691,4,1,0,90,0,1
177841,-75,4,1,0,90,0,1
178029,-73.849183556248,4,1,0,90,0,1
178122,-73.283934533018,4,1,0,90,0,1
178216,-72.727272727273,4,1,0,90,0,1
178404,-71.644642572839,4,1,0,90,0,1
178497,-71.112515802781,4,1,0,90,0,1
178591,-70.588235294118,4,1,0,90,0,1
178685,-70.077084793273,4,1,0,90,0,1
178779,-69.567906006029,4,1,0,90,0,1
178872,-69.066073210038,4,1,0,90,0,1
178966,-68.571428571429,4,1,0,90,0,1
179060,-68.088969586927,4,1,0,90,0,1
179154,-67.608173076923,4,1,0,90,0,1
179247,-67.134119051171,4,1,0,90,0,1
179341,-66.666666666667,4,1,0,60,0,1
179365,-66.666666666667,4,1,0,60,0,0
179529,-70.165590794274,4,1,0,60,0,0
179622,-72.066878062842,4,1,0,60,0,0
179716,-74.074074074074,4,1,0,60,0,0
179904,-78.419071518193,4,1,0,60,0,0
179997,-80.801551389787,4,1,0,60,0,0
180091,-83.333333333333,4,1,0,60,0,0
180185,-85.999312005504,4,1,0,60,0,0
180279,-88.873089228582,4,1,0,60,0,0
180466,-95.238095238095,4,1,0,60,0,0
180841,-111.111111111111,4,1,0,80,0,0
181240,-120.00000048,4,1,0,80,0,0
181521,-133.333333333333,4,1,0,80,0,0
181615,-133.333333333333,4,1,0,80,0,1
183865,-133.333333333333,4,1,0,80,0,0
184240,-133.333333333333,4,1,0,80,0,1
186865,-133.333333333333,4,1,0,80,0,0
187615,-133.333333333333,4,1,0,80,0,1
189865,-133.333333333333,4,1,0,80,0,0
190216,-133.333333333333,4,1,0,80,0,0
190240,-133.333333333333,4,1,0,80,0,1
190310,-127.032520325203,4,1,0,80,0,1
190404,-121.241513094083,4,1,0,80,0,1
190497,-115.95547309833,4,1,0,80,0,1
190591,-111.111111111111,4,1,0,80,0,1
190685,-106.700810926163,4,1,0,80,0,1
190779,-102.585145670907,4,1,0,80,0,1
190872,-98.775187672857,4,1,0,80,0,1
190966,-95.238095238095,4,1,0,80,0,1
191060,-91.979396615158,4,1,0,80,0,1
191154,-88.904694167852,4,1,0,80,0,1
191247,-86.028905712319,4,1,0,80,0,1
191341,-83.333333333333,4,1,0,80,0,1
191435,-80.827675396056,4,1,0,80,0,1
191529,-78.443677439598,4,1,0,80,0,1
191622,-76.196281621457,4,1,0,80,0,1
191716,-74.074074074074,4,1,0,80,0,1
191810,-72.087658592849,4,1,0,80,0,1
191904,-70.185289163391,4,1,0,80,0,1
191997,-68.380743982495,4,1,0,80,0,1
192091,-66.666666666667,4,1,0,80,0,1
192115,-66.666666666667,4,1,0,80,0,0
192818,-66.666666666667,4,1,0,90,0,0
192865,-66.666666666667,4,1,0,90,0,1
203341,-66.666666666667,4,1,0,60,0,1
203365,-66.666666666667,4,1,0,60,0,0
203622,-72.721396250808,4,1,0,60,0,0
203716,-75,4,1,0,60,0,0
203904,-79.985780305723,4,1,0,60,0,0
203997,-82.75101140125,4,1,0,60,0,0
204185,-88.862559241706,4,1,0,60,0,0
204279,-92.288761279737,4,1,0,60,0,0
204372,-95.98976109215,4,1,0,60,0,0
204466,-100,4,1,0,60,0,0

[HitObjects]
352,96,865,5,8,0:0:0:0:
352,96,1240,5,8,0:0:0:0:
352,96,1615,5,8,0:0:0:0:
352,96,1990,5,8,0:0:0:0:
352,96,2365,5,8,0:0:0:0:
352,96,2740,5,8,0:0:0:0:
352,96,3115,5,8,0:0:0:0:
352,96,3490,5,8,0:0:0:0:
352,96,3677,5,8,0:0:0:0:
352,96,3865,5,8,0:0:0:0:
352,96,4240,5,8,0:0:0:0:
352,96,4615,5,8,0:0:0:0:
352,96,4990,5,8,0:0:0:0:
352,96,5365,5,8,0:0:0:0:
352,96,5552,5,8,0:0:0:0:
352,96,5740,5,8,0:0:0:0:
352,96,6115,5,8,0:0:0:0:
352,96,6490,5,8,0:0:0:0:
352,96,6677,5,8,0:0:0:0:
352,96,6865,5,8,0:0:0:0:
352,96,7240,5,8,0:0:0:0:
352,96,7615,5,8,0:0:0:0:
352,96,7802,5,8,0:0:0:0:
352,96,7865,5,8,0:0:0:0:
352,96,7927,5,8,0:0:0:0:
352,96,7990,5,8,0:0:0:0:
352,96,8177,5,8,0:0:0:0:
352,96,8365,5,8,0:0:0:0:
352,96,8740,5,8,0:0:0:0:
352,96,9115,5,8,0:0:0:0:
352,96,9490,5,8,0:0:0:0:
352,96,9865,5,8,0:0:0:0:
352,96,10146,5,8,0:0:0:0:
352,96,10240,5,8,0:0:0:0:
352,96,10427,5,8,0:0:0:0:
352,96,10615,5,8,0:0:0:0:
352,96,10896,5,8,0:0:0:0:
352,96,10990,5,8,0:0:0:0:
352,96,11177,5,8,0:0:0:0:
352,96,11365,5,8,0:0:0:0:
160,96,11904,5,0,0:0:0:0:
160,96,11950,5,0,0:0:0:0:
160,96,11997,5,0,0:0:0:0:
352,96,12115,5,8,0:0:0:0:
160,96,12240,5,0,0:0:0:0:
160,96,12365,5,0,0:0:0:0:
352,96,12490,5,8,0:0:0:0:
352,96,12865,5,8,0:0:0:0:
160,96,13146,5,0,0:0:0:0:
352,96,13240,5,8,0:0:0:0:
160,96,13427,5,0,0:0:0:0:
352,96,13615,5,8,0:0:0:0:
160,96,13708,5,0,0:0:0:0:
160,96,13896,5,0,0:0:0:0:
352,96,13990,5,8,0:0:0:0:
160,96,14177,5,0,0:0:0:0:
352,96,14365,5,8,0:0:0:0:
160,96,14646,5,0,0:0:0:0:
352,96,14740,5,8,0:0:0:0:
160,96,14927,5,0,0:0:0:0:
352,96,15115,5,8,0:0:0:0:
160,96,15396,5,0,0:0:0:0:
352,96,15490,5,8,0:0:0:0:
160,96,15677,5,0,0:0:0:0:
160,96,15771,5,0,0:0:0:0:
352,96,15865,5,8,0:0:0:0:
160,96,16146,5,0,0:0:0:0:
352,96,16240,5,8,0:0:0:0:
160,96,16427,5,0,0:0:0:0:
352,96,16615,5,8,0:0:0:0:
160,96,16708,5,0,0:0:0:0:
160,96,16896,5,0,0:0:0:0:
352,96,16990,5,8,0:0:0:0:
160,96,17177,5,0,0:0:0:0:
352,96,17365,5,8,0:0:0:0:
160,96,17552,5,0,0:0:0:0:
352,96,17646,5,8,0:0:0:0:
352,96,17740,5,8,0:0:0:0:
160,96,17927,5,0,0:0:0:0:
352,96,18115,5,8,0:0:0:0:
160,96,18208,5,0,0:0:0:0:
160,96,18396,5,0,0:0:0:0:
352,96,18490,5,8,0:0:0:0:
160,96,18677,5,0,0:0:0:0:
160,96,18771,5,0,0:0:0:0:
352,96,18865,5,8,0:0:0:0:
160,96,19146,5,0,0:0:0:0:
352,96,19240,5,8,0:0:0:0:
160,96,19427,5,0,0:0:0:0:
352,96,19615,5,8,0:0:0:0:
160,96,19708,5,0,0:0:0:0:
160,96,19896,5,0,0:0:0:0:
352,96,19990,5,8,0:0:0:0:
160,96,20177,5,0,0:0:0:0:
352,96,20365,5,8,0:0:0:0:
160,96,20552,5,0,0:0:0:0:
160,96,20646,5,0,0:0:0:0:
352,96,20740,5,8,0:0:0:0:
160,96,20927,5,0,0:0:0:0:
352,96,21115,5,8,0:0:0:0:
160,96,21396,5,0,0:0:0:0:
352,96,21490,5,8,0:0:0:0:
160,96,21677,5,0,0:0:0:0:
160,96,21771,5,0,0:0:0:0:
352,96,21865,5,8,0:0:0:0:
160,96,22146,5,0,0:0:0:0:
352,96,22240,5,8,0:0:0:0:
160,96,22427,5,0,0:0:0:0:
352,96,22615,5,8,0:0:0:0:
160,96,22708,5,0,0:0:0:0:
160,96,22896,5,0,0:0:0:0:
352,96,22990,5,8,0:0:0:0:
160,96,23177,5,0,0:0:0:0:
352,96,23365,5,8,0:0:0:0:
352,96,23646,5,8,0:0:0:0:
352,96,23927,5,8,0:0:0:0:
352,96,24208,5,8,0:0:0:0:
352,96,24490,5,8,0:0:0:0:
160,288,24865,5,4,0:0:0:0:
352,96,25146,5,8,0:0:0:0:
160,96,25240,5,0,0:0:0:0:
352,96,25427,5,8,0:0:0:0:
160,96,25615,5,0,0:0:0:0:
352,96,25708,5,8,0:0:0:0:
160,96,25990,5,0,0:0:0:0:
160,96,26365,5,0,0:0:0:0:
352,96,26646,5,8,0:0:0:0:
160,96,26740,5,0,0:0:0:0:
352,96,26927,5,8,0:0:0:0:
160,96,27115,5,0,0:0:0:0:
352,96,27208,5,8,0:0:0:0:
160,96,27490,5,0,0:0:0:0:
352,96,27677,5,8,0:0:0:0:
352,96,27771,5,8,0:0:0:0:
160,96,27865,5,0,0:0:0:0:
352,96,28146,5,8,0:0:0:0:
160,96,28240,5,0,0:0:0:0:
352,96,28427,5,8,0:0:0:0:
160,96,28615,5,0,0:0:0:0:
352,96,28708,5,8,0:0:0:0:
160,96,28990,5,0,0:0:0:0:
352,96,29177,5,8,0:0:0:0:
352,96,29271,5,8,0:0:0:0:
160,96,29365,5,0,0:0:0:0:
352,96,29458,5,8,0:0:0:0:
352,96,29646,5,8,0:0:0:0:
160,96,29740,5,0,0:0:0:0:
352,96,29927,5,8,0:0:0:0:
160,96,30115,5,0,0:0:0:0:
352,96,30208,5,8,0:0:0:0:
160,96,30490,5,0,0:0:0:0:
352,96,30583,5,8,0:0:0:0:
352,96,30677,5,8,0:0:0:0:
352,96,30771,5,8,0:0:0:0:
160,96,30865,5,0,0:0:0:0:
160,96,31052,5,0,0:0:0:0:
352,96,31146,5,8,0:0:0:0:
160,96,31240,5,0,0:0:0:0:
352,96,31427,5,8,0:0:0:0:
160,96,31615,5,0,0:0:0:0:
160,96,31802,5,0,0:0:0:0:
352,96,31896,5,8,0:0:0:0:
160,96,31990,5,0,0:0:0:0:
352,96,32177,5,8,0:0:0:0:
160,96,32365,5,0,0:0:0:0:
160,96,32552,5,0,0:0:0:0:
352,96,32646,5,8,0:0:0:0:
160,96,32740,5,0,0:0:0:0:
160,96,32833,5,0,0:0:0:0:
352,96,32927,5,8,0:0:0:0:
160,96,33115,5,0,0:0:0:0:
160,96,33302,5,0,0:0:0:0:
352,96,33396,5,8,0:0:0:0:
160,96,33490,5,0,0:0:0:0:
160,96,33583,5,0,0:0:0:0:
352,96,33677,5,8,0:0:0:0:
160,96,33865,5,0,0:0:0:0:
352,96,33958,5,8,0:0:0:0:
160,96,34052,5,0,0:0:0:0:
160,96,34146,5,0,0:0:0:0:
352,96,34240,5,8,0:0:0:0:
160,96,34333,5,0,0:0:0:0:
160,96,34427,5,0,0:0:0:0:
160,96,34521,5,0,0:0:0:0:
352,96,34615,5,8,0:0:0:0:
160,96,34708,5,0,0:0:0:0:
160,96,34802,5,0,0:0:0:0:
352,96,34896,5,8,0:0:0:0:
160,96,34990,5,0,0:0:0:0:
352,96,35083,5,8,0:0:0:0:
352,96,35177,5,8,0:0:0:0:
352,96,35271,5,8,0:0:0:0:
160,288,35365,5,4,0:0:0:0:
160,288,35740,5,4,0:0:0:0:
160,288,36115,5,4,0:0:0:0:
352,96,36490,5,8,0:0:0:0:
160,96,36865,5,0,0:0:0:0:
352,96,36927,5,8,0:0:0:0:
352,96,36990,5,8,0:0:0:0:
352,96,37052,5,8,0:0:0:0:
352,96,37115,5,8,0:0:0:0:
352,96,37177,5,8,0:0:0:0:
160,96,37240,5,0,0:0:0:0:
160,96,37333,5,0,0:0:0:0:
160,96,37427,5,0,0:0:0:0:
160,96,37521,5,0,0:0:0:0:
352,96,37615,5,8,0:0:0:0:
160,96,37990,5,0,0:0:0:0:
160,96,38083,5,0,0:0:0:0:
160,96,38177,5,0,0:0:0:0:
160,96,38271,5,0,0:0:0:0:
352,96,38365,5,8,0:0:0:0:
160,96,38740,5,0,0:0:0:0:
160,96,38833,5,0,0:0:0:0:
160,96,38927,5,0,0:0:0:0:
160,96,39021,5,0,0:0:0:0:
352,96,39115,5,8,0:0:0:0:
160,96,39302,5,0,0:0:0:0:
352,96,39396,5,8,0:0:0:0:
160,96,39490,5,0,0:0:0:0:
160,96,39583,5,0,0:0:0:0:
352,96,39677,5,8,0:0:0:0:
160,96,39865,5,0,0:0:0:0:
352,96,39927,5,8,0:0:0:0:
352,96,39990,5,8,0:0:0:0:
352,96,40052,5,8,0:0:0:0:
352,96,40115,5,8,0:0:0:0:
352,96,40177,5,8,0:0:0:0:
160,96,40240,5,0,0:0:0:0:
160,96,40333,5,0,0:0:0:0:
160,96,40427,5,0,0:0:0:0:
160,96,40521,5,0,0:0:0:0:
352,96,40615,5,8,0:0:0:0:
160,96,40990,5,0,0:0:0:0:
160,96,41083,5,0,0:0:0:0:
160,96,41177,5,0,0:0:0:0:
160,96,41271,5,0,0:0:0:0:
352,96,41365,5,8,0:0:0:0:
160,96,41552,5,0,0:0:0:0:
352,96,41646,5,8,0:0:0:0:
160,96,41740,5,0,0:0:0:0:
160,96,41833,5,0,0:0:0:0:
160,96,41927,5,0,0:0:0:0:
160,96,42021,5,0,0:0:0:0:
352,96,42115,5,8,0:0:0:0:
352,96,42302,5,8,0:0:0:0:
352,96,42396,5,8,0:0:0:0:
160,96,42490,5,0,0:0:0:0:
352,96,42583,5,8,0:0:0:0:
352,96,42677,5,8,0:0:0:0:
352,96,42771,5,8,0:0:0:0:
160,96,42865,5,0,0:0:0:0:
160,96,42927,5,0,0:0:0:0:
160,96,42990,5,0,0:0:0:0:
160,96,43052,5,0,0:0:0:0:
352,96,43146,5,8,0:0:0:0:
160,96,43240,5,0,0:0:0:0:
352,96,43333,5,8,0:0:0:0:
160,96,43427,5,0,0:0:0:0:
160,96,43521,5,0,0:0:0:0:
352,96,43615,5,8,0:0:0:0:
352,96,43896,5,8,0:0:0:0:
160,96,43990,5,0,0:0:0:0:
352,96,44083,5,8,0:0:0:0:
160,96,44177,5,0,0:0:0:0:
160,96,44271,5,0,0:0:0:0:
352,96,44365,5,8,0:0:0:0:
160,96,44552,5,0,0:0:0:0:
352,96,44646,5,8,0:0:0:0:
160,96,44740,5,0,0:0:0:0:
352,96,44833,5,8,0:0:0:0:
160,96,44927,5,0,0:0:0:0:
160,96,45021,5,0,0:0:0:0:
352,96,45115,5,8,0:0:0:0:
160,96,45208,5,0,0:0:0:0:
160,96,45302,5,0,0:0:0:0:
352,96,45396,5,8,0:0:0:0:
160,96,45490,5,0,0:0:0:0:
160,96,45583,5,0,0:0:0:0:
352,96,45677,5,8,0:0:0:0:
352,96,45771,5,8,0:0:0:0:
160,96,45865,5,0,0:0:0:0:
160,96,46052,5,0,0:0:0:0:
352,96,46240,5,8,0:0:0:0:
160,96,46333,5,0,0:0:0:0:
160,96,46427,5,0,0:0:0:0:
160,96,46521,5,0,0:0:0:0:
352,96,46615,5,8,0:0:0:0:
160,96,46802,5,0,0:0:0:0:
352,96,46896,5,8,0:0:0:0:
352,96,47083,5,8,0:0:0:0:
160,96,47177,5,0,0:0:0:0:
160,96,47271,5,0,0:0:0:0:
160,96,47365,5,8,0:0:0:0:
160,96,47552,5,0,0:0:0:0:
352,96,47646,5,8,0:0:0:0:
160,96,47740,5,0,0:0:0:0:
160,96,47786,5,0,0:0:0:0:
160,96,47833,5,0,0:0:0:0:
352,96,47927,5,8,0:0:0:0:
160,96,48021,5,0,0:0:0:0:
352,96,48115,5,8,0:0:0:0:
160,96,48208,5,0,0:0:0:0:
160,96,48396,5,0,0:0:0:0:
352,96,48490,5,8,0:0:0:0:
352,96,48552,5,8,0:0:0:0:
352,96,48615,5,8,0:0:0:0:
352,96,48677,5,8,0:0:0:0:
160,288,48865,5,4,0:0:0:0:
352,96,49146,5,8,0:0:0:0:
160,96,49240,5,0,0:0:0:0:
352,96,49427,5,8,0:0:0:0:
160,96,49615,5,0,0:0:0:0:
160,96,49708,5,0,0:0:0:0:
352,96,49896,5,8,0:0:0:0:
160,96,49990,5,0,0:0:0:0:
352,96,50177,5,8,0:0:0:0:
160,96,50365,5,0,0:0:0:0:
160,96,50458,5,0,0:0:0:0:
352,96,50646,5,8,0:0:0:0:
160,96,50740,5,0,0:0:0:0:
352,96,50927,5,8,0:0:0:0:
160,96,51115,5,0,0:0:0:0:
160,96,51208,5,0,0:0:0:0:
352,96,51396,5,8,0:0:0:0:
160,96,51490,5,0,0:0:0:0:
352,96,51677,5,8,0:0:0:0:
160,288,51865,5,4,0:0:0:0:
352,96,52146,5,8,0:0:0:0:
160,96,52240,5,0,0:0:0:0:
352,96,52427,5,8,0:0:0:0:
160,96,52615,5,0,0:0:0:0:
160,96,52708,5,0,0:0:0:0:
352,96,52896,5,8,0:0:0:0:
160,96,52990,5,0,0:0:0:0:
160,96,53083,5,0,0:0:0:0:
352,96,53177,5,8,0:0:0:0:
160,96,53365,5,0,0:0:0:0:
160,96,53458,5,0,0:0:0:0:
352,96,53646,5,8,0:0:0:0:
160,96,53740,5,0,0:0:0:0:
160,96,53833,5,0,0:0:0:0:
352,96,53927,5,8,0:0:0:0:
160,96,54115,5,0,0:0:0:0:
160,96,54208,5,0,0:0:0:0:
352,96,54396,5,8,0:0:0:0:
160,96,54490,5,0,0:0:0:0:
160,96,54583,5,0,0:0:0:0:
352,96,54677,5,8,0:0:0:0:
160,288,54865,5,4,0:0:0:0:
352,96,55146,5,8,0:0:0:0:
160,96,55240,5,0,0:0:0:0:
352,96,55427,5,8,0:0:0:0:
160,96,55615,5,0,0:0:0:0:
352,96,55708,5,8,0:0:0:0:
352,96,55896,5,8,0:0:0:0:
160,96,55990,5,0,0:0:0:0:
160,96,56083,5,0,0:0:0:0:
352,96,56177,5,8,0:0:0:0:
352,96,56271,5,8,0:0:0:0:
160,96,56365,5,0,0:0:0:0:
352,96,56458,5,8,0:0:0:0:
352,96,56646,5,8,0:0:0:0:
160,96,56740,5,0,0:0:0:0:
160,96,56833,5,0,0:0:0:0:
352,96,56927,5,8,0:0:0:0:
352,96,57021,5,8,0:0:0:0:
160,96,57115,5,0,0:0:0:0:
352,96,57208,5,8,0:0:0:0:
352,96,57396,5,8,0:0:0:0:
160,96,57490,5,0,0:0:0:0:
160,96,57583,5,0,0:0:0:0:
352,96,57677,5,8,0:0:0:0:
352,96,57771,5,8,0:0:0:0:
160,96,57865,5,0,0:0:0:0:
160,96,58052,5,0,0:0:0:0:
352,96,58146,5,8,0:0:0:0:
160,96,58240,5,0,0:0:0:0:
352,96,58427,5,8,0:0:0:0:
352,96,58521,5,8,0:0:0:0:
160,96,58615,5,0,0:0:0:0:
352,96,58708,5,8,0:0:0:0:
352,96,58802,5,8,0:0:0:0:
352,96,58896,5,8,0:0:0:0:
160,96,58990,5,0,0:0:0:0:
352,96,59083,5,8,0:0:0:0:
352,96,59177,5,8,0:0:0:0:
352,96,59271,5,8,0:0:0:0:
160,96,59365,5,0,0:0:0:0:
160,96,59552,5,0,0:0:0:0:
160,96,59646,5,0,0:0:0:0:
352,96,59740,5,8,0:0:0:0:
352,96,59927,5,8,0:0:0:0:
352,96,60021,5,8,0:0:0:0:
352,96,60115,5,8,0:0:0:0:
352,96,60208,5,8,0:0:0:0:
160,96,60302,5,0,0:0:0:0:
352,96,60490,5,8,0:0:0:0:
352,96,60865,5,8,0:0:0:0:
352,96,60911,5,8,0:0:0:0:
160,96,61240,5,0,0:0:0:0:
160,96,61333,5,0,0:0:0:0:
160,96,61427,5,0,0:0:0:0:
160,96,61521,5,0,0:0:0:0:
352,96,61615,5,8,0:0:0:0:
352,96,61708,5,8,0:0:0:0:
352,96,61802,5,8,0:0:0:0:
352,96,61896,5,8,0:0:0:0:
160,96,61990,5,0,0:0:0:0:
352,96,62083,5,8,0:0:0:0:
352,96,62177,5,8,0:0:0:0:
352,96,62271,5,8,0:0:0:0:
352,96,62365,5,8,0:0:0:0:
352,96,62458,5,8,0:0:0:0:
352,96,62552,5,8,0:0:0:0:
352,96,62646,5,8,0:0:0:0:
160,96,62740,5,0,0:0:0:0:
352,96,62833,5,8,0:0:0:0:
160,96,62927,5,0,0:0:0:0:
160,96,63021,5,0,0:0:0:0:
352,96,63115,5,8,0:0:0:0:
352,96,63302,5,8,0:0:0:0:
352,96,63396,5,8,0:0:0:0:
160,96,63490,5,0,0:0:0:0:
160,96,63677,5,0,0:0:0:0:
352,96,63865,5,8,0:0:0:0:
352,96,63911,5,8,0:0:0:0:
160,96,64052,5,0,0:0:0:0:
160,96,64099,5,0,0:0:0:0:
352,96,64240,5,8,0:0:0:0:
352,96,64333,5,8,0:0:0:0:
160,96,64427,5,0,0:0:0:0:
160,96,64521,5,0,0:0:0:0:
352,96,64615,5,8,0:0:0:0:
352,96,64708,5,8,0:0:0:0:
352,96,64802,5,8,0:0:0:0:
352,96,64896,5,8,0:0:0:0:
160,96,64990,5,0,0:0:0:0:
352,96,65083,5,8,0:0:0:0:
352,96,65177,5,8,0:0:0:0:
352,96,65271,5,8,0:0:0:0:
352,96,65365,5,8,0:0:0:0:
352,96,65458,5,8,0:0:0:0:
352,96,65552,5,8,0:0:0:0:
352,96,65646,5,8,0:0:0:0:
160,96,65740,5,0,0:0:0:0:
352,96,65833,5,8,0:0:0:0:
160,96,65927,5,0,0:0:0:0:
160,96,66021,5,0,0:0:0:0:
352,96,66115,5,8,0:0:0:0:
352,96,66208,5,8,0:0:0:0:
352,96,66302,5,8,0:0:0:0:
352,96,66396,5,8,0:0:0:0:
160,96,66490,5,0,0:0:0:0:
352,96,66583,5,8,0:0:0:0:
160,96,66677,5,0,0:0:0:0:
160,96,66740,5,0,0:0:0:0:
160,96,66802,5,0,0:0:0:0:
352,96,66865,5,8,0:0:0:0:
160,96,67240,5,0,0:0:0:0:
160,96,67333,5,0,0:0:0:0:
160,96,67427,5,0,0:0:0:0:
160,96,67521,5,0,0:0:0:0:
352,96,67615,5,8,0:0:0:0:
352,96,67708,5,8,0:0:0:0:
352,96,67802,5,8,0:0:0:0:
352,96,67896,5,8,0:0:0:0:
160,96,67990,5,0,0:0:0:0:
352,96,68083,5,8,0:0:0:0:
352,96,68177,5,8,0:0:0:0:
352,96,68271,5,8,0:0:0:0:
352,96,68365,5,8,0:0:0:0:
352,96,68458,5,8,0:0:0:0:
352,96,68552,5,8,0:0:0:0:
352,96,68646,5,8,0:0:0:0:
160,96,68740,5,0,0:0:0:0:
352,96,68833,5,8,0:0:0:0:
160,96,68927,5,0,0:0:0:0:
160,96,69021,5,0,0:0:0:0:
352,96,69115,5,8,0:0:0:0:
352,96,69302,5,8,0:0:0:0:
352,96,69396,5,8,0:0:0:0:
160,96,69490,5,0,0:0:0:0:
160,96,69677,5,0,0:0:0:0:
352,288,69865,5,12,0:0:0:0:
160,96,70240,5,0,0:0:0:0:
160,96,70333,5,0,0:0:0:0:
160,96,70427,5,0,0:0:0:0:
160,96,70521,5,0,0:0:0:0:
352,96,70615,5,8,0:0:0:0:
352,96,70708,5,8,0:0:0:0:
352,96,70802,5,8,0:0:0:0:
352,96,70896,5,8,0:0:0:0:
352,96,70990,5,8,0:0:0:0:
352,96,71083,5,8,0:0:0:0:
352,96,71177,5,8,0:0:0:0:
352,96,71271,5,8,0:0:0:0:
160,96,71365,5,0,0:0:0:0:
352,96,71458,5,8,0:0:0:0:
352,96,71552,5,8,0:0:0:0:
352,96,71646,5,8,0:0:0:0:
352,96,71740,5,8,0:0:0:0:
352,96,71833,5,8,0:0:0:0:
352,96,71927,5,8,0:0:0:0:
352,96,72021,5,8,0:0:0:0:
256,192,72115,12,0,72677,0:0:0:0:
160,288,72865,5,4,0:0:0:0:
352,96,78865,5,8,0:0:0:0:
352,96,79990,5,8,0:0:0:0:
352,96,80365,5,8,0:0:0:0:
352,96,81865,5,8,0:0:0:0:
352,96,82146,5,8,0:0:0:0:
352,96,82427,5,8,0:0:0:0:
352,96,82615,5,8,0:0:0:0:
352,96,82896,5,8,0:0:0:0:
352,96,83177,5,8,0:0:0:0:
352,96,83365,5,8,0:0:0:0:
352,96,83552,5,8,0:0:0:0:
352,96,83740,5,8,0:0:0:0:
160,96,83904,5,0,0:0:0:0:
160,96,83950,5,0,0:0:0:0:
160,96,83997,5,0,0:0:0:0:
352,96,84115,5,8,0:0:0:0:
160,96,84240,5,0,0:0:0:0:
160,96,84365,5,0,0:0:0:0:
352,96,84490,5,8,0:0:0:0:
160,96,84865,5,0,0:0:0:0:
352,96,85240,5,8,0:0:0:0:
160,96,85427,5,0,0:0:0:0:
160,96,85615,5,0,0:0:0:0:
160,96,85990,5,0,0:0:0:0:
160,96,86177,5,0,0:0:0:0:
352,96,86365,5,8,0:0:0:0:
352,96,86740,5,8,0:0:0:0:
160,96,86927,5,0,0:0:0:0:
352,96,87115,5,8,0:0:0:0:
160,96,87396,5,0,0:0:0:0:
352,96,87490,5,8,0:0:0:0:
352,96,87677,5,8,0:0:0:0:
160,96,87865,5,0,0:0:0:0:
160,96,88240,5,0,0:0:0:0:
352,96,88427,5,8,0:0:0:0:
160,96,88615,5,0,0:0:0:0:
160,96,88990,5,0,0:0:0:0:
160,96,89177,5,0,0:0:0:0:
160,96,89271,5,0,0:0:0:0:
352,96,89365,5,8,0:0:0:0:
352,96,89740,5,8,0:0:0:0:
160,96,89927,5,0,0:0:0:0:
352,96,90115,5,8,0:0:0:0:
160,96,90302,5,0,0:0:0:0:
352,96,90396,5,8,0:0:0:0:
352,96,90490,5,8,0:0:0:0:
352,96,90677,5,8,0:0:0:0:
160,96,90865,5,0,0:0:0:0:
352,96,91240,5,8,0:0:0:0:
160,96,91427,5,0,0:0:0:0:
160,96,91615,5,0,0:0:0:0:
352,96,91802,5,8,0:0:0:0:
352,96,91865,5,8,0:0:0:0:
352,96,91927,5,8,0:0:0:0:
352,96,91990,5,0,0:0:0:0:
160,96,92177,5,0,0:0:0:0:
352,96,92365,5,8,0:0:0:0:
352,96,92740,5,8,0:0:0:0:
160,96,92927,5,0,0:0:0:0:
352,96,93115,5,8,0:0:0:0:
160,96,93396,5,8,0:0:0:0:
352,96,93490,5,8,0:0:0:0:
160,96,93677,5,0,0:0:0:0:
352,96,93865,5,8,0:0:0:0:
352,96,94146,5,8,0:0:0:0:
352,96,94427,5,8,0:0:0:0:
352,96,94615,5,8,0:0:0:0:
352,96,94896,5,8,0:0:0:0:
352,96,95177,5,8,0:0:0:0:
352,96,95365,5,8,0:0:0:0:
352,96,95646,5,8,0:0:0:0:
160,96,95740,5,0,0:0:0:0:
352,96,95927,5,8,0:0:0:0:
160,96,96115,5,0,0:0:0:0:
352,96,96208,5,8,0:0:0:0:
160,96,96302,5,0,0:0:0:0:
352,96,96490,5,8,0:0:0:0:
352,96,96677,5,8,0:0:0:0:
160,288,96865,5,4,0:0:0:0:
160,96,97240,5,0,0:0:0:0:
352,96,97427,5,8,0:0:0:0:
160,96,97615,5,0,0:0:0:0:
352,96,97802,5,8,0:0:0:0:
352,96,97896,5,8,0:0:0:0:
160,96,97990,5,0,0:0:0:0:
352,96,98177,5,8,0:0:0:0:
160,96,98365,5,0,0:0:0:0:
352,96,98458,5,8,0:0:0:0:
352,96,98646,5,8,0:0:0:0:
160,96,98740,5,0,0:0:0:0:
352,96,98927,5,8,0:0:0:0:
160,96,99115,5,0,0:0:0:0:
160,96,99302,5,0,0:0:0:0:
352,96,99396,5,8,0:0:0:0:
160,96,99490,5,0,0:0:0:0:
352,96,99677,5,8,0:0:0:0:
160,96,99865,5,0,0:0:0:0:
352,96,100052,5,8,0:0:0:0:
352,96,100115,5,8,0:0:0:0:
352,96,100177,5,8,0:0:0:0:
160,96,100240,5,0,0:0:0:0:
352,96,100427,5,8,0:0:0:0:
160,96,100615,5,0,0:0:0:0:
352,96,100708,5,8,0:0:0:0:
352,96,100896,5,8,0:0:0:0:
160,96,100990,5,0,0:0:0:0:
160,96,101083,5,0,0:0:0:0:
352,96,101177,5,8,0:0:0:0:
160,96,101365,5,0,0:0:0:0:
160,96,101552,5,0,0:0:0:0:
352,96,101646,5,8,0:0:0:0:
160,96,101740,5,0,0:0:0:0:
352,96,101927,5,8,0:0:0:0:
160,96,102115,5,0,0:0:0:0:
160,96,102208,5,0,0:0:0:0:
352,96,102302,5,8,0:0:0:0:
352,96,102396,5,8,0:0:0:0:
160,96,102490,5,0,0:0:0:0:
352,96,102677,5,8,0:0:0:0:
160,96,102865,5,0,0:0:0:0:
160,96,103240,5,0,0:0:0:0:
352,96,103427,5,8,0:0:0:0:
160,96,103615,5,0,0:0:0:0:
352,96,103802,5,8,0:0:0:0:
352,96,103865,5,8,0:0:0:0:
352,96,103927,5,8,0:0:0:0:
160,96,103990,5,0,0:0:0:0:
160,96,104083,5,0,0:0:0:0:
352,96,104177,5,8,0:0:0:0:
160,96,104365,5,0,0:0:0:0:
160,96,104552,5,0,0:0:0:0:
352,96,104646,5,8,0:0:0:0:
160,96,104740,5,0,0:0:0:0:
352,96,104927,5,8,0:0:0:0:
160,96,105115,5,0,0:0:0:0:
352,96,105208,5,8,0:0:0:0:
352,96,105396,5,8,0:0:0:0:
160,96,105490,5,0,0:0:0:0:
160,96,105583,5,0,0:0:0:0:
352,96,105677,5,8,0:0:0:0:
160,96,105865,5,0,0:0:0:0:
160,96,106052,5,0,0:0:0:0:
352,96,106146,5,8,0:0:0:0:
160,96,106240,5,0,0:0:0:0:
352,96,106427,5,8,0:0:0:0:
160,96,106615,5,0,0:0:0:0:
352,96,106708,5,8,0:0:0:0:
352,96,106755,5,8,0:0:0:0:
352,96,106802,5,8,0:0:0:0:
352,96,106896,5,8,0:0:0:0:
160,96,106990,5,0,0:0:0:0:
160,96,107083,5,0,0:0:0:0:
352,96,107177,5,8,0:0:0:0:
160,96,107365,5,0,0:0:0:0:
352,96,107552,5,8,0:0:0:0:
352,96,107740,5,8,0:0:0:0:
352,96,107927,5,8,0:0:0:0:
352,96,108115,5,8,0:0:0:0:
352,96,108490,5,8,0:0:0:0:
352,96,108677,5,8,0:0:0:0:
160,288,108865,5,4,0:0:0:0:
352,96,109146,5,8,0:0:0:0:
160,96,109240,5,0,0:0:0:0:
160,96,109427,5,0,0:0:0:0:
352,288,109615,5,12,0:0:0:0:
352,96,109802,5,8,0:0:0:0:
352,96,109896,5,8,0:0:0:0:
160,96,109990,5,0,0:0:0:0:
352,96,110177,5,8,0:0:0:0:
160,96,110365,5,0,0:0:0:0:
352,96,110458,5,8,0:0:0:0:
352,96,110646,5,8,0:0:0:0:
160,96,110740,5,0,0:0:0:0:
160,96,110927,5,0,0:0:0:0:
352,288,111115,5,12,0:0:0:0:
352,96,111302,5,8,0:0:0:0:
352,96,111396,5,8,0:0:0:0:
160,96,111490,5,0,0:0:0:0:
352,96,111677,5,8,0:0:0:0:
160,96,111865,5,0,0:0:0:0:
160,96,112146,5,0,0:0:0:0:
352,96,112240,5,8,0:0:0:0:
160,96,112427,5,0,0:0:0:0:
352,288,112615,5,12,0:0:0:0:
160,96,112802,5,0,0:0:0:0:
160,96,112865,5,0,0:0:0:0:
160,96,112927,5,0,0:0:0:0:
352,96,112990,5,8,0:0:0:0:
352,96,113083,5,8,0:0:0:0:
160,96,113177,5,0,0:0:0:0:
352,96,113365,5,8,0:0:0:0:
160,96,113552,5,0,0:0:0:0:
160,96,113646,5,0,0:0:0:0:
352,96,113740,5,8,0:0:0:0:
160,96,113927,5,0,0:0:0:0:
352,288,114115,5,12,0:0:0:0:
160,96,114302,5,0,0:0:0:0:
160,96,114396,5,0,0:0:0:0:
352,96,114490,5,8,0:0:0:0:
160,96,114583,5,0,0:0:0:0:
352,96,114677,5,8,0:0:0:0:
352,96,114771,5,8,0:0:0:0:
160,96,114865,5,0,0:0:0:0:
352,96,115146,5,8,0:0:0:0:
160,96,115240,5,0,0:0:0:0:
160,96,115427,5,0,0:0:0:0:
352,288,115615,5,12,0:0:0:0:
352,96,115802,5,8,0:0:0:0:
352,96,115896,5,8,0:0:0:0:
160,96,115990,5,0,0:0:0:0:
160,96,116052,5,0,0:0:0:0:
160,96,116115,5,0,0:0:0:0:
352,96,116177,5,8,0:0:0:0:
160,96,116365,5,0,0:0:0:0:
352,96,116458,5,8,0:0:0:0:
352,96,116646,5,8,0:0:0:0:
160,96,116740,5,0,0:0:0:0:
160,96,116927,5,0,0:0:0:0:
352,288,117115,5,12,0:0:0:0:
160,96,117302,5,0,0:0:0:0:
352,96,117396,5,8,0:0:0:0:
160,96,117490,5,0,0:0:0:0:
352,96,117677,5,8,0:0:0:0:
160,96,117865,5,0,0:0:0:0:
352,96,118146,5,8,0:0:0:0:
160,96,118240,5,0,0:0:0:0:
160,96,118427,5,0,0:0:0:0:
352,288,118615,5,12,0:0:0:0:
352,96,118802,5,8,0:0:0:0:
160,96,118896,5,0,0:0:0:0:
352,96,118990,5,8,0:0:0:0:
352,96,119052,5,8,0:0:0:0:
352,96,119115,5,8,0:0:0:0:
160,96,119177,5,0,0:0:0:0:
352,96,119365,5,8,0:0:0:0:
352,96,119646,5,8,0:0:0:0:
352,96,119927,5,8,0:0:0:0:
160,96,120115,5,0,0:0:0:0:
352,96,120208,5,8,0:0:0:0:
160,96,120302,5,0,0:0:0:0:
160,96,120396,5,0,0:0:0:0:
352,96,120490,5,8,0:0:0:0:
352,96,120583,5,8,0:0:0:0:
160,96,120677,5,0,0:0:0:0:
256,192,120865,12,8,126302,0:0:0:0:
256,192,126865,12,8,129490,0:0:0:0:
256,192,129865,12,0,131365,0:0:0:0:
160,96,131904,5,0,0:0:0:0:
160,96,131950,5,0,0:0:0:0:
160,96,131997,5,0,0:0:0:0:
352,96,132115,5,8,0:0:0:0:
160,96,132240,5,0,0:0:0:0:
160,96,132365,5,0,0:0:0:0:
352,96,132490,5,8,0:0:0:0:
352,96,132865,5,8,0:0:0:0:
160,96,133146,5,0,0:0:0:0:
352,96,133240,5,8,0:0:0:0:
160,96,133427,5,0,0:0:0:0:
352,96,133615,5,8,0:0:0:0:
160,96,133896,5,0,0:0:0:0:
352,96,133990,5,8,0:0:0:0:
160,96,134177,5,0,0:0:0:0:
352,96,134365,5,8,0:0:0:0:
160,96,134646,5,0,0:0:0:0:
352,96,134740,5,8,0:0:0:0:
160,96,134927,5,0,0:0:0:0:
352,96,135115,5,8,0:0:0:0:
160,96,135396,5,0,0:0:0:0:
352,96,135490,5,8,0:0:0:0:
160,96,135677,5,0,0:0:0:0:
160,96,135771,5,0,0:0:0:0:
352,96,135865,5,8,0:0:0:0:
160,96,136146,5,0,0:0:0:0:
352,96,136240,5,8,0:0:0:0:
160,96,136427,5,0,0:0:0:0:
352,96,136615,5,8,0:0:0:0:
160,96,136896,5,0,0:0:0:0:
352,96,136990,5,8,0:0:0:0:
160,96,137177,5,0,0:0:0:0:
352,96,137365,5,8,0:0:0:0:
160,96,137458,5,0,0:0:0:0:
160,96,137646,5,0,0:0:0:0:
352,96,137740,5,8,0:0:0:0:
160,96,137927,5,0,0:0:0:0:
352,96,138115,5,8,0:0:0:0:
352,96,138208,5,8,0:0:0:0:
352,96,138396,5,8,0:0:0:0:
352,96,138490,5,8,0:0:0:0:
160,96,138677,5,0,0:0:0:0:
160,96,138771,5,0,0:0:0:0:
352,96,138865,5,8,0:0:0:0:
160,96,139146,5,0,0:0:0:0:
352,96,139240,5,8,0:0:0:0:
160,96,139427,5,0,0:0:0:0:
352,96,139615,5,8,0:0:0:0:
160,96,139896,5,0,0:0:0:0:
352,96,139990,5,8,0:0:0:0:
160,96,140177,5,0,0:0:0:0:
352,96,140365,5,8,0:0:0:0:
160,96,140646,5,0,0:0:0:0:
352,96,140740,5,8,0:0:0:0:
160,96,140927,5,0,0:0:0:0:
352,96,141115,5,8,0:0:0:0:
160,96,141208,5,0,0:0:0:0:
160,96,141396,5,0,0:0:0:0:
352,96,141490,5,8,0:0:0:0:
160,96,141677,5,0,0:0:0:0:
160,96,141771,5,0,0:0:0:0:
352,96,141865,5,8,0:0:0:0:
160,96,142146,5,0,0:0:0:0:
352,96,142240,5,8,0:0:0:0:
160,96,142427,5,0,0:0:0:0:
352,96,142615,5,8,0:0:0:0:
160,96,142708,5,0,0:0:0:0:
160,96,142896,5,0,0:0:0:0:
352,96,142990,5,8,0:0:0:0:
352,96,143083,5,8,0:0:0:0:
160,96,143177,5,0,0:0:0:0:
352,96,143365,5,8,0:0:0:0:
352,96,143646,5,8,0:0:0:0:
352,96,143927,5,8,0:0:0:0:
352,96,144208,5,8,0:0:0:0:
160,96,144302,5,0,0:0:0:0:
160,96,144396,5,0,0:0:0:0:
352,96,144490,5,8,0:0:0:0:
352,96,144583,5,8,0:0:0:0:
160,96,144677,5,0,0:0:0:0:
352,288,144865,5,12,0:0:0:0:
160,96,145146,5,0,0:0:0:0:
352,96,145240,5,8,0:0:0:0:
160,96,145427,5,0,0:0:0:0:
352,96,145615,5,8,0:0:0:0:
160,96,145708,5,0,0:0:0:0:
352,96,145990,5,8,0:0:0:0:
352,96,146365,5,8,0:0:0:0:
160,96,146646,5,0,0:0:0:0:
352,96,146740,5,8,0:0:0:0:
160,96,146927,5,0,0:0:0:0:
352,96,147115,5,8,0:0:0:0:
160,96,147208,5,0,0:0:0:0:
352,96,147490,5,8,0:0:0:0:
160,96,147677,5,0,0:0:0:0:
160,96,147771,5,0,0:0:0:0:
352,96,147865,5,8,0:0:0:0:
160,96,148146,5,0,0:0:0:0:
352,96,148240,5,8,0:0:0:0:
160,96,148427,5,0,0:0:0:0:
352,96,148615,5,8,0:0:0:0:
160,96,148708,5,0,0:0:0:0:
352,96,148990,5,8,0:0:0:0:
160,96,149177,5,0,0:0:0:0:
160,96,149271,5,0,0:0:0:0:
352,96,149365,5,8,0:0:0:0:
160,96,149458,5,0,0:0:0:0:
160,96,149646,5,0,0:0:0:0:
352,96,149740,5,8,0:0:0:0:
160,96,149927,5,0,0:0:0:0:
352,96,150115,5,8,0:0:0:0:
160,96,150208,5,0,0:0:0:0:
352,96,150490,5,8,0:0:0:0:
352,96,150865,5,8,0:0:0:0:
160,96,151052,5,0,0:0:0:0:
352,96,151146,5,8,0:0:0:0:
160,96,151240,5,0,0:0:0:0:
352,96,151427,5,8,0:0:0:0:
352,96,151615,5,8,0:0:0:0:
160,96,151802,5,0,0:0:0:0:
352,96,151896,5,8,0:0:0:0:
160,96,151990,5,0,0:0:0:0:
352,96,152177,5,8,0:0:0:0:
352,96,152365,5,8,0:0:0:0:
160,96,152552,5,0,0:0:0:0:
352,96,152646,5,8,0:0:0:0:
160,96,152740,5,0,0:0:0:0:
160,96,152833,5,0,0:0:0:0:
352,96,152927,5,8,0:0:0:0:
352,96,153115,5,8,0:0:0:0:
160,96,153302,5,0,0:0:0:0:
352,96,153396,5,8,0:0:0:0:
160,96,153490,5,0,0:0:0:0:
160,96,153583,5,0,0:0:0:0:
352,96,153677,5,8,0:0:0:0:
160,96,153865,5,8,0:0:0:0:
352,96,153958,5,0,0:0:0:0:
160,96,154052,5,8,0:0:0:0:
160,96,154146,5,8,0:0:0:0:
352,96,154240,5,0,0:0:0:0:
160,96,154333,5,8,0:0:0:0:
160,96,154427,5,0,0:0:0:0:
160,96,154521,5,0,0:0:0:0:
352,96,154615,5,8,0:0:0:0:
160,96,154708,5,0,0:0:0:0:
160,96,154802,5,8,0:0:0:0:
352,96,154896,5,8,0:0:0:0:
160,96,154990,5,0,0:0:0:0:
352,96,155083,5,8,0:0:0:0:
352,96,155177,5,8,0:0:0:0:
352,96,155271,5,8,0:0:0:0:
160,288,155365,5,4,0:0:0:0:
160,288,155740,5,4,0:0:0:0:
160,288,156115,5,4,0:0:0:0:
352,96,156490,5,8,0:0:0:0:
160,288,156865,5,4,0:0:0:0:
160,96,157052,5,0,0:0:0:0:
352,288,157240,5,12,0:0:0:0:
160,288,157615,5,4,0:0:0:0:
160,288,157990,5,4,0:0:0:0:
352,96,158177,5,8,0:0:0:0:
160,288,158365,5,4,0:0:0:0:
160,288,158740,5,4,0:0:0:0:
352,96,158927,5,8,0:0:0:0:
160,96,159115,5,0,0:0:0:0:
160,96,159208,5,0,0:0:0:0:
352,96,159302,5,8,0:0:0:0:
160,96,159490,5,0,0:0:0:0:
352,96,159583,5,8,0:0:0:0:
352,96,159677,5,8,0:0:0:0:
160,288,159865,5,4,0:0:0:0:
160,96,160052,5,0,0:0:0:0:
352,288,160240,5,12,0:0:0:0:
160,288,160615,5,4,0:0:0:0:
160,288,160990,5,4,0:0:0:0:
352,96,161177,5,8,0:0:0:0:
160,288,161365,5,4,0:0:0:0:
160,288,161740,5,4,0:0:0:0:
352,96,161927,5,8,0:0:0:0:
160,96,162115,5,0,0:0:0:0:
160,96,162208,5,0,0:0:0:0:
352,96,162302,5,8,0:0:0:0:
160,288,162490,5,4,0:0:0:0:
160,288,162865,5,4,0:0:0:0:
160,96,163052,5,0,0:0:0:0:
352,96,163146,5,8,0:0:0:0:
160,96,163240,5,0,0:0:0:0:
352,96,163427,5,8,0:0:0:0:
160,96,163615,5,0,0:0:0:0:
352,96,163896,5,8,0:0:0:0:
160,96,163990,5,0,0:0:0:0:
352,96,164177,5,8,0:0:0:0:
160,96,164365,5,0,0:0:0:0:
352,96,164458,5,8,0:0:0:0:
352,96,164646,5,8,0:0:0:0:
160,96,164740,5,0,0:0:0:0:
352,96,164927,5,8,0:0:0:0:
160,96,165115,5,0,0:0:0:0:
160,96,165208,5,0,0:0:0:0:
352,96,165302,5,8,0:0:0:0:
352,96,165396,5,8,0:0:0:0:
160,96,165490,5,0,0:0:0:0:
352,96,165677,5,8,0:0:0:0:
160,96,165865,5,0,0:0:0:0:
160,96,166052,5,0,0:0:0:0:
352,96,166240,5,8,0:0:0:0:
352,96,166427,5,0,0:0:0:0:
352,96,166521,5,0,0:0:0:0:
160,96,166615,5,8,0:0:0:0:
352,96,166802,5,8,0:0:0:0:
160,96,166896,5,0,0:0:0:0:
352,96,166990,5,8,0:0:0:0:
352,96,167083,5,8,0:0:0:0:
160,96,167177,5,0,0:0:0:0:
160,96,167271,5,0,0:0:0:0:
352,96,167365,5,8,0:0:0:0:
160,96,167552,5,0,0:0:0:0:
352,96,167740,5,8,0:0:0:0:
160,96,167802,5,0,0:0:0:0:
160,96,167865,5,0,0:0:0:0:
352,96,167927,5,8,0:0:0:0:
352,96,168021,5,8,0:0:0:0:
160,96,168115,5,0,0:0:0:0:
352,96,168208,5,8,0:0:0:0:
352,96,168302,5,8,0:0:0:0:
160,96,168490,5,0,0:0:0:0:
160,96,168552,5,0,0:0:0:0:
160,96,168615,5,0,0:0:0:0:
352,96,168677,5,8,0:0:0:0:
352,96,168740,5,8,0:0:0:0:
352,96,168802,5,8,0:0:0:0:
160,96,168865,5,0,0:0:0:0:
352,96,169146,5,8,0:0:0:0:
160,96,169240,5,0,0:0:0:0:
352,96,169427,5,8,0:0:0:0:
352,96,169615,5,8,0:0:0:0:
352,96,169708,5,8,0:0:0:0:
352,96,169896,5,8,0:0:0:0:
160,96,169990,5,0,0:0:0:0:
352,96,170177,5,8,0:0:0:0:
352,96,170365,5,8,0:0:0:0:
352,96,170458,5,8,0:0:0:0:
352,96,170646,5,8,0:0:0:0:
160,96,170740,5,0,0:0:0:0:
352,96,170927,5,8,0:0:0:0:
352,96,171115,5,8,0:0:0:0:
352,96,171208,5,8,0:0:0:0:
352,96,171396,5,8,0:0:0:0:
160,96,171490,5,0,0:0:0:0:
352,96,171677,5,8,0:0:0:0:
352,288,171865,5,12,0:0:0:0:
352,96,172146,5,8,0:0:0:0:
160,96,172240,5,0,0:0:0:0:
352,96,172427,5,8,0:0:0:0:
352,96,172615,5,8,0:0:0:0:
352,96,172708,5,8,0:0:0:0:
352,96,172896,5,8,0:0:0:0:
160,96,172990,5,0,0:0:0:0:
160,96,173083,5,0,0:0:0:0:
352,96,173177,5,8,0:0:0:0:
352,96,173365,5,8,0:0:0:0:
352,96,173458,5,8,0:0:0:0:
352,96,173646,5,8,0:0:0:0:
160,96,173740,5,0,0:0:0:0:
160,96,173833,5,0,0:0:0:0:
352,96,173927,5,8,0:0:0:0:
352,96,174115,5,8,0:0:0:0:
352,96,174208,5,8,0:0:0:0:
352,96,174396,5,8,0:0:0:0:
160,96,174490,5,0,0:0:0:0:
160,96,174583,5,0,0:0:0:0:
352,96,174677,5,8,0:0:0:0:
352,288,174865,5,12,0:0:0:0:
352,96,175146,5,8,0:0:0:0:
160,96,175240,5,0,0:0:0:0:
352,96,175427,5,8,0:0:0:0:
352,96,175615,5,8,0:0:0:0:
352,96,175708,5,8,0:0:0:0:
352,96,175896,5,8,0:0:0:0:
160,96,175990,5,0,0:0:0:0:
160,96,176083,5,0,0:0:0:0:
352,96,176177,5,8,0:0:0:0:
160,96,176271,5,0,0:0:0:0:
352,96,176365,5,8,0:0:0:0:
352,96,176458,5,8,0:0:0:0:
352,96,176646,5,8,0:0:0:0:
160,96,176740,5,0,0:0:0:0:
160,96,176833,5,0,0:0:0:0:
352,96,176927,5,8,0:0:0:0:
160,96,177021,5,0,0:0:0:0:
352,96,177115,5,8,0:0:0:0:
352,96,177208,5,8,0:0:0:0:
352,96,177396,5,8,0:0:0:0:
160,96,177490,5,0,0:0:0:0:
160,96,177583,5,0,0:0:0:0:
352,96,177677,5,8,0:0:0:0:
160,96,177865,5,0,0:0:0:0:
160,96,178052,5,0,0:0:0:0:
352,96,178146,5,8,0:0:0:0:
160,96,178240,5,0,0:0:0:0:
352,96,178427,5,8,0:0:0:0:
352,96,178521,5,8,0:0:0:0:
160,96,178615,5,0,0:0:0:0:
352,96,178708,5,8,0:0:0:0:
352,96,178802,5,8,0:0:0:0:
352,96,178896,5,8,0:0:0:0:
160,96,178990,5,0,0:0:0:0:
352,96,179083,5,8,0:0:0:0:
352,96,179177,5,8,0:0:0:0:
352,96,179271,5,8,0:0:0:0:
160,96,179365,5,0,0:0:0:0:
160,96,179552,5,0,0:0:0:0:
160,96,179646,5,0,0:0:0:0:
352,96,179740,5,8,0:0:0:0:
352,96,179927,5,8,0:0:0:0:
160,96,180021,5,0,0:0:0:0:
352,96,180115,5,8,0:0:0:0:
160,96,180208,5,0,0:0:0:0:
160,96,180302,5,0,0:0:0:0:
352,96,180490,5,8,0:0:0:0:
352,96,180865,5,8,0:0:0:0:
352,96,180911,5,8,0:0:0:0:
352,96,181240,5,8,0:0:0:0:
160,96,181286,5,0,0:0:0:0:
352,96,181615,5,8,0:0:0:0:
352,96,181708,5,8,0:0:0:0:
352,96,181802,5,8,0:0:0:0:
352,96,181896,5,8,0:0:0:0:
160,96,181990,5,0,0:0:0:0:
352,96,182083,5,8,0:0:0:0:
352,96,182177,5,8,0:0:0:0:
352,96,182271,5,8,0:0:0:0:
352,96,182365,5,8,0:0:0:0:
352,96,182552,5,8,0:0:0:0:
352,96,182646,5,8,0:0:0:0:
160,96,182740,5,0,0:0:0:0:
352,96,182833,5,8,0:0:0:0:
160,96,182927,5,0,0:0:0:0:
160,96,183021,5,0,0:0:0:0:
352,96,183115,5,8,0:0:0:0:
352,96,183302,5,8,0:0:0:0:
352,96,183396,5,8,0:0:0:0:
352,96,183490,5,8,0:0:0:0:
160,96,183677,5,0,0:0:0:0:
352,96,183865,5,8,0:0:0:0:
352,96,183911,5,8,0:0:0:0:
160,96,184052,5,0,0:0:0:0:
160,96,184099,5,0,0:0:0:0:
352,96,184240,5,8,0:0:0:0:
160,96,184302,5,0,0:0:0:0:
160,96,184365,5,0,0:0:0:0:
160,96,184427,5,0,0:0:0:0:
160,96,184490,5,0,0:0:0:0:
160,96,184552,5,0,0:0:0:0:
352,96,184615,5,8,0:0:0:0:
352,96,184708,5,8,0:0:0:0:
352,96,184802,5,8,0:0:0:0:
352,96,184896,5,8,0:0:0:0:
160,96,184990,5,0,0:0:0:0:
352,96,185083,5,8,0:0:0:0:
352,96,185177,5,8,0:0:0:0:
352,96,185271,5,8,0:0:0:0:
352,96,185365,5,8,0:0:0:0:
352,96,185552,5,8,0:0:0:0:
352,96,185599,5,8,0:0:0:0:
352,96,185646,5,8,0:0:0:0:
160,96,185740,5,0,0:0:0:0:
352,96,185833,5,8,0:0:0:0:
160,96,185927,5,0,0:0:0:0:
160,96,186021,5,0,0:0:0:0:
352,96,186115,5,8,0:0:0:0:
160,96,186302,5,0,0:0:0:0:
160,96,186396,5,0,0:0:0:0:
352,96,186490,5,8,0:0:0:0:
160,96,186677,5,0,0:0:0:0:
160,96,186740,5,0,0:0:0:0:
160,96,186802,5,0,0:0:0:0:
352,96,186865,5,8,0:0:0:0:
352,96,187240,5,8,0:0:0:0:
160,96,187286,5,0,0:0:0:0:
352,96,187615,5,8,0:0:0:0:
352,96,187708,5,8,0:0:0:0:
352,96,187802,5,8,0:0:0:0:
352,96,187896,5,8,0:0:0:0:
160,96,187990,5,0,0:0:0:0:
352,96,188083,5,8,0:0:0:0:
352,96,188177,5,8,0:0:0:0:
352,96,188271,5,8,0:0:0:0:
352,96,188365,5,8,0:0:0:0:
352,96,188552,5,8,0:0:0:0:
352,96,188646,5,8,0:0:0:0:
160,96,188740,5,0,0:0:0:0:
352,96,188833,5,8,0:0:0:0:
160,96,188927,5,0,0:0:0:0:
160,96,189021,5,0,0:0:0:0:
352,96,189115,5,8,0:0:0:0:
352,96,189302,5,8,0:0:0:0:
352,96,189396,5,8,0:0:0:0:
160,96,189490,5,0,0:0:0:0:
160,96,189677,5,0,0:0:0:0:
352,96,189865,5,8,0:0:0:0:
352,96,189911,5,8,0:0:0:0:
352,96,190052,5,8,0:0:0:0:
352,96,190099,5,8,0:0:0:0:
160,96,190240,5,0,0:0:0:0:
160,96,190333,5,0,0:0:0:0:
160,96,190427,5,0,0:0:0:0:
160,96,190521,5,0,0:0:0:0:
352,96,190615,5,8,0:0:0:0:
352,96,190708,5,8,0:0:0:0:
352,96,190802,5,8,0:0:0:0:
352,96,190896,5,8,0:0:0:0:
352,96,190990,5,8,0:0:0:0:
352,96,191083,5,8,0:0:0:0:
352,96,191177,5,8,0:0:0:0:
352,96,191271,5,8,0:0:0:0:
160,96,191365,5,0,0:0:0:0:
352,96,191458,5,8,0:0:0:0:
352,96,191552,5,8,0:0:0:0:
352,96,191646,5,8,0:0:0:0:
352,96,191740,5,8,0:0:0:0:
352,96,191833,5,8,0:0:0:0:
352,96,191927,5,8,0:0:0:0:
352,96,192021,5,8,0:0:0:0:
160,96,192115,5,0,0:0:0:0:
160,96,192208,5,0,0:0:0:0:
160,96,192396,5,0,0:0:0:0:
352,96,192490,5,8,0:0:0:0:
160,288,192865,5,4,0:0:0:0:
160,96,193052,5,0,0:0:0:0:
352,288,193240,5,12,0:0:0:0:
352,96,193427,5,8,0:0:0:0:
352,96,193521,5,8,0:0:0:0:
160,96,193615,5,0,0:0:0:0:
160,96,193802,5,0,0:0:0:0:
160,96,193896,5,0,0:0:0:0:
352,96,193990,5,8,0:0:0:0:
160,96,194083,5,0,0:0:0:0:
160,96,194177,5,0,0:0:0:0:
160,96,194271,5,0,0:0:0:0:
352,96,194365,5,8,0:0:0:0:
160,96,194552,5,0,0:0:0:0:
160,96,194646,5,0,0:0:0:0:
352,96,194740,5,8,0:0:0:0:
160,96,194833,5,0,0:0:0:0:
160,96,195021,5,0,0:0:0:0:
352,96,195115,5,8,0:0:0:0:
160,96,195302,5,0,0:0:0:0:
160,96,195396,5,0,0:0:0:0:
352,96,195490,5,8,0:0:0:0:
160,96,195583,5,0,0:0:0:0:
352,96,195677,5,8,0:0:0:0:
160,288,195865,5,4,0:0:0:0:
160,96,196052,5,0,0:0:0:0:
352,288,196240,5,12,0:0:0:0:
352,96,196427,5,8,0:0:0:0:
352,96,196521,5,8,0:0:0:0:
160,96,196615,5,0,0:0:0:0:
160,96,196802,5,0,0:0:0:0:
352,96,196896,5,8,0:0:0:0:
160,96,196990,5,0,0:0:0:0:
352,96,197083,5,8,0:0:0:0:
352,96,197177,5,8,0:0:0:0:
352,96,197271,5,8,0:0:0:0:
160,96,197365,5,0,0:0:0:0:
352,96,197552,5,8,0:0:0:0:
352,96,197646,5,8,0:0:0:0:
160,96,197740,5,0,0:0:0:0:
352,96,197833,5,8,0:0:0:0:
352,96,198021,5,8,0:0:0:0:
160,96,198115,5,0,0:0:0:0:
352,96,198302,5,8,0:0:0:0:
352,96,198396,5,8,0:0:0:0:
160,96,198490,5,0,0:0:0:0:
352,96,198583,5,8,0:0:0:0:
352,96,198677,5,8,0:0:0:0:
160,96,198865,5,0,0:0:0:0:
352,96,198927,5,8,0:0:0:0:
352,96,198990,5,8,0:0:0:0:
160,96,199052,5,0,0:0:0:0:
160,96,199146,5,0,0:0:0:0:
352,96,199240,5,8,0:0:0:0:
352,96,199427,5,8,0:0:0:0:
352,96,199521,5,8,0:0:0:0:
160,96,199615,5,0,0:0:0:0:
160,96,199802,5,0,0:0:0:0:
160,96,199896,5,0,0:0:0:0:
352,96,199990,5,8,0:0:0:0:
160,96,200083,5,0,0:0:0:0:
160,96,200177,5,0,0:0:0:0:
160,96,200271,5,0,0:0:0:0:
352,96,200365,5,8,0:0:0:0:
160,96,200552,5,0,0:0:0:0:
160,96,200646,5,0,0:0:0:0:
352,96,200740,5,8,0:0:0:0:
160,96,200833,5,0,0:0:0:0:
160,96,201021,5,0,0:0:0:0:
352,96,201115,5,8,0:0:0:0:
160,96,201302,5,0,0:0:0:0:
160,96,201396,5,0,0:0:0:0:
352,96,201490,5,8,0:0:0:0:
160,96,201583,5,0,0:0:0:0:
352,96,201677,5,8,0:0:0:0:
352,96,201771,5,8,0:0:0:0:
160,96,201865,5,0,0:0:0:0:
160,96,202052,5,0,0:0:0:0:
160,96,202146,5,0,0:0:0:0:
352,96,202240,5,8,0:0:0:0:
160,96,202333,5,0,0:0:0:0:
160,96,202427,5,0,0:0:0:0:
160,96,202521,5,0,0:0:0:0:
352,96,202615,5,8,0:0:0:0:
352,96,202708,5,8,0:0:0:0:
160,96,202802,5,0,0:0:0:0:
160,96,202896,5,0,0:0:0:0:
352,96,202990,5,8,0:0:0:0:
352,96,203083,5,8,0:0:0:0:
352,96,203177,5,8,0:0:0:0:
352,96,203271,5,8,0:0:0:0:
160,96,203365,5,0,0:0:0:0:
352,96,203646,5,0,0:0:0:0:
160,96,203740,5,8,0:0:0:0:
352,96,203927,5,8,0:0:0:0:
160,96,204021,5,8,0:0:0:0:
352,96,204208,5,8,0:0:0:0:
160,96,204302,5,0,0:0:0:0:
160,96,204396,5,0,0:0:0:0:
352,96,204490,5,8,0:0:0:0:
