osu file format v14

[General]
AudioFilename: Abracadabra (feat. BrainDead).ogg
AudioLeadIn: 0
PreviewTime: 156771
Countdown: 0
SampleSet: Normal
StackLeniency: 0
Mode: 1
LetterboxInBreaks: 0
WidescreenStoryboard: 0

[Editor]
Bookmarks: 12855,36855,72855,96855,120855,132855,156855
DistanceSpacing: 1.7
BeatDivisor: 2
GridSize: 32
TimelineZoom: 2.4

[Metadata]
Title:Abracadabra (feat. BrainDead)
TitleUnicode:Abracadabra (feat. BrainDead)
Artist:Ido B Zooki
ArtistUnicode:Ido B Zooki
Creator:komasy
Version:Genjuro's Kantan
Source:
Tags:Electronic English Ido Ben Dov Zook Algasi Hardstyle Hardcore EDM Drops Genjuro uone yassu-
BeatmapID:3586267
BeatmapSetID:1752410

[Difficulty]
HPDrainRate:8
CircleSize:2
OverallDifficulty:3
ApproachRate:10
SliderMultiplier:1.4
SliderTickRate:1

[Events]
//Background and Video events
0,0,"bg.jpg",0,50
//Break Periods
2,73065,84415
2,121065,132415
//Storyboard Layer 0 (Background)
//Storyboard Layer 1 (Fail)
//Storyboard Layer 2 (Pass)
//Storyboard Layer 3 (Foreground)
//Storyboard Layer 4 (Overlay)
//Storyboard Sound Samples

[TimingPoints]
865,375,4,1,0,66,1,0
36677,-100,4,1,0,88,0,0
36865,-100,4,1,0,88,0,1
47365,-100,4,1,0,88,0,0
48865,-100,4,1,0,88,0,1
59365,-100,4,1,0,88,0,0
60865,-100,4,1,0,88,0,1
72115,-100,4,1,0,88,0,0
73052,-100,4,1,0,66,0,0
96677,-100,4,1,0,77,0,0
121052,-100,4,1,0,66,0,0
156677,-100,4,1,0,88,0,0
156865,-100,4,1,0,88,0,1
179365,-100,4,1,0,88,0,0
180865,-100,4,1,0,88,0,1
192115,-100,4,1,0,88,0,0
192865,-100,4,1,0,88,0,1
203365,-100,4,1,0,88,0,0

[HitObjects]
256,192,12865,5,0,0:0:0:0:
256,192,13615,1,8,0:0:0:0:
256,192,14365,1,0,0:0:0:0:
256,192,15865,1,8,0:0:0:0:
256,192,16240,1,8,0:0:0:0:
256,192,16615,1,8,0:0:0:0:
256,192,17365,1,0,0:0:0:0:
256,192,18865,1,0,0:0:0:0:
256,192,19615,1,8,0:0:0:0:
256,192,20365,1,0,0:0:0:0:
256,192,21865,1,8,0:0:0:0:
256,192,22240,1,8,0:0:0:0:
256,192,22615,1,8,0:0:0:0:
256,192,22990,1,8,0:0:0:0:
256,192,23365,1,0,0:0:0:0:
256,192,24865,1,0,0:0:0:0:
256,192,26365,1,8,0:0:0:0:
256,192,27865,1,0,0:0:0:0:
256,192,29365,1,8,0:0:0:0:
256,192,30865,1,0,0:0:0:0:
256,192,31615,1,8,0:0:0:0:
256,192,32365,1,0,0:0:0:0:
256,192,33115,1,8,0:0:0:0:
256,192,33865,1,0,0:0:0:0:
256,192,34240,1,8,0:0:0:0:
256,192,34615,1,0,0:0:0:0:
256,192,34990,1,8,0:0:0:0:
256,192,35365,1,0,0:0:0:0:
256,192,36865,1,4,0:0:0:0:
256,192,37615,1,2,0:0:0:0:
256,192,38365,1,2,0:0:0:0:
256,192,39115,1,2,0:0:0:0:
256,192,39490,1,2,0:0:0:0:
256,192,39865,1,0,0:0:0:0:
256,192,40615,1,2,0:0:0:0:
256,192,41365,1,2,0:0:0:0:
256,192,42865,1,4,0:0:0:0:
256,192,43615,1,2,0:0:0:0:
256,192,44365,1,2,0:0:0:0:
256,192,45115,1,2,0:0:0:0:
256,192,45490,1,2,0:0:0:0:
256,192,45865,1,0,0:0:0:0:
256,192,47365,1,0,0:0:0:0:
256,192,47740,1,8,0:0:0:0:
256,192,48115,1,0,0:0:0:0:
256,192,48865,1,4,0:0:0:0:
256,192,49615,1,2,0:0:0:0:
256,192,49990,1,2,0:0:0:0:
256,192,50365,1,0,0:0:0:0:
256,192,51115,1,2,0:0:0:0:
256,192,51865,1,0,0:0:0:0:
256,192,52240,1,0,0:0:0:0:
256,192,52615,1,2,0:0:0:0:
256,192,53365,1,0,0:0:0:0:
256,192,54865,1,4,0:0:0:0:
256,192,55615,1,2,0:0:0:0:
256,192,55990,1,0,0:0:0:0:
256,192,56365,1,2,0:0:0:0:
256,192,57115,1,0,0:0:0:0:
256,192,57865,1,2,0:0:0:0:
256,192,58240,1,2,0:0:0:0:
256,192,58615,1,0,0:0:0:0:
256,192,58990,1,0,0:0:0:0:
256,192,59365,1,2,0:0:0:0:
256,192,60865,1,0,0:0:0:0:
256,192,61615,1,8,0:0:0:0:
256,192,61990,1,0,0:0:0:0:
256,192,62740,1,0,0:0:0:0:
256,192,63115,1,8,0:0:0:0:
256,192,64615,1,8,0:0:0:0:
256,192,64990,1,8,0:0:0:0:
256,192,65740,1,0,0:0:0:0:
256,192,66115,1,8,0:0:0:0:
256,192,66865,1,0,0:0:0:0:
256,192,67615,1,8,0:0:0:0:
256,192,67990,1,0,0:0:0:0:
256,192,68740,1,0,0:0:0:0:
256,192,69115,1,8,0:0:0:0:
256,192,69865,1,0,0:0:0:0:
256,192,70615,1,8,0:0:0:0:
256,192,71365,1,0,0:0:0:0:
256,192,72865,1,12,0:0:0:0:
256,192,84865,5,0,0:0:0:0:
256,192,86365,1,8,0:0:0:0:
256,192,87865,1,0,0:0:0:0:
256,192,88615,1,0,0:0:0:0:
256,192,89365,1,8,0:0:0:0:
256,192,90865,1,0,0:0:0:0:
256,192,92365,1,8,0:0:0:0:
256,192,93865,1,8,0:0:0:0:
256,192,94615,1,8,0:0:0:0:
256,192,95365,1,8,0:0:0:0:
256,192,96115,1,8,0:0:0:0:
256,192,96865,1,4,0:0:0:0:
256,192,97990,1,0,0:0:0:0:
256,192,98365,1,8,0:0:0:0:
256,192,99865,1,8,0:0:0:0:
256,192,100615,1,0,0:0:0:0:
256,192,101365,1,8,0:0:0:0:
256,192,102490,1,8,0:0:0:0:
256,192,102865,1,0,0:0:0:0:
256,192,103990,1,0,0:0:0:0:
256,192,104365,1,8,0:0:0:0:
256,192,105865,1,8,0:0:0:0:
256,192,106615,1,8,0:0:0:0:
256,192,107365,1,0,0:0:0:0:
256,192,108865,1,4,0:0:0:0:
256,192,109990,1,0,0:0:0:0:
256,192,110365,1,8,0:0:0:0:
256,192,111865,1,8,0:0:0:0:
256,192,112615,1,0,0:0:0:0:
256,192,113365,1,8,0:0:0:0:
256,192,114490,1,8,0:0:0:0:
256,192,114865,1,0,0:0:0:0:
256,192,115990,1,0,0:0:0:0:
256,192,116365,1,8,0:0:0:0:
256,192,117865,1,8,0:0:0:0:
256,192,118615,1,8,0:0:0:0:
256,192,119365,1,0,0:0:0:0:
256,192,120865,1,12,0:0:0:0:
256,192,132865,5,8,0:0:0:0:
256,192,133615,1,8,0:0:0:0:
256,192,134365,1,8,0:0:0:0:
256,192,135865,1,8,0:0:0:0:
256,192,136615,1,8,0:0:0:0:
256,192,137365,1,8,0:0:0:0:
256,192,138865,1,0,0:0:0:0:
256,192,139615,1,0,0:0:0:0:
256,192,140365,1,0,0:0:0:0:
256,192,141865,1,8,0:0:0:0:
256,192,142615,1,8,0:0:0:0:
256,192,143365,1,8,0:0:0:0:
256,192,144865,1,0,0:0:0:0:
256,192,146365,1,0,0:0:0:0:
256,192,147865,1,8,0:0:0:0:
256,192,149365,1,8,0:0:0:0:
256,192,150865,1,0,0:0:0:0:
256,192,151615,1,0,0:0:0:0:
256,192,152365,1,8,0:0:0:0:
256,192,153115,1,8,0:0:0:0:
256,192,153865,1,0,0:0:0:0:
256,192,154240,1,0,0:0:0:0:
256,192,154615,1,8,0:0:0:0:
256,192,154990,1,8,0:0:0:0:
256,192,155365,1,0,0:0:0:0:
256,192,156865,1,4,0:0:0:0:
256,192,157615,1,2,0:0:0:0:
256,192,157990,1,0,0:0:0:0:
256,192,158365,1,2,0:0:0:0:
256,192,159115,1,2,0:0:0:0:
256,192,159865,1,0,0:0:0:0:
256,192,160615,1,2,0:0:0:0:
256,192,160990,1,2,0:0:0:0:
256,192,161365,1,0,0:0:0:0:
256,192,162865,1,4,0:0:0:0:
256,192,163615,1,8,0:0:0:0:
256,192,163990,1,0,0:0:0:0:
256,192,164365,1,8,0:0:0:0:
256,192,164740,1,0,0:0:0:0:
256,192,165115,1,8,0:0:0:0:
256,192,165865,1,0,0:0:0:0:
256,192,167365,1,0,0:0:0:0:
256,192,167740,1,8,0:0:0:0:
256,192,168115,1,0,0:0:0:0:
256,192,168865,1,4,0:0:0:0:
256,192,169615,1,2,0:0:0:0:
256,192,169990,1,2,0:0:0:0:
256,192,170365,1,0,0:0:0:0:
256,192,171115,1,2,0:0:0:0:
256,192,171865,1,0,0:0:0:0:
256,192,172240,1,0,0:0:0:0:
256,192,172615,1,2,0:0:0:0:
256,192,173365,1,0,0:0:0:0:
256,192,174865,1,4,0:0:0:0:
256,192,175615,1,2,0:0:0:0:
256,192,175990,1,0,0:0:0:0:
256,192,176365,1,2,0:0:0:0:
256,192,177115,1,0,0:0:0:0:
256,192,177865,1,2,0:0:0:0:
256,192,178240,1,2,0:0:0:0:
256,192,178615,1,0,0:0:0:0:
256,192,178990,1,0,0:0:0:0:
256,192,179365,1,2,0:0:0:0:
256,192,180865,1,0,0:0:0:0:
256,192,181615,1,8,0:0:0:0:
256,192,181990,1,0,0:0:0:0:
256,192,182740,1,0,0:0:0:0:
256,192,183115,1,8,0:0:0:0:
256,192,184615,1,8,0:0:0:0:
256,192,184990,1,8,0:0:0:0:
256,192,185740,1,0,0:0:0:0:
256,192,186115,1,8,0:0:0:0:
256,192,186865,1,0,0:0:0:0:
256,192,187615,1,8,0:0:0:0:
256,192,187990,1,0,0:0:0:0:
256,192,188740,1,0,0:0:0:0:
256,192,189115,1,8,0:0:0:0:
256,192,189865,1,0,0:0:0:0:
256,192,190615,1,8,0:0:0:0:
256,192,191365,1,0,0:0:0:0:
256,192,192865,1,4,0:0:0:0:
256,192,193615,1,8,0:0:0:0:
256,192,193990,1,8,0:0:0:0:
256,192,194365,1,0,0:0:0:0:
256,192,195115,1,0,0:0:0:0:
256,192,195490,1,8,0:0:0:0:
256,192,195865,1,0,0:0:0:0:
256,192,196615,1,8,0:0:0:0:
256,192,197365,1,0,0:0:0:0:
256,192,198865,1,4,0:0:0:0:
256,192,199615,1,8,0:0:0:0:
256,192,199990,1,8,0:0:0:0:
256,192,200365,1,8,0:0:0:0:
256,192,201115,1,0,0:0:0:0:
256,192,201865,1,8,0:0:0:0:
256,192,202240,1,0,0:0:0:0:
256,192,202615,1,8,0:0:0:0:
256,192,202990,1,8,0:0:0:0:
256,192,203365,1,0,0:0:0:0:
