osu file format v14

[General]
AudioFilename: audio.mp3
AudioLeadIn: 0
PreviewTime: 214200
Countdown: 0
SampleSet: Soft
StackLeniency: 0.7
Mode: 0
LetterboxInBreaks: 0
WidescreenStoryboard: 1

[Editor]
Bookmarks: 599,253159
DistanceSpacing: 1.1
BeatDivisor: 4
GridSize: 4
TimelineZoom: 2

[Metadata]
Title:Show Yourself
TitleUnicode:Show Yourself
Artist:Idina Menzel & Evan Rachel Wood
ArtistUnicode:Idina Menzel & Evan Rachel Wood
Creator:Gero
Version:Hard
Source:Frozen II
Tags:Walt Disney Animation Studios OST Walt Disney Let It Go 2 AURORA Elsa The Snow Queen Mother Iduna Anna Kristoff Olaf Sven Arendelle Ahtohallan Kingdom Mysterious Voice Secret Siren Into the Unknown Elemental spirits of Earth Fire Water Air of the forest Bruni Salamander The Nøkk Gale Earth Giants The Enchanted Forest English Pop Chris Buck Jennifer Lee Peter Del Vecho Kristen Anderson-Lopez Robert Lopez Byron Howard Kristen Bell Josh Gad Jonathan Groff Ciarán Hinds Sterling K. Brown Alfred Molina Martha Plimpton Jason Ritter Rachel Matthews Jeremy Sisto
BeatmapID:2428676
BeatmapSetID:1069502

[Difficulty]
HPDrainRate:6
CircleSize:4
OverallDifficulty:6
ApproachRate:7.5
SliderMultiplier:1.6
SliderTickRate:1

[Events]
//Background and Video events
0,0,"BG.jpg",0,0
Video,1080,"Video.mp4"
//Break Periods
//Storyboard Layer 0 (Background)
//Storyboard Layer 1 (Fail)
//Storyboard Layer 2 (Pass)
//Storyboard Layer 3 (Foreground)
//Storyboard Layer 4 (Overlay)
//Storyboard Sound Samples

[TimingPoints]
349,500,4,2,1,50,1,0
44349,504.201680672269,4,2,1,50,1,0
47122,444.444444444444,4,2,1,50,1,0
47344,504.201680672269,4,2,1,50,1,0
48353,497.92531120332,4,2,1,50,1,0
50311,502.092050209205,4,2,1,50,1,0
53825,461.538461538462,4,2,1,50,1,0
54055,504.201680672269,4,2,1,50,1,0
54312,500,4,2,1,50,1,0
56337,489.795918367348,4,2,1,50,1,0
57316,476.190476190476,4,2,1,50,1,0
57792,521.739130434783,4,2,1,50,1,0
59303,502.092050209205,4,2,1,50,1,0
60307,-100,4,2,1,30,0,0
61349,500,4,2,1,50,1,0
62349,500,4,2,1,50,1,0
63349,600,4,2,1,50,1,0
63649,555.555555555556,4,2,1,50,1,0
63926,521.739130434783,4,2,1,50,1,0
64186,750,4,2,1,50,1,0
64373,508.474576271186,4,2,1,50,1,0
64881,472.44094488189,4,2,1,50,1,0
65353,495.867768595041,4,2,1,50,1,0
66344,550.45871559633,4,2,1,30,1,0
67355,487.80487804878,4,2,1,50,1,0
68330,487.80487804878,4,2,1,50,1,0
69281,511.945392491467,4,2,1,50,1,0
70315,511.945392491467,4,2,1,50,1,0
71354,499.168053244592,4,2,1,50,1,0
72352,499.168053244592,4,2,1,50,1,0
77344,500,4,2,1,50,1,0
78344,500,4,2,1,50,1,0
79344,483.870967741935,4,2,1,50,1,0
80311,-100,4,2,1,30,0,0
81344,491.803278688525,4,2,1,50,1,0
84344,487.80487804878,4,2,2,40,1,0
86264,480,4,2,2,50,1,0
92024,-100,4,2,2,20,0,0
92504,-100,4,2,2,30,0,0
92984,-100,4,2,2,40,0,0
93464,-100,4,2,2,50,0,0
93944,-100,4,2,2,60,0,0
95384,-76.9230769230769,4,2,2,70,0,0
95864,-100,4,2,2,60,0,0
97304,-76.9230769230769,4,2,2,70,0,0
97784,-100,4,2,2,60,0,0
99224,-76.9230769230769,4,2,2,70,0,0
99704,-100,4,2,2,60,0,0
101144,-76.9230769230769,4,2,2,70,0,0
101624,-100,4,2,2,60,0,0
103064,-76.9230769230769,4,2,2,70,0,0
103544,-100,4,2,2,60,0,0
104984,-100,4,2,2,70,0,0
105464,-100,4,2,2,60,0,0
106904,-76.9230769230769,4,2,2,70,0,0
107384,-100,4,2,2,60,0,0
108824,-100,4,2,2,70,0,0
109304,-100,4,2,2,60,0,0
112664,-100,4,2,2,70,0,0
113144,-100,4,2,2,60,0,0
116504,-100,4,2,2,70,0,0
116984,-100,4,2,2,60,0,0
118904,-90.9090909090909,4,2,2,65,0,0
120824,-83.3333333333333,4,2,2,70,0,0
122744,483.870967741935,4,2,2,75,1,0
122744,-76.9230769230769,4,2,2,75,0,0
123953,480,4,2,2,75,1,0
124193,454.545454545455,4,2,2,75,1,0
124420,491.803278688525,4,2,2,75,1,0
124665,480,4,2,2,50,1,0
124665,-125,4,2,2,50,0,0
125385,-83.3333333333333,4,2,2,70,0,0
130425,-125,4,2,2,40,0,0
130485,-166.666666666667,4,2,2,5,0,0
131145,-83.3333333333333,4,2,2,70,0,0
136184,485.82995951417,4,2,2,70,1,0
136184,-83.3333333333333,4,2,2,70,0,0
137884,465.116279069767,4,2,2,70,1,0
137884,-83.3333333333333,4,2,2,70,0,0
138116,480,4,2,2,70,1,0
138116,-83.3333333333333,4,2,2,70,0,0
139556,468.75,4,2,2,70,1,0
139556,-83.3333333333333,4,2,2,70,0,0
140024,487.80487804878,4,2,2,70,1,0
140024,-83.3333333333333,4,2,2,70,0,0
141944,485.82995951417,4,2,2,70,1,0
141944,-83.3333333333333,4,2,2,70,0,0
143644,442.80442804428,4,2,2,70,1,0
143644,-83.3333333333333,4,2,2,70,0,0
143864,468.75,4,2,2,40,1,0
143864,-100,4,2,2,40,0,0
144567,512.820512820513,4,2,2,40,1,0
144824,480,4,2,2,70,1,0
144824,-76.9230769230769,4,2,2,70,0,0
145784,528.63436123348,4,2,2,70,1,0
145784,-83.3333333333333,4,2,2,70,0,0
145850,-66.6666666666667,4,2,2,5,0,0
146312,-100,4,2,2,40,0,0
146576,540.540540540541,4,2,2,40,1,0
146846,413.793103448276,4,2,2,40,1,0
147259,600,4,2,2,45,1,0
147559,750,4,2,2,45,1,0
147746,476.190476190476,4,2,2,45,1,0
147746,-100,4,2,2,45,0,0
148222,-100,4,2,2,50,0,0
149650,472.44094488189,4,2,2,50,1,0
149650,-100,4,2,2,50,0,0
150603,-100,4,2,2,60,0,0
151067,500,4,2,2,60,1,0
151317,454.545454545455,4,2,2,60,1,0
151544,480,4,2,2,40,1,0
151544,-125,4,2,2,40,0,0
164984,-100,4,2,2,45,0,0
165944,-100,4,2,2,50,0,0
166904,-100,4,2,2,70,0,0
182264,495.867768595041,4,2,2,60,1,0
182264,-100,4,2,2,60,0,0
183007,447.761194029851,4,2,2,60,1,0
183229,489.795918367347,4,2,2,60,1,0
183963,461.538461538462,4,2,2,60,1,0
184193,483.870967741935,4,2,2,60,1,0
185160,487.80487804878,4,2,2,60,1,0
185891,428.571428571429,4,2,2,60,1,0
186105,487.80487804878,4,2,2,55,1,0
186105,-100,4,2,2,55,0,0
187812,428.571428571429,4,2,2,55,1,0
188024,517.241379310345,4,2,2,55,1,0
188541,530.973451327434,4,2,2,55,1,0
188806,461.538461538462,4,2,2,50,1,0
189036,571.428571428572,4,2,2,50,1,0
189608,681.818181818183,4,2,2,40,1,0
190299,898.876404494382,4,2,2,35,1,0
193899,930.232558139535,4,2,2,35,1,0
197619,909.090909090909,4,2,2,35,1,0
208528,827.586206896552,4,2,2,35,1,0
209362,1034.48275862069,4,2,2,35,1,0
210289,923.076923076923,4,2,2,35,1,0
211212,-100,4,2,2,40,0,0
212135,902.255639097744,4,2,2,45,1,0
212589,524.017467248908,4,2,2,50,1,0
213115,625,4,2,2,50,1,0
213723,550.45871559633,4,2,2,50,1,0
214028,1379.31034482759,4,2,2,50,1,0
214372,-100,4,2,2,30,0,0
215381,480,4,2,2,80,1,1
215381,-76.9230769230769,4,2,2,80,0,1
216281,-76.9230769230769,4,2,2,80,0,0
216341,-76.9230769230769,4,2,2,80,0,1
216401,-76.9230769230769,4,2,2,5,0,1
216821,-83.3333333333333,4,2,2,80,0,1
218201,-83.3333333333333,4,2,2,80,0,0
218261,-83.3333333333333,4,2,2,80,0,1
220181,-125,4,2,2,30,0,0
221141,-76.9230769230769,4,2,2,80,0,1
222041,-76.9230769230769,4,2,2,80,0,0
222101,-76.9230769230769,4,2,2,80,0,1
222581,-83.3333333333333,4,2,2,80,0,1
223961,-83.3333333333333,4,2,2,80,0,0
224021,-83.3333333333333,4,2,2,80,0,1
225881,-83.3333333333333,4,2,2,80,0,0
225941,-83.3333333333333,4,2,2,80,0,1
233621,-125,4,2,2,30,0,0
234581,-76.9230769230769,4,2,2,80,0,1
235061,-83.3333333333333,4,2,2,80,0,1
235481,-83.3333333333333,4,2,2,80,0,0
235541,-76.9230769230769,4,2,2,80,0,1
236021,-83.3333333333333,4,2,2,80,0,1
237401,-83.3333333333333,4,2,2,80,0,0
237461,-83.3333333333333,4,2,2,80,0,1
241241,-83.3333333333333,4,2,2,80,0,0
241301,-83.3333333333333,4,2,2,80,0,1
243700,538.116591928251,4,2,2,60,1,1
244244,478.08764940239,4,2,2,50,1,1
244722,603.015075376884,4,2,2,40,1,1
245249,-100,4,2,2,40,0,0
245330,967.741935483871,4,2,2,50,1,1
245450,-100,4,2,2,60,0,0
249202,987.654320987654,4,2,2,60,1,0
253159,1000,4,2,2,60,1,0

[Colours]
Combo1 : 55,165,217
Combo2 : 39,107,163

[HitObjects]
256,192,599,5,0,0:0:0:0:
332,148,849,2,0,P|371:140|410:148,1,80,2|0,0:0|0:0,0:0:0:0:
409,236,1349,2,0,P|370:244|331:236,1,80,2|0,0:0|0:0,0:0:0:0:
256,192,1849,1,2,0:0:0:0:
180,236,2099,6,0,P|141:244|102:236,1,80,0|0,0:0|0:0,0:0:0:0:
27,192,2599,1,0,0:0:0:0:
103,148,2849,1,2,0:0:0:0:
27,192,3099,1,0,0:0:0:0:
103,148,3349,2,0,B|115:110|115:110|103:72,1,80,2|0,0:0|0:0,0:0:0:0:
179,192,3849,2,0,B|167:230|167:230|179:268,1,80,2|0,0:0|0:0,0:0:0:0:
255,148,4349,6,0,L|335:148,1,80,2|0,0:0|0:0,0:0:0:0:
484,192,4849,2,0,L|404:192,1,80,2|0,0:0|0:0,0:0:0:0:
256,236,5349,2,0,L|336:236,1,80,2|0,0:0|0:0,0:0:0:0:
404,280,5849,6,0,B|432:308|432:308|441:347,1,80,2|0,0:0|0:0,0:0:0:0:
361,347,6349,2,0,B|356:328|336:312|312:312|312:312|296:312,1,80,2|0,0:0|0:0,0:0:0:0:
215,312,6849,2,0,B|200:312|200:312|176:312|156:328|151:347,1,80,2|0,0:0|0:0,0:0:0:0:
70,347,7349,2,0,B|80:308|80:308|108:280,1,80,2|0,0:0|0:0,0:0:0:0:
176,231,7849,2,0,P|183:192|176:153,1,80,2|0,0:0|0:0,0:0:0:0:
108,104,8349,6,0,B|80:76|80:76|70:36,1,80,2|0,0:0|0:0,0:0:0:0:
151,37,8849,2,0,B|156:56|176:72|200:72|200:72|215:72,1,80,2|0,0:0|0:0,0:0:0:0:
296,72,9349,2,0,B|312:72|312:72|336:72|356:56|361:37,1,80,2|0,0:0|0:0,0:0:0:0:
441,36,9849,6,0,B|432:76|432:76|404:104,1,80,2|0,0:0|0:0,0:0:0:0:
336,153,10349,2,0,P|329:192|336:231,1,80,2|0,0:0|0:0,0:0:0:0:
404,280,10849,1,2,0:0:0:0:
336,329,11099,1,0,0:0:0:0:
404,280,11349,2,0,L|484:280,1,80,2|0,0:0|0:0,0:0:0:0:
336,329,11849,2,0,L|256:329,1,80,2|0,0:0|0:0,0:0:0:0:
188,378,12349,5,2,0:0:0:0:
120,329,12599,1,0,0:0:0:0:
188,280,12849,2,0,P|196:241|188:202,1,80,2|0,0:0|0:0,0:0:0:0:
120,153,13349,2,0,B|108:137|108:137|68:137|68:137|56:153,1,80,2|0,0:0|0:0,0:0:0:0:
188,104,13849,2,0,B|200:120|200:120|240:120|240:120|252:104,1,80,2|0,0:0|0:0,0:0:0:0:
120,55,14349,5,2,0:0:0:0:
120,55,14849,1,2,0:0:0:0:
188,104,15099,1,0,0:0:0:0:
120,153,15349,2,0,B|104:213|120:273,2,120,2|2|2,0:0|0:0|0:0,0:0:0:0:
188,104,16349,6,0,P|256:68|324:104,1,160,2|2,0:0|0:0,0:0:0:0:
392,153,17099,1,0,0:0:0:0:
323,201,17349,2,0,P|302:234|295:273,1,80,2|0,0:0|0:0,0:0:0:0:
188,202,17849,2,0,P|209:235|216:274,1,80,2|0,0:0|0:0,0:0:0:0:
152,324,18349,5,2,0:0:0:0:
216,374,18599,1,0,0:0:0:0:
296,374,18849,1,2,0:0:0:0:
360,324,19099,1,0,0:0:0:0:
295,274,19349,6,0,P|302:235|323:202,1,80,2|0,0:0|0:0,0:0:0:0:
216,274,19849,2,0,P|209:235|188:202,1,80,2|0,0:0|0:0,0:0:0:0:
256,160,20349,5,2,0:0:0:0:
188,117,20599,1,0,0:0:0:0:
256,74,20849,2,0,P|308:49|360:74,1,120,2|0,0:0|0:0,0:0:0:0:
360,74,21349,2,0,L|416:17,1,80,2|0,0:0|0:0,0:0:0:0:
472,74,21849,6,0,B|483:113|472:152,1,80,2|0,0:0|0:0,0:0:0:0:
416,209,22349,2,0,L|360:152,1,80,2|0,0:0|0:0,0:0:0:0:
296,200,22849,1,2,0:0:0:0:
216,200,23099,1,0,0:0:0:0:
152,152,23349,2,0,B|100:152|100:152|92:156|92:156|84:160|84:160|33:160,2,120,2|2|2,0:0|0:0|0:0,0:0:0:0:
216,104,24349,6,0,B|252:72|256:37|256:37|260:72|296:104,1,160,2|0,0:0|0:0,0:0:0:0:
360,152,25099,2,0,L|320:306,1,160,2|2,0:0|0:0,0:0:0:0:
256,260,25849,1,0,0:0:0:0:
191,306,26099,2,0,L|152:152,1,160,2|0,0:0|0:0,0:0:0:0:
216,104,26849,6,0,L|195:25,1,80,2|0,0:0|0:0,0:0:0:0:
296,104,27349,2,0,L|315:26,1,80,2|0,0:0|0:0,0:0:0:0:
256,172,27849,1,2,0:0:0:0:
256,172,28099,1,2,0:0:0:0:
296,240,28349,6,0,B|288:268|256:282|256:282|224:268|216:240,1,120,2|0,0:0|0:0,0:0:0:0:
215,240,28849,2,0,P|197:274|161:291,1,80,2|0,0:0|0:0,0:0:0:0:
220,348,29349,2,0,P|256:363|292:348,1,80,2|0,0:0|0:0,0:0:0:0:
350,291,29849,2,0,P|314:274|296:240,1,80,2|0,0:0|0:0,0:0:0:0:
256,172,30349,2,0,L|256:92,1,80,2|0,0:0|0:0,0:0:0:0:
208,17,30849,6,0,P|256:5|304:17,1,100,2|2,0:0|0:0,0:0:0:0:
331,17,31349,2,0,B|361:1|385:13|389:17|393:21|417:33|447:17,1,120,2|2,0:0|0:0,0:0:0:0:
446,97,31974,1,2,0:0:0:0:
331,97,32349,6,0,B|364:120|378:159,1,80,2|0,0:0|0:0,0:0:0:0:
181,97,32849,2,0,B|148:120|133:159,1,80,2|0,0:0|0:0,0:0:0:0:
184,220,33349,1,2,0:0:0:0:
256,256,33599,1,0,0:0:0:0:
328,220,33849,1,2,0:0:0:0:
256,184,34099,1,0,0:0:0:0:
184,220,34349,6,0,P|169:256|184:292,1,80,2|0,0:0|0:0,0:0:0:0:
292,364,34849,2,0,B|256:346|256:346|220:364,1,80,2|0,0:0|0:0,0:0:0:0:
328,292,35349,2,0,P|343:256|328:220,1,80,2|0,0:0|0:0,0:0:0:0:
256,184,35849,1,2,0:0:0:0:
184,220,36099,1,0,0:0:0:0:
256,184,36349,6,0,L|256:24,1,160,2|2,0:0|0:0,0:0:0:0:
188,64,37099,2,0,P|256:100|324:64,1,160,0|0,0:0|0:0,0:0:0:0:
392,104,37849,6,0,P|430:93|468:104,1,80,2|0,0:0|0:0,0:0:0:0:
430,176,38349,2,0,P|441:214|430:252,1,80,2|0,0:0|0:0,0:0:0:0:
358,214,38849,1,2,0:0:0:0:
286,252,39099,5,0,0:0:0:0:
286,252,39224,1,2,0:0:0:0:
286,252,39349,1,0,0:0:0:0:
358,290,39599,1,2,0:0:0:0:
286,328,39849,2,0,B|264:344|256:378|256:378|248:344|226:328,2,120,2|2|0,0:0|0:0|0:0,0:0:0:0:
358,290,40849,6,0,B|380:278|388:264|388:264|396:278|418:290,1,80,2|0,0:0|0:0,0:0:0:0:
286,252,41349,2,0,B|264:240|256:226|256:226|248:240|226:252,1,80,2|0,0:0|0:0,0:0:0:0:
154,214,41849,1,2,0:0:0:0:
82,176,42099,5,0,0:0:0:0:
82,176,42224,1,2,0:0:0:0:
82,176,42349,2,0,B|103:131|156:124|188:140|188:140|211:112,1,160,0|2,0:0|0:0,0:0:0:0:
256,44,43099,1,0,0:0:0:0:
300,112,43349,2,0,L|380:112,1,80,2|0,0:0|0:0,0:0:0:0:
256,180,43849,1,2,0:0:0:0:
300,248,44099,5,0,0:0:0:0:
300,248,44224,1,2,0:0:0:0:
300,248,44349,2,0,B|268:268|256:312|256:312|244:268|212:248,1,160,0|2,0:0|0:0,0:0:0:0:
168,316,45105,2,0,L|209:384,1,80,2|0,0:0|0:0,0:0:0:0:
256,312,45609,1,0,0:0:0:0:
302,384,45861,2,0,L|344:316,1,80,2|0,0:0|0:0,0:0:0:0:
412,272,46365,5,2,0:0:0:0:
412,192,46617,1,2,0:0:0:0:
412,112,46870,1,0,0:0:0:0:
344,152,47122,1,0,0:0:0:0:
344,152,47233,1,2,0:0:0:0:
344,152,47344,1,0,0:0:0:0:
344,232,47596,1,2,0:0:0:0:
272,192,47848,2,0,L|192:192,1,80,2|0,0:0|0:0,0:0:0:0:
128,140,48353,6,0,B|128:172|103:192|103:192|128:212|128:244,2,120,2|2|2,0:0|0:0|0:0,0:0:0:0:
64,88,49348,1,0,0:0:0:0:
128,36,49597,2,0,B|208:36,2,80,2|0|0,0:0|0:0|0:0,0:0:0:0:
64,88,50311,6,0,B|24:88|24:88|1:120,1,80,2|0,0:0|0:0,0:0:0:0:
36,192,50813,1,2,0:0:0:0:
1,263,51064,1,0,0:0:0:0:
1,263,51189,1,2,0:0:0:0:
1,263,51315,2,0,B|24:296|24:296|64:296,1,80,0|2,0:0|0:0,0:0:0:0:
128,348,51817,2,0,L|248:348,1,120,2|2,0:0|0:0,0:0:0:0:
288,348,52319,1,0,0:0:0:0:
344,290,52570,6,0,L|415:255,1,80,2|0,0:0|0:0,0:0:0:0:
288,192,53072,2,0,B|368:192,1,80,2|0,0:0|0:0,0:0:0:0:
344,93,53574,2,0,L|415:128,1,80,2|0,0:0|0:0,0:0:0:0:
463,192,54055,1,2,0:0:0:0:
416,256,54312,6,0,B|376:256|376:256|328:256|300:292|300:332,1,160,2|2,0:0|0:0,0:0:0:0:
256,248,55062,1,0,0:0:0:0:
212,331,55312,2,0,L|132:331,1,80,2|2,0:0|0:0,0:0:0:0:
300,331,55812,2,0,L|380:331,1,80,0|2,0:0|0:0,0:0:0:0:
256,248,56337,5,2,0:0:0:0:
256,248,56581,2,0,B|256:221|256:221|260:213|260:213|252:213|252:213|256:205|256:205|256:178,1,80,2|0,0:0|0:0,0:0:0:0:
208,112,57071,2,0,B|168:112|168:112|139:83,1,80,2|0,0:0|0:0,0:0:0:0:
304,112,57554,2,0,B|344:112|344:112|372:83,1,80,2|0,0:0|0:0,0:0:0:0:
256,47,58052,5,0,0:0:0:0:
256,47,58183,1,2,0:0:0:0:
256,47,58313,2,0,L|256:287,1,240
176,291,59303,2,0,B|208:356|208:356|304:356|304:356|336:291,1,240,2|0,0:0|0:0,0:0:0:0:
296,219,60307,6,0,B|256:264|256:264|216:219,1,120,2|2,0:0|0:0,0:0:0:0:
256,152,60934,1,2,0:0:0:0:
300,28,61349,6,0,B|338:6|376:28,1,80,2|0,0:3|0:0,0:0:0:0:
212,28,61849,2,0,B|174:6|136:28,1,80,8|0,0:3|0:0,0:0:0:0:
212,113,62349,2,0,P|256:147|300:113,1,120,2|0,0:3|0:0,0:0:0:0:
340,112,62849,1,2,0:0:0:0:
340,192,63099,1,2,0:0:0:0:
340,192,63349,6,0,B|340:272,1,80,2|2,0:3|0:0,0:0:0:0:
172,192,63926,2,0,B|172:272,1,80,2|2,0:0|0:0,0:0:0:0:
256,348,64373,6,0,B|256:268,1,80,2|2,0:3|0:0,0:0:0:0:
308,208,64881,1,0,0:0:0:0:
256,148,65117,1,0,0:0:0:0:
204,208,65353,2,0,L|124:208,1,80,2|0,0:3|0:0,0:0:0:0:
308,208,65848,2,0,L|388:208,1,80,8|0,0:3|0:0,0:0:0:0:
256,148,66344,5,2,0:0:0:0:
204,88,66619,1,2,0:0:0:0:
256,28,66894,1,2,0:0:0:0:
256,28,67355,6,0,P|292:13|328:28,1,80,2|0,0:3|0:0,0:0:0:0:
452,88,67842,2,0,P|416:73|380:88,1,80,8|0,0:3|0:0,0:0:0:0:
328,148,68330,2,0,P|379:252|328:356,1,240,2|0,0:3|0:0,0:0:0:0:
256,304,69281,5,2,0:3:0:0:
184,356,69536,2,0,B|81:233,1,160,2|0,0:0|0:0,0:0:0:0:
81,150,70315,2,0,B|184:28,1,160,2|0,0:3|0:0,0:0:0:0:
256,64,71082,1,0,0:0:0:0:
328,27,71354,2,0,L|328:107,1,80,2|0,0:3|0:0,0:0:0:0:
184,27,71853,2,0,L|184:107,1,80,8|0,0:3|0:0,0:0:0:0:
184,187,72352,6,0,B|184:228|184:228|169:264,1,80,2|2,0:3|0:0,0:0:0:0:
212,340,72851,1,2,0:0:0:0:
300,340,73100,1,0,0:0:0:0:
342,264,73350,2,0,B|328:228|328:228|328:187,1,80,2|2,0:3|0:0,0:0:0:0:
256,136,73849,1,2,0:0:0:0:
256,136,74099,1,0,0:0:0:0:
184,187,74348,5,2,0:3:0:0:
256,220,74598,1,2,0:0:0:0:
328,187,74847,1,8,0:3:0:0:
328,187,75347,6,0,B|396:187|396:187|404:178|404:178|412:187|412:187|480:187,1,160,2|2,0:0|0:0,0:0:0:0:
328,84,76345,2,0,P|256:54|184:84,1,160,2|2,0:0|0:0,0:0:0:0:
32,187,77344,2,0,B|100:187|100:187|108:178|108:178|116:187|116:187|184:187,1,160,2|2,0:0|0:0,0:0:0:0:
96,320,78344,5,2,0:3:0:0:
256,320,78844,1,2,0:3:0:0:
416,320,79344,1,2,0:3:0:0:
256,320,79827,1,2,0:3:0:0:
96,320,80311,6,0,B|76:292|92:264|96:264|100:264|116:236|96:208,2,120,2|2|2,0:0|0:0|0:0,0:0:0:0:
176,280,81344,6,0,B|217:211,1,80,2|0,0:3|0:0,0:0:0:0:
336,280,81835,2,0,B|294:211,1,80,8|0,0:3|0:0,0:0:0:0:
256,132,82327,5,2,0:3:0:0:
308,360,84344,6,0,P|356:340|404:360,2,106.666666666667,2|2|2,0:0|0:0|0:0,0:0:0:0:
204,360,85319,2,0,P|156:340|108:360,2,106.666666666667,2|2|2,0:0|0:0|0:0,0:0:0:0:
308,360,86264,5,4,1:0:0:0:
256,192,86744,1,0,3:0:0:0:
308,24,87224,1,0,3:0:0:0:
256,192,87704,1,0,3:0:0:0:
204,24,88184,6,0,P|156:44|108:24,2,106.666666666667,4|2|2,1:0|0:0|0:0,0:0:0:0:
308,24,89144,2,0,P|356:44|404:24,2,106.666666666667,2|2|2,0:0|0:0|0:0,0:0:0:0:
204,24,90104,5,4,1:0:0:0:
256,192,90584,1,0,3:0:0:0:
204,360,91064,1,0,3:0:0:0:
256,192,91544,1,0,3:0:0:0:
216,112,91784,5,0,0:0:0:0:
216,112,91904,1,2,0:0:0:0:
216,112,92024,2,0,B|256:104|296:112,1,80,4|4,1:0|3:0,0:0:0:0:
296,272,92504,2,0,B|256:280|216:272,1,80,4|4,3:0|3:0,0:0:0:0:
256,192,92984,5,4,3:0:0:0:
296,272,93224,1,4,3:0:0:0:
336,192,93464,1,4,3:0:0:0:
376,112,93704,5,0,3:0:0:0:
376,112,93824,1,0,3:0:0:0:
376,112,93944,2,0,B|332:96|316:62|316:62|300:96|256:112,1,160,2|0,1:2|0:0,0:0:0:0:
188,43,94664,2,0,B|149:53|149:53|110:43,1,80,2|0,1:2|0:0,0:0:0:0:
41,112,95144,5,0,0:0:0:0:
41,112,95264,1,0,0:0:0:0:
41,112,95384,2,0,P|17:156|41:200,1,103.999995239258,10|0,1:2|0:0,0:0:0:0:
110,268,95864,6,0,L|166:324,1,80,2|0,1:2|0:0,0:0:0:0:
256,288,96344,1,0,0:0:0:0:
345,324,96584,2,0,L|402:268,1,80,2|0,1:2|0:0,0:0:0:0:
471,200,97064,5,0,0:0:0:0:
471,200,97184,1,0,0:0:0:0:
471,200,97304,2,0,P|495:156|471:112,1,103.999995239258,10|0,1:2|0:0,0:0:0:0:
402,43,97784,6,0,B|362:43|362:43|333:71,1,80,2|0,1:2|0:0,0:0:0:0:
256,16,98264,1,0,0:0:0:0:
178,71,98504,2,0,B|150:43|150:43|110:43,1,80,2|0,1:2|0:0,0:0:0:0:
256,127,98984,5,0,0:0:0:0:
256,127,99104,1,0,0:0:0:0:
256,127,99224,2,0,B|256:231,1,103.999995239258,10|0,1:2|0:0,0:0:0:0:
352,231,99704,6,0,B|320:252|308:296,1,80,2|0,1:2|0:0,0:0:0:0:
256,376,100184,1,0,0:0:0:0:
204,296,100424,1,2,1:2:0:0:
204,296,100544,1,0,0:0:0:0:
204,296,100664,2,0,B|192:252|160:231,1,80,0|0,0:0|0:0,0:0:0:0:
208,152,101144,6,0,P|256:169|304:152,1,103.999995239258,10|0,1:2|0:0,0:0:0:0:
256,68,101624,5,2,1:2:0:0:
208,152,101864,1,0,0:0:0:0:
256,68,102104,1,0,0:0:0:0:
304,152,102344,1,2,1:2:0:0:
304,152,102464,1,0,0:0:0:0:
304,152,102584,1,0,0:0:0:0:
256,236,102824,1,0,0:0:0:0:
304,320,103064,6,0,P|256:337|208:320,1,103.999995239258,10|0,1:2|0:0,0:0:0:0:
256,236,103544,6,0,B|324:208|376:256|376:256|406:256,1,160,2|0,1:2|0:0,0:0:0:0:
480,192,104264,1,2,1:2:0:0:
407,128,104504,1,0,0:0:0:0:
480,64,104744,1,0,0:0:0:0:
480,64,104864,1,0,0:0:0:0:
480,64,104984,1,10,1:2:0:0:
407,128,105224,1,0,0:0:0:0:
334,64,105464,6,0,B|295:56|295:56|256:64,1,80,2|0,1:2|0:0,0:0:0:0:
183,128,105944,1,0,0:0:0:0:
110,64,106184,2,0,B|71:56|71:56|32:64,1,80,2|0,1:2|0:0,0:0:0:0:
71,151,106664,5,0,0:0:0:0:
71,151,106784,1,0,0:0:0:0:
71,151,106904,2,0,B|92:160|100:192|100:192|92:224|71:233,1,103.999995239258,10|0,1:2|0:0,0:0:0:0:
32,320,107384,6,0,B|71:328|71:328|110:320,1,80,2|0,1:2|0:0,0:0:0:0:
183,256,107864,1,0,0:0:0:0:
255,319,108104,1,2,1:2:0:0:
255,319,108224,1,0,0:0:0:0:
255,319,108344,2,0,B|280:272|320:272|320:272|355:272,1,120,0|0,0:0|0:0,0:0:0:0:
403,272,108824,1,10,1:2:0:0:
352,192,109064,1,0,0:0:0:0:
404,112,109304,6,0,B|420:60|384:20|344:20|344:20|312:20,1,160,4|2,1:2|0:0,0:0:0:0:
108,112,110024,2,0,B|92:60|128:20|168:20|168:20|200:20,1,160,4|0,1:2|0:0,0:0:0:0:
256,96,110744,1,10,1:2:0:0:
199,172,110984,6,0,B|212:212|256:222|256:222|300:212|313:172,1,160,4|0,0:0|0:0,0:0:0:0:
256,96,111704,1,10,0:0:0:0:
199,172,111944,2,0,B|160:198|163:239|166:240|170:242|173:283|134:309,1,160,4|0,1:2|0:0,0:0:0:0:
208,372,112664,1,10,1:2:0:0:
304,372,112904,1,0,0:0:0:0:
377,309,113144,6,0,B|338:283|341:242|345:240|348:239|351:198|313:172,1,160,4|2,1:2|0:0,0:0:0:0:
256,96,113864,2,0,L|256:16,1,80,4|0,1:2|0:0,0:0:0:0:
199,172,114344,2,0,L|199:252,1,80,0|10,0:0|1:2,0:0:0:0:
142,96,114824,1,4,0:0:0:0:
85,172,115064,5,2,3:0:0:0:
28,96,115304,1,0,3:0:0:0:
85,20,115544,1,2,3:0:0:0:
142,96,115784,1,8,1:2:0:0:
85,172,116024,5,2,3:0:0:0:
28,248,116264,1,2,3:0:0:0:
85,324,116504,1,8,1:2:0:0:
142,248,116744,1,2,3:0:0:0:
85,172,116984,6,0,P|75:134|85:96,1,80,4|0,1:0|0:0,0:0:0:0:
142,18,117464,1,0,0:0:0:0:
199,96,117704,2,0,P|209:134|199:172,1,80,4|0,1:0|0:0,0:0:0:0:
256,248,118184,1,0,0:0:0:0:
313,172,118424,2,0,P|303:134|313:96,1,80,10|0,1:2|0:0,0:0:0:0:
370,18,118904,6,0,L|412:96,1,88.000002685547,4|0,1:0|0:0,0:0:0:0:
411,192,119384,1,0,0:0:0:0:
412,288,119624,2,0,L|370:366,1,88.000002685547,4|0,1:0|0:0,0:0:0:0:
208,288,120104,1,0,0:0:0:0:
304,288,120344,1,10,1:2:0:0:
304,288,120584,1,0,0:0:0:0:
142,365,120824,6,0,P|96:376|50:365,1,95.9999970703126,4|0,1:0|0:0,0:0:0:0:
96,288,121304,1,0,0:0:0:0:
50,211,121544,2,0,P|96:200|142:211,1,95.9999970703126,4|0,1:0|0:0,0:0:0:0:
304,288,122024,1,0,0:0:0:0:
208,288,122264,1,10,1:2:0:0:
208,288,122504,1,0,0:0:0:0:
370,211,122744,6,0,L|296:136,1,103.999995239258,4|0,1:0|0:0,0:0:0:0:
142,211,123227,2,0,L|215:136,1,103.999995239258,4|0,1:0|0:0,0:0:0:0:
256,40,123711,5,8,1:2:0:0:
297,137,123953,1,8,1:2:0:0:
256,234,124193,1,8,1:2:0:0:
215,137,124420,1,8,1:2:0:0:
256,40,124665,5,2,0:0:0:0:
297,137,124905,1,2,0:0:0:0:
256,234,125145,1,2,0:0:0:0:
215,137,125385,6,0,P|131:97|47:137,1,191.999994140625,4|0,0:0|0:0,0:0:0:0:
131,192,126105,1,10,1:2:0:0:
47,247,126345,2,0,P|131:287|215:247,1,191.999994140625,4|0,0:0|0:0,0:0:0:0:
131,192,127065,1,10,1:2:0:0:
215,137,127305,2,0,B|241:137|256:116|256:116|271:137|297:137,1,95.9999970703126,4|4,0:0|3:0,0:0:0:0:
381,192,127785,1,0,0:0:0:0:
297,247,128025,1,10,1:2:0:0:
381,192,128265,5,2,3:0:0:0:
381,192,128385,1,2,3:0:0:0:
381,192,128505,2,0,L|477:192,1,95.9999970703126,4|0,0:0|0:0,0:0:0:0:
477,82,128985,2,0,L|381:82,1,95.9999970703126,10|0,1:2|0:0,0:0:0:0:
297,137,129465,5,2,3:0:0:0:
381,192,129705,1,2,3:0:0:0:
381,192,129825,1,2,3:0:0:0:
381,192,129945,1,10,1:2:0:0:
297,247,130185,1,10,1:2:0:0:
213,192,130425,6,0,B|162:192|162:192|154:188|154:188|154:196|154:196|146:192|146:192|95:192,1,128
32,124,131145,6,0,B|68:48|152:48|152:48|192:48,1,191.999994140625,4|0,0:0|0:0,0:0:0:0:
256,120,131865,1,10,1:2:0:0:
319,48,132105,2,0,B|360:48|360:48|444:48|480:124,1,191.999994140625,4|0,0:0|0:0,0:0:0:0:
411,192,132825,1,2,0:0:0:0:
411,192,133065,1,2,1:2:0:0:
480,260,133305,6,0,P|496:304|480:348,1,95.9999970703126,4|0,3:0|0:0,0:0:0:0:
342,260,133785,2,0,P|326:304|342:348,1,95.9999970703126,10|0,1:2|0:0,0:0:0:0:
170,260,134265,2,0,P|186:304|170:348,1,95.9999970703126,4|0,3:0|0:0,0:0:0:0:
32,260,134745,2,0,P|16:304|32:348,1,95.9999970703126,2|2,0:0|1:2,0:0:0:0:
170,260,135225,6,0,L|203:226,3,47.9999985351563,4|0|0|0,3:0|3:0|3:0|3:0,0:0:0:0:
256,226,135705,5,10,1:2:0:0:
284,226,135825,1,0,3:0:0:0:
312,226,135945,1,10,1:2:0:0:
340,226,136065,1,0,3:0:0:0:
368,226,136184,6,0,L|328:138,1,95.9999970703126,4|2,0:0|0:0,0:0:0:0:
256,76,136669,1,0,0:0:0:0:
256,76,136912,1,2,0:0:0:0:
183,138,137155,2,0,L|144:226,1,95.9999970703126,8|2,1:2|0:0,0:0:0:0:
208,300,137641,1,0,0:0:0:0:
304,300,137884,1,2,0:0:0:0:
368,226,138116,6,0,L|328:138,1,95.9999970703126,4|2,3:0|0:0,0:0:0:0:
256,234,138596,2,0,L|256:138,1,95.9999970703126,0|2,0:0|0:0,0:0:0:0:
144,226,139076,2,0,L|183:138,1,95.9999970703126,8|2,1:2|0:0,0:0:0:0:
256,64,139556,1,0,0:0:0:0:
329,138,139790,5,2,3:0:0:0:
329,138,139907,1,2,3:0:0:0:
329,138,140024,2,0,B|376:138|376:138|410:103,1,95.9999970703126,4|2,0:0|0:0,0:0:0:0:
496,148,140511,2,0,B|478:192|478:192|496:236,1,95.9999970703126,0|2,0:0|0:0,0:0:0:0:
410,280,140999,2,0,B|376:246|376:246|329:246,1,95.9999970703126,8|2,1:2|0:0,0:0:0:0:
248,192,141487,2,0,L|184:192,2,63.9999980468751,0|2|2,0:0|0:0|0:0,0:0:0:0:
248,192,141944,5,4,3:0:0:0:
329,138,142186,1,2,0:0:0:0:
248,84,142429,2,0,P|204:68|160:84,1,95.9999970703126,0|2,0:0|0:0,0:0:0:0:
79,138,142915,2,0,B|126:192|126:192|79:246,1,143.999995605469,8|0,1:2|0:0,0:0:0:0:
44,280,143401,5,0,0:0:0:0:
124,332,143644,1,2,0:0:0:0:
204,280,143865,6,0,P|256:254|308:280,1,120
308,280,144332,1,0,0:0:0:0:
256,184,144567,1,0,0:0:0:0:
124,332,144824,6,0,B|168:376|168:376|257:345|257:345|344:376|344:376|388:332,1,311.999985717774,4|0,0:0|0:0,0:0:0:0:
308,280,145784,6,0,L|308:184,1,95.9999970703126,4|0,0:0|0:0,0:0:0:0:
204,280,146312,5,0,0:0:0:0:
204,280,146576,1,0,0:0:0:0:
204,280,146846,1,0,0:0:0:0:
308,104,147259,6,0,L|308:184,1,80
308,104,147746,5,0,3:0:0:0:
204,280,148222,6,0,B|195:319|195:319|204:358,1,80,0|0,3:0|3:0,0:0:0:0:
308,280,148698,2,0,B|317:319|317:319|308:358,1,80,0|0,3:0|3:0,0:0:0:0:
204,280,149174,5,0,3:0:0:0:
256,192,149412,1,0,3:0:0:0:
308,280,149650,5,8,1:2:0:0:
360,192,149886,1,8,1:2:0:0:
308,104,150122,1,8,1:2:0:0:
256,192,150358,1,8,1:2:0:0:
204,104,150594,5,8,1:2:0:0:
152,192,150831,1,8,1:2:0:0:
204,280,151067,1,8,1:2:0:0:
256,192,151317,1,8,1:2:0:0:
308,280,151544,6,0,P|256:312|204:280,1,128,4|0,0:0|0:0,0:0:0:0:
256,192,152264,2,0,P|204:224|152:192,1,128,2|0,0:0|0:0,0:0:0:0:
204,104,152984,2,0,L|204:40,1,64,2|0,0:0|0:0,0:0:0:0:
308,104,153464,6,0,B|372:104|372:104|422:143,1,128,2|0,0:0|0:0,0:0:0:0:
422,240,154184,2,0,B|372:280|372:280|308:280,1,128,2|0,0:0|0:0,0:0:0:0:
256,192,154904,5,4,3:0:0:0:
256,192,155144,1,4,3:0:0:0:
204,280,155384,6,0,P|256:312|308:280,1,128,4|0,0:0|0:0,0:0:0:0:
256,192,156104,2,0,P|308:224|360:192,1,128,2|0,0:0|0:0,0:0:0:0:
308,104,156824,2,0,L|308:40,1,64,2|0,0:0|0:0,0:0:0:0:
204,104,157304,6,0,B|140:104|140:104|89:143,1,128,2|0,0:0|0:0,0:0:0:0:
89,240,158024,2,0,B|140:280|140:280|204:280,1,128,2|8,0:0|3:0,0:0:0:0:
256,192,158744,5,4,3:0:0:0:
256,192,158984,1,8,3:0:0:0:
308,280,159224,6,0,L|350:159,1,128,4|0,0:0|0:0,0:0:0:0:
204,280,159944,2,0,L|161:159,1,128,2|0,0:0|0:0,0:0:0:0:
224,80,160664,2,0,L|288:80,1,64,2|0,0:0|0:0,0:0:0:0:
350,159,161144,6,0,B|350:198|350:198|350:246|306:270,1,128,2|0,0:0|0:0,0:0:0:0:
205,270,161864,2,0,B|162:246|162:198|162:198|162:159,1,128,2|8,0:0|3:0,0:0:0:0:
205,66,162584,1,4,3:0:0:0:
307,66,162824,1,8,3:0:0:0:
205,66,163064,6,0,P|256:33|307:66,1,128,4|0,0:0|0:0,0:0:0:0:
256,156,163784,2,0,L|256:284,1,128,2|0,0:0|0:0,0:0:0:0:
228,384,164504,2,0,B|256:368|256:368|284:384,1,64,2|0,0:0|0:0,0:0:0:0:
356,280,164984,6,0,L|356:248,5,26.6666666666667,6|2|2|2|2|2,3:0|0:0|0:0|0:0|0:0|0:0,0:0:0:0:
356,224,165464,2,0,L|356:192,5,26.6666666666667,2|2|2|6|2|2,0:0|0:0|0:0|3:0|0:0|0:0,0:0:0:0:
356,168,165944,6,0,L|356:136,5,26.6666666666667,2|2|2|2|2|2,0:0|0:0|0:0|0:0|0:0|0:0,0:0:0:0:
356,112,166424,2,0,L|356:84,5,26.6666666666667,6|2|2|0|2|2,3:0|0:0|0:0|0:0|0:0|0:0,0:0:0:0:
338,64,166904,6,0,P|410:34|482:64,1,160,12|2,1:0|0:0,0:0:0:0:
410,127,167624,2,0,B|411:213|411:213|375:277,1,160,12|0,1:0|0:0,0:0:0:0:
216,220,168344,2,0,L|296:220,1,80,12|0,1:0|0:0,0:0:0:0:
138,277,168824,2,0,B|101:213|101:213|102:127,1,160,12|2,1:0|0:0,0:0:0:0:
30,64,169544,2,0,P|102:34|174:64,1,160,12|0,1:0|3:0,0:0:0:0:
296,148,170264,2,0,L|216:148,1,80,12|0,1:0|0:0,0:0:0:0:
338,64,170744,6,0,B|416:64|416:64|396:100|416:142,1,160,12|2,1:0|0:0,0:0:0:0:
416,241,171464,2,0,B|396:284|416:320|416:320|338:320,1,160,12|0,1:0|0:0,0:0:0:0:
256,268,172184,1,12,1:0:0:0:
256,268,172424,1,0,0:0:0:0:
174,320,172664,2,0,B|96:320|96:320|116:284|97:241,1,160,12|2,1:0|0:0,0:0:0:0:
97,142,173384,2,0,B|116:100|96:64|96:64|174:64,1,160,12|0,1:0|0:0,0:0:0:0:
256,116,174104,1,12,1:0:0:0:
256,116,174344,1,0,0:0:0:0:
338,64,174584,6,0,L|305:220,1,160,12|2,1:0|0:0,0:0:0:0:
174,64,175304,2,0,L|208:220,1,160,12|0,1:0|0:0,0:0:0:0:
256,384,176024,2,0,L|256:304,1,80,12|0,1:0|0:0,0:0:0:0:
304,220,176504,6,0,B|268:200|256:159|256:159|244:200|208:220,1,160,12|2,1:0|0:0,0:0:0:0:
256,304,177224,2,0,B|292:324|304:365|304:365|316:324|352:304,1,160,12|0,1:0|0:0,0:0:0:0:
304,220,177944,1,12,1:0:0:0:
208,220,178184,1,0,0:0:0:0:
160,304,178424,6,0,B|196:324|208:365|208:365|220:324|256:304,1,160,12|2,1:0|0:0,0:0:0:0:
208,220,179144,2,0,B|172:200|160:159|160:159|148:200|112:220,1,160,12|0,1:0|0:0,0:0:0:0:
63,137,179864,2,0,L|24:67,1,80,12|0,1:0|0:0,0:0:0:0:
92,0,180344,6,0,B|113:38|113:38|132:77|176:93|211:68,1,160,12|2,1:0|0:0,0:0:0:0:
302,68,181064,2,0,B|336:93|380:77|399:38|399:38|420:0,1,160,12|0,1:0|0:0,0:0:0:0:
489,67,181784,2,0,L|449:137,1,80,12|0,1:0|0:0,0:0:0:0:
400,220,182264,5,12,1:0:0:0:
400,316,182511,1,0,0:0:0:0:
304,316,182759,1,4,3:0:0:0:
304,220,183007,1,4,3:0:0:0:
208,220,183229,5,12,1:0:0:0:
208,316,183473,1,0,0:0:0:0:
112,316,183718,1,4,3:0:0:0:
112,220,183963,1,4,3:0:0:0:
112,124,184193,6,0,B|152:124|152:124|181:95,1,80,12|0,1:0|0:0,0:0:0:0:
256,36,184676,1,4,3:0:0:0:
256,36,184918,1,4,3:0:0:0:
332,96,185160,2,0,B|361:124|361:124|401:124,1,80,12|0,1:0|0:0,0:0:0:0:
468,192,185647,1,4,3:0:0:0:
468,192,185891,1,4,3:0:0:0:
400,260,186105,6,0,B|360:260|360:260|332:288,1,80,12|0,1:0|0:0,0:0:0:0:
256,348,186592,1,4,3:0:0:0:
256,348,186836,1,4,3:0:0:0:
180,288,187080,2,0,B|152:259|152:259|112:259,1,80,12|0,1:0|0:0,0:0:0:0:
44,192,187568,1,4,3:0:0:0:
44,192,187812,1,4,3:0:0:0:
112,124,188024,6,0,B|152:124|152:124|181:95,1,80,12|0,1:0|0:0,0:0:0:0:
112,260,188541,2,0,B|152:260|152:260|181:288,1,80,4|4,3:0|3:0,0:0:0:0:
256,192,189036,6,0,L|376:192,1,120,12|0,1:0|0:0,0:0:0:0:
432,244,189608,6,0,P|458:192|432:140,1,120,12|0,1:0|0:0,0:0:0:0:
489,88,190299,6,0,B|408:88|408:88|353:32,1,160,12|2,1:0|0:0,0:0:0:0:
160,32,192096,2,0,B|104:88|104:88|23:88,1,160,2|2,0:0|3:2,0:0:0:0:
112,252,193899,6,0,P|256:312|400:252,1,320,2|2,0:0|0:0,0:0:0:0:
256,192,196689,1,2,3:2:0:0:
400,132,197619,2,0,P|256:72|112:132,1,320,4|2,0:0|0:0,0:0:0:0:
256,192,200346,1,2,3:2:0:0:
112,252,201255,1,2,3:2:0:0:
112,252,201482,1,2,0:0:0:0:
112,252,201709,1,2,0:0:0:0:
195,192,202164,6,0,L|219:74,1,120,2|0,0:0|0:0,0:0:0:0:
294,74,203073,2,0,L|317:192,1,120,2|0,0:0|0:0,0:0:0:0:
304,264,203982,6,0,P|256:294|208:264,1,120,2|0,0:0|0:0,0:0:0:0:
133,264,204891,6,0,B|97:264|97:264|77:225|77:225|57:264|57:264|21:264,1,160,2|2,3:2|0:0,0:0:0:0:
379,264,206709,2,0,B|415:264|415:264|435:225|435:225|455:264|455:264|491:264,1,160,2|2,0:0|0:0,0:0:0:0:
304,264,208073,1,2,3:2:0:0:
208,264,208528,1,2,3:2:0:0:
208,264,209362,5,2,0:0:0:0:
256,180,209879,1,2,3:2:0:0:
304,264,210289,6,0,L|304:304,1,40,8|0,3:0|0:0,0:0:0:0:
208,264,210750,2,0,L|208:304,1,40,8|0,3:0|0:0,0:0:0:0:
304,264,211212,6,0,L|344:264,1,40,8|0,3:0|0:0,0:0:0:0:
256,180,211673,2,0,L|256:140,1,40,8|0,3:0|0:0,0:0:0:0:
208,264,212135,2,0,L|168:264,1,40,8|0,3:0|0:0,0:0:0:0:
229,348,212589,6,0,L|283:348,3,53.3333333333333,8|8|8|8,3:0|3:0|3:0|3:0,0:0:0:0:
256,264,213427,1,8,3:0:0:0:
276,180,213723,6,0,L|236:180,1,40,8|8,3:0|3:0,0:0:0:0:
276,96,214028,6,0,L|236:96,1,40,8|0,3:0|0:0,0:0:0:0:
168,264,215381,6,0,P|256:369|344:264,1,311.999985717774,4|0,1:0|0:0,0:0:0:0:
300,168,216341,6,0,B|256:196|256:196|212:168,1,103.999995239258,4|0,1:0|0:0,0:0:0:0:
168,264,216821,5,4,3:0:0:0:
256,324,217061,1,0,0:0:0:0:
344,264,217301,1,10,1:2:0:0:
256,324,217541,1,0,0:0:0:0:
168,264,217781,1,4,3:0:0:0:
256,208,218021,1,0,0:0:0:0:
344,264,218261,6,0,L|357:168,1,95.9999970703126,4|0,1:0|0:0,0:0:0:0:
168,264,218741,2,0,L|154:168,1,95.9999970703126,4|0,3:0|0:0,0:0:0:0:
120,68,219221,6,0,B|168:68|168:68|201:34,1,95.9999970703126,10|0,1:2|0:0,0:0:0:0:
392,68,219701,2,0,B|344:68|344:68|310:34,1,95.9999970703126,4|0,3:0|0:0,0:0:0:0:
256,124,220181,6,0,B|256:252,1,128,0|0,0:0|0:0,0:0:0:0:
128,344,221141,6,0,B|172:308|236:332|256:383|256:383|276:332|340:308|384:344,1,311.999985717774,4|0,1:0|0:0,0:0:0:0:
308,252,222101,6,0,B|204:252,1,103.999995239258,4|0,1:0|0:0,0:0:0:0:
256,160,222581,5,4,3:0:0:0:
308,252,222821,1,0,0:0:0:0:
360,160,223061,2,0,L|311:77,1,95.9999970703126,10|0,1:2|0:0,0:0:0:0:
200,77,223541,2,0,L|152:160,1,95.9999970703126,4|0,3:0|0:0,0:0:0:0:
108,252,224021,6,0,B|152:252|152:252|196:279,1,95.9999970703126,4|0,1:0|0:0,0:0:0:0:
315,279,224501,2,0,B|360:252|360:252|404:252,1,95.9999970703126,4|0,3:0|0:0,0:0:0:0:
360,160,224981,5,10,1:2:0:0:
308,68,225221,1,0,0:0:0:0:
256,160,225461,1,10,1:2:0:0:
204,68,225701,1,10,1:2:0:0:
152,160,225941,6,0,P|136:204|152:248,1,95.9999970703126,4|0,1:0|0:0,0:0:0:0:
256,248,226421,1,0,0:0:0:0:
256,248,226661,1,0,0:0:0:0:
360,248,226901,2,0,P|376:204|360:160,1,95.9999970703126,10|0,1:2|0:0,0:0:0:0:
256,160,227381,1,0,0:0:0:0:
256,160,227621,1,0,0:0:0:0:
152,160,227861,5,4,3:0:0:0:
256,84,228101,1,0,0:0:0:0:
360,160,228341,1,0,0:0:0:0:
256,84,228581,1,0,0:0:0:0:
152,160,228821,6,0,P|124:224|152:288,2,143.999995605469,10|0|0,1:2|0:0|0:0,0:0:0:0:
108,64,229781,2,0,L|204:64,1,95.9999970703126,4|0,3:0|0:0,0:0:0:0:
308,64,230261,2,0,L|404:64,1,95.9999970703126,0|0,0:0|0:0,0:0:0:0:
360,160,230741,6,0,P|388:224|360:288,2,143.999995605469,10|0|0,1:2|0:0|0:0,0:0:0:0:
404,64,231701,2,0,L|308:64,1,95.9999970703126,4|0,3:0|0:0,0:0:0:0:
204,64,232181,2,0,L|108:64,1,95.9999970703126,0|0,0:0|0:0,0:0:0:0:
152,160,232661,6,0,P|193:181|208:226,1,95.9999970703126,10|0,1:2|0:0,0:0:0:0:
360,160,233141,2,0,P|318:181|303:226,1,95.9999970703126,0|0,0:0|0:0,0:0:0:0:
256,384,233621,6,0,B|256:348|256:348|252:340|252:340|260:340|260:340|256:332|256:332|256:296,2,96,0|0|0,0:0|0:0|0:0,0:0:0:0:
350,297,234581,6,0,B|506:297,1,155.999992858887,4|0,1:0|0:0,0:0:0:0:
506,244,235061,2,0,B|482:204|482:204|482:154,1,95.9999970703126,0|0,0:0|0:0,0:0:0:0:
482,40,235541,6,0,B|326:40,1,155.999992858887,4|0,1:0|0:0,0:0:0:0:
326,93,236021,2,0,B|350:133|350:133|350:182,1,95.9999970703126,0|0,0:0|0:0,0:0:0:0:
256,228,236501,5,10,1:2:0:0:
256,228,236741,1,0,0:0:0:0:
256,228,236981,1,10,1:2:0:0:
162,182,237221,5,10,1:2:0:0:
162,182,237341,1,10,1:2:0:0:
162,182,237461,2,0,P|118:166|74:182,1,95.9999970703126,4|0,1:0|0:0,0:0:0:0:
74,74,237941,2,0,P|118:90|162:74,1,95.9999970703126,2|2,0:0|0:0,0:0:0:0:
256,128,238421,2,0,B|443:85,1,191.999994140625,10|2,1:2|0:0,0:0:0:0:
443,192,239141,1,2,0:0:0:0:
443,299,239381,6,0,B|396:299|396:299|361:333,1,95.9999970703126,8|0,3:0|0:0,0:0:0:0:
216,248,239861,2,0,P|256:270|296:248,1,95.9999970703126,4|0,3:0|0:0,0:0:0:0:
150,333,240341,2,0,B|116:299|116:299|69:299,1,95.9999970703126,10|0,1:2|0:0,0:0:0:0:
69,192,240821,5,2,3:0:0:0:
69,163,240941,1,2,3:0:0:0:
69,134,241061,1,2,3:0:0:0:
69,105,241181,1,2,3:0:0:0:
69,76,241301,6,0,P|113:60|157:76,1,95.9999970703126,4|0,1:0|0:0,0:0:0:0:
300,168,241781,2,0,P|256:184|212:168,1,95.9999970703126,2|2,0:0|0:0,0:0:0:0:
354,76,242261,2,0,B|381:168|381:168|354:260,1,191.999994140625,10|2,1:2|0:0,0:0:0:0:
208,356,242981,1,2,3:0:0:0:
208,356,243101,1,2,3:0:0:0:
208,356,243221,2,0,L|304:356,1,95.9999970703126,4|0,3:0|0:0,0:0:0:0:
158,260,243700,6,0,B|104:228|104:228|46:228,1,120,8|0,3:0|0:0,0:0:0:0:
46,156,244244,6,0,B|104:156|104:156|158:124,1,120,4|0,3:0|0:0,0:0:0:0:
236,192,244722,6,0,L|182:191,2,53.3333333333333,10|10|10,3:0|3:0|3:0,0:0:0:0:
261,124,245330,6,0,P|428:192|261:260,1,460,4|2,1:0|0:0,0:0:0:0:
256,192,249202,12,4,253152,1:0:0:0:
