osu file format v14

[General]
AudioFilename: Maagalim.mp3
AudioLeadIn: 0
PreviewTime: 41747
Countdown: 1
SampleSet: Normal
StackLeniency: 0.4
Mode: 0
LetterboxInBreaks: 0
WidescreenStoryboard: 0

[Editor]
Bookmarks: 12867,28091,43315,73986,89882,131076
DistanceSpacing: 2
BeatDivisor: 8
GridSize: 4
TimelineZoom: 1.4

[Metadata]
Title:Maagalim
TitleUnicode:מעגלים
Artist:Idan Raichel
ArtistUnicode:עידן רייכל
Creator:- Physical -
Version:Circular
Source:
Tags:Circles Hebrew Single היד החמה HaYad HaChama The Warm Hand
BeatmapID:929659
BeatmapSetID:430958

[Difficulty]
HPDrainRate:5
CircleSize:4
OverallDifficulty:6
ApproachRate:8
SliderMultiplier:1.6
SliderTickRate:1

[Events]
//Background and Video events
0,0,"jpeg.jpg",0,0
//Break Periods
2,68589,73236
//Storyboard Layer 0 (Background)
//Storyboard Layer 1 (Fail)
//Storyboard Layer 2 (Pass)
//Storyboard Layer 3 (Foreground)
//Storyboard Sound Samples

[TimingPoints]
330,447.761194029851,4,1,0,30,1,0
43315,-100,4,1,0,30,0,1
68389,-100,4,1,0,30,0,0
104210,-100,4,1,0,30,0,1
129285,-100,4,1,0,30,0,0
159732,-100,4,1,0,30,0,1
184807,-100,4,1,0,30,0,0

[Colours]
Combo1 : 128,255,128
Combo2 : 0,106,213
Combo3 : 213,0,5
Combo4 : 128,191,255
Combo5 : 255,128,131
Combo6 : 213,133,0
Combo7 : 255,207,128
Combo8 : 0,213,0

[HitObjects]
268,159,330,5,0,0:0:0:0:
336,236,553,2,0,P|346:289|317:340,1,80,8|0,0:0|0:0,0:0:0:0:
234,312,1001,2,0,P|223:258|252:207,1,80,8|0,0:0|0:0,0:0:0:0:
160,158,1449,2,0,L|75:149,2,80
230,80,2121,5,0,0:0:0:0:
333,90,2344,2,0,P|360:146|405:159,1,80,8|0,0:0|0:0,0:0:0:0:
319,242,2792,2,0,P|378:261|419:240,1,80,8|0,0:0|0:0,0:0:0:0:
416,359,3240,2,0,P|472:331|485:286,2,80,8|0|0,0:0|0:0|0:0,0:0:0:0:
324,308,3912,5,0,0:0:0:0:
228,347,4135,2,0,L|139:333,1,80,8|0,0:0|0:0,0:0:0:0:
127,232,4583,2,0,L|206:244,1,80,8|0,0:0|0:0,0:0:0:0:
309,227,5031,1,0,0:0:0:0:
244,147,5255,1,0,0:0:0:0:
206,244,5479,1,0,0:0:0:0:
271,324,5703,5,0,0:0:0:0:
375,325,5927,2,0,P|401:288|400:231,1,80,8|0,0:0|0:0,0:0:0:0:
391,151,6374,2,0,P|369:117|334:98,1,80,8|0,0:0|0:0,0:0:0:0:
230,101,6822,1,8,0:0:0:0:
241,204,7046,1,0,0:0:0:0:
342,228,7270,1,0,0:0:0:0:
331,125,7494,69,0,0:0:0:0:
254,196,7718,2,0,P|252:256|278:298,1,80,8|0,0:0|0:0,0:0:0:0:
359,301,8165,2,0,L|444:292,1,80,8|0,0:0|0:0,0:0:0:0:
487,200,8613,1,0,0:0:0:0:
391,158,8837,1,0,0:0:0:0:
304,216,9061,1,0,0:0:0:0:
303,320,9285,5,0,0:0:0:0:
390,264,9509,2,0,P|400:211|386:168,1,80,8|0,0:0|0:0,0:0:0:0:
296,221,9956,2,0,L|211:220,1,80,8|0,0:0|0:0,0:0:0:0:
131,281,10404,2,0,L|46:280,1,80
30,177,10853,1,0,0:0:0:0:
133,178,11076,5,0,0:0:0:0:
214,242,11300,2,0,P|223:299|205:336,1,80,8|0,0:0|0:0,0:0:0:0:
319,303,11748,2,0,P|376:294|413:312,1,80,8|0,0:0|0:0,0:0:0:0:
380,198,12195,2,0,P|371:141|389:104,1,80,8|0,0:0|0:0,0:0:0:0:
275,137,12643,1,0,0:0:0:0:
252,238,12867,5,0,0:0:0:0:
160,288,13091,1,0,0:0:0:0:
135,295,13203,1,0,0:0:0:0:
109,297,13315,2,0,L|97:151,1,120
123,131,13762,2,0,P|185:123|218:133,1,80
290,180,14210,2,0,P|329:184|368:175,1,80
324,80,14658,69,4,0:0:0:0:
220,94,14882,2,0,P|189:157|215:267,2,160
135,33,16001,2,0,P|79:28|33:49,1,80,8|0,0:0|0:0,0:0:0:0:
98,130,16449,5,0,0:0:0:0:
201,126,16673,2,0,L|227:25,2,80,0|8|0,0:0|0:0|0:0,0:0:0:0:
141,211,17344,1,0,0:0:0:0:
243,190,17568,1,0,0:0:0:0:
191,280,17792,2,0,P|194:332|225:374,1,80,8|0,0:0|0:0,0:0:0:0:
292,295,18240,5,0,0:0:0:0:
355,212,18464,2,0,B|370:152|335:114|335:114|371:119|416:79,2,160
255,182,19583,2,0,P|232:122|236:90,1,80,8|0,0:0|0:0,0:0:0:0:
336,116,20031,5,0,0:0:0:0:
429,162,20255,1,0,0:0:0:0:
340,216,20479,1,8,0:0:0:0:
442,236,20703,1,0,0:0:0:0:
338,238,20927,1,0,0:0:0:0:
416,306,21150,1,0,0:0:0:0:
325,256,21374,1,8,0:0:0:0:
358,353,21598,1,0,0:0:0:0:
259,319,21822,70,0,P|205:315|170:322,1,80
15,191,22494,1,0,0:0:0:0:
179,64,22941,2,0,P|219:69|259:65,2,80,0|8|0,0:0|0:0|0:0,0:0:0:0:
123,153,23613,6,0,P|117:226|132:249,1,80
220,202,24061,1,8,0:0:0:0:
194,302,24285,1,0,0:0:0:0:
290,262,24509,2,0,P|328:254|406:289,1,120
436,322,24956,2,0,P|421:281|430:216,1,80,8|0,0:0|0:0,0:0:0:0:
438,142,25404,5,0,0:0:0:0:
341,180,25628,2,0,B|263:199|263:199|173:160,2,160
391,88,26747,2,0,P|353:74|314:79,1,80,8|0,0:0|0:0,0:0:0:0:
241,154,27195,53,0,0:0:0:0:
226,257,27419,1,0,0:0:0:0:
330,260,27643,1,8,0:0:0:0:
345,157,27867,1,0,0:0:0:0:
241,154,28091,5,0,0:0:0:0:
330,260,28315,1,0,0:0:0:0:
345,157,28538,1,8,0:0:0:0:
239,257,28762,1,8,0:0:0:0:
345,357,28986,5,4,0:0:0:0:
408,274,29210,2,0,P|419:224|406:174,1,80,0|8,0:0|0:0,0:0:0:0:
314,226,29658,2,0,P|274:229|236:219,1,80
154,153,30106,2,0,P|115:142|76:146,2,80,0|8|0,0:0|0:0|0:0,0:0:0:0:
250,115,30777,5,0,0:0:0:0:
346,153,31001,2,0,P|384:142|423:146,1,80,0|8,0:0|0:0,0:0:0:0:
482,233,31449,1,0,0:0:0:0:
482,233,31561,2,0,L|491:362,1,120
390,322,32121,2,0,L|384:238,1,80,8|0,0:0|0:0,0:0:0:0:
430,148,32568,5,0,0:0:0:0:
327,164,32792,2,0,P|275:158|237:141,1,80,0|8,0:0|0:0,0:0:0:0:
157,196,33240,2,0,P|117:198|79:212,1,80
137,299,33688,1,0,0:0:0:0:
232,258,33912,1,8,0:0:0:0:
250,156,34135,1,0,0:0:0:0:
326,226,34359,6,0,P|371:232|420:215,1,80
362,127,34807,2,0,L|265:130,1,80,8|0,0:0|0:0,0:0:0:0:
236,155,35143,2,0,P|213:209|223:268,1,120
310,327,35703,1,8,0:0:0:0:
323,223,35927,1,0,0:0:0:0:
220,206,36150,70,0,L|118:209,1,80
287,60,36822,1,0,0:0:0:0:
425,214,37270,2,0,L|427:293,2,80,0|8|0,0:0|0:0|0:0,0:0:0:0:
327,251,37941,6,0,P|275:234|202:236,1,120
166,263,38389,2,0,L|66:256,1,80,8|0,0:0|0:0,0:0:0:0:
55,157,38837,2,0,P|108:145|180:155,1,120
214,186,39285,2,0,L|314:189,1,80,8|0,0:0|0:0,0:0:0:0:
397,190,39732,5,0,0:0:0:0:
344,100,39956,1,0,0:0:0:0:
143,154,40404,1,0,0:0:0:0:
290,301,40852,1,0,0:0:0:0:
317,201,41076,1,8,0:0:0:0:
243,128,41300,1,0,0:0:0:0:
216,228,41524,54,0,L|197:320,1,80
312,306,41971,2,0,L|296:228,1,80,8|0,0:0|0:0,0:0:0:0:
260,129,42419,6,0,P|206:122|161:136,1,80
252,255,42867,2,0,P|306:262|351:248,1,80,8|8,0:0|0:0,0:0:0:0:
266,174,43315,6,2,P|202:189|220:332,1,240,6|0,0:0|0:0,0:0:0:0:
316,299,44210,2,0,L|242:249,1,80
249,149,44658,1,8,0:0:0:0:
154,193,44882,1,0,0:0:0:0:
74,125,45106,6,0,P|65:85|114:11,1,120,2|0,0:0|0:0,0:0:0:0:
148,40,45553,2,0,L|234:43,1,80,8|0,0:0|0:0,0:0:0:0:
302,115,46001,2,0,P|307:153|300:193,1,80
204,151,46449,2,0,P|175:177|138:194,1,80,8|0,0:0|0:0,0:0:0:0:
127,90,46897,6,2,P|187:54|299:165,1,240,2|0,0:0|0:0,0:0:0:0:
291,252,47792,1,0,0:0:0:0:
219,176,48016,2,0,L|212:96,2,80,0|8|0,0:0|0:0|0:0,0:0:0:0:
203,280,48688,6,0,P|153:297|80:239,1,120,2|0,0:0|0:0,0:0:0:0:
122,224,49135,2,0,L|125:130,1,80,8|0,0:0|0:0,0:0:0:0:
183,57,49583,2,0,P|233:40|306:98,1,120
264,113,50031,2,0,L|261:207,1,80,8|0,0:0|0:0,0:0:0:0:
259,297,50479,70,2,B|202:292|185:264|157:239|158:191|158:191|163:91,1,240,2|0,0:0|0:0,0:0:0:0:
262,85,51374,2,0,P|264:125|250:169,1,80
164,219,51822,1,8,0:0:0:0:
60,212,52046,1,0,0:0:0:0:
130,135,52270,6,0,P|186:114|233:130,1,80,2|0,0:0|0:0,0:0:0:0:
259,205,52718,2,0,P|315:226|362:210,1,80,8|0,0:0|0:0,0:0:0:0:
390,136,53165,2,0,P|469:132|501:193,1,120
463,201,53613,2,0,P|447:250|461:303,1,80,8|0,0:0|0:0,0:0:0:0:
349,306,54061,6,2,B|230:331|230:331|139:235,1,240,2|0,0:0|0:0,0:0:0:0:
159,142,54956,1,0,0:0:0:0:
249,90,55180,2,0,L|328:101,2,80,0|8|0,0:0|0:0|0:0,0:0:0:0:
156,139,55852,53,0,0:0:0:0:
156,245,56076,1,0,0:0:0:0:
188,139,56300,1,8,0:0:0:0:
184,258,56524,1,0,0:0:0:0:
219,139,56747,5,0,0:0:0:0:
212,271,56971,1,0,0:0:0:0:
251,139,57195,1,8,0:0:0:0:
240,284,57419,1,8,0:0:0:0:
283,139,57643,6,2,P|366:146|283:158,1,240,6|0,0:0|0:0,0:0:0:0:
202,98,58538,2,0,P|141:89|100:108,1,80
124,198,58986,2,0,P|163:204|201:193,1,80,8|0,0:0|0:0,0:0:0:0:
279,123,59434,6,0,P|317:111|356:117,1,80,2|0,0:0|0:0,0:0:0:0:
328,218,59882,1,8,0:0:0:0:
328,218,59994,1,0,0:0:0:0:
224,212,60218,2,0,P|183:163|180:96,1,120
260,46,60777,2,0,L|362:49,1,80,8|0,0:0|0:0,0:0:0:0:
440,77,61225,6,2,B|452:126|496:142|496:142|468:163|468:163|502:219|471:278,1,240,2|0,0:0|0:0,0:0:0:0:
383,221,62121,1,0,0:0:0:0:
299,160,62344,1,0,0:0:0:0:
214,222,62568,1,8,0:0:0:0:
128,160,62793,1,0,0:0:0:0:
43,222,63016,6,0,P|25:175|45:98,1,120,2|0,0:0|0:0,0:0:0:0:
88,91,63464,2,0,P|133:81|181:99,1,80,8|0,0:0|0:0,0:0:0:0:
261,49,63912,2,0,P|271:94|253:142,1,80
303,222,64359,2,0,P|254:231|186:197,1,120,8|0,0:0|0:0,0:0:0:0:
148,172,64807,70,2,B|101:192|67:177|67:177|100:216|90:261|90:261|84:299|103:335,1,240,2|0,0:0|0:0,0:0:0:0:
192,279,65703,1,0,0:0:0:0:
241,187,65927,1,0,0:0:0:0:
336,146,66150,1,8,0:0:0:0:
438,165,66375,1,0,0:0:0:0:
505,243,66598,6,2,P|305:324|485:207,1,640,2|6,0:0|0:0,0:0:0:0:
256,192,73986,101,8,0:0:0:0:
256,296,74210,1,0,0:0:0:0:
165,243,74434,1,8,0:0:0:0:
255,192,74658,1,0,0:0:0:0:
346,245,74882,1,8,0:0:0:0:
256,296,75106,1,0,0:0:0:0:
256,192,75330,1,8,0:0:0:0:
255,88,75553,6,2,P|312:55|427:230,1,320,6|0,0:0|0:0,0:0:0:0:
336,244,76673,2,0,L|337:165,2,80,0|8|0,0:0|0:0|0:0,0:0:0:0:
273,327,77344,6,2,B|238:342|179:330|168:276|178:243|178:243|188:214|184:166|126:137|80:160,1,320,2|0,0:0|0:0,0:0:0:0:
8,233,78464,1,0,0:0:0:0:
111,224,78688,2,0,P|122:159|124:118,1,80,8|0,0:0|0:0,0:0:0:0:
219,184,79135,6,2,B|299:189|299:189|374:193|405:126|387:55|304:40|268:86,1,320,2|0,0:0|0:0,0:0:0:0:
187,109,80255,2,0,P|147:113|108:106,2,80,0|8|0,0:0|0:0|0:0,0:0:0:0:
198,5,80927,70,2,P|109:38|181:213,1,320,2|0,0:0|0:0,0:0:0:0:
262,171,82046,1,0,0:0:0:0:
351,224,82270,2,0,L|448:226,1,80,8|0,0:0|0:0,0:0:0:0:
474,130,82718,6,2,L|154:123,1,320,2|0,0:0|0:0,0:0:0:0:
77,194,83837,1,0,0:0:0:0:
99,296,84061,1,8,0:0:0:0:
176,225,84285,1,0,0:0:0:0:
253,294,84509,6,2,B|306:310|363:296|469:250|312:131|252:273|354:328|466:296,1,320,2|0,0:0|0:0,0:0:0:0:
446,197,85628,1,0,0:0:0:0:
350,155,85852,1,8,0:0:0:0:
253,194,86076,1,0,0:0:0:0:
215,293,86300,6,2,P|225:92|206:289,1,640,2|8,0:0|0:0,0:0:0:0:
253,194,88538,1,8,0:0:0:0:
253,194,88986,69,8,0:0:0:0:
253,194,89434,5,8,0:0:0:0:
306,104,89658,1,8,0:0:0:0:
201,104,89882,5,4,0:0:0:0:
151,195,90106,2,0,P|154:244|176:286,1,80,0|8,0:0|0:0,0:0:0:0:
252,213,90553,2,0,P|249:164|227:122,1,80
147,81,91001,1,0,0:0:0:0:
63,140,91225,2,0,P|48:97|62:38,1,80,8|0,0:0|0:0,0:0:0:0:
153,88,91673,6,0,P|200:101|247:99,1,80
434,59,92344,1,0,0:0:0:0:
307,224,92792,2,0,P|288:259|279:298,2,80,0|8|0,0:0|0:0|0:0,0:0:0:0:
403,183,93464,69,0,0:0:0:0:
310,134,93688,2,0,L|213:140,1,80,0|8,0:0|0:0,0:0:0:0:
202,240,94135,2,0,L|298:233,1,80
371,181,94583,1,0,0:0:0:0:
399,80,94807,2,0,L|402:-7,1,80,8|0,0:0|0:0,0:0:0:0:
318,63,95255,6,0,P|317:101|341:140,1,80
136,192,95927,1,0,0:0:0:0:
337,247,96374,2,0,P|356:281|356:320,2,80,0|8|0,0:0|0:0|0:0,0:0:0:0:
234,268,97046,5,0,0:0:0:0:
159,194,97270,2,0,P|150:142|157:108,1,80,0|8,0:0|0:0,0:0:0:0:
258,117,97718,2,0,P|262:156|253:195,1,80
154,239,98166,1,0,0:0:0:0:
63,192,98390,1,8,0:0:0:0:
42,90,98614,1,0,0:0:0:0:
108,10,98837,6,0,L|220:5,1,80
194,214,99509,1,0,0:0:0:0:
397,174,99956,2,0,L|392:62,2,80,0|8|0,0:0|0:0|0:0,0:0:0:0:
496,208,100628,69,0,0:0:0:0:
452,302,100852,1,0,0:0:0:0:
256,228,101300,1,0,0:0:0:0:
60,302,101747,1,0,0:0:0:0:
16,208,101971,1,8,0:0:0:0:
60,114,102195,1,0,0:0:0:0:
161,86,102419,86,0,P|207:90|259:74,1,80
287,175,102867,2,0,P|240:170|189:187,1,80,8|0,0:0|0:0,0:0:0:0:
252,273,103315,6,0,P|298:277|350:261,1,80
260,111,103762,2,0,P|213:106|162:123,1,80,8|8,0:0|0:0,0:0:0:0:
226,208,104210,6,2,B|297:191|297:191|359:209|359:209|421:191|421:191|375:173,1,240,6|0,0:0|0:0,0:0:0:0:
303,112,105106,2,0,L|202:136,1,80
285,215,105553,2,0,L|386:191,1,80,8|0,0:0|0:0,0:0:0:0:
404,100,106001,5,2,0:0:0:0:
306,64,106225,2,0,P|257:88|205:90,1,80,0|8,0:0|0:0,0:0:0:0:
165,171,106673,1,0,0:0:0:0:
165,171,106785,2,0,P|116:147|37:158,1,120
92,247,107344,2,0,P|132:270|170:278,1,80,8|0,0:0|0:0,0:0:0:0:
241,206,107792,6,2,B|257:161|257:161|202:178|202:178|148:312,1,240,2|0,0:0|0:0,0:0:0:0:
238,360,108688,2,0,L|269:283,1,80
353,225,109135,2,0,L|384:148,1,80,8|0,0:0|0:0,0:0:0:0:
298,88,109583,6,0,P|251:103|162:82,1,120,2|0,0:0|0:0,0:0:0:0:
137,64,110031,2,0,P|91:55|41:74,1,80,8|0,0:0|0:0,0:0:0:0:
123,145,110479,2,0,P|170:157|258:131,1,120
283,112,110927,2,0,P|328:100|379:116,1,80,8|0,0:0|0:0,0:0:0:0:
335,210,111374,70,2,B|326:176|326:176|301:196|301:196|307:236|307:236|329:276|329:276|309:317|309:317|315:359,1,240,2|0,0:0|0:0,0:0:0:0:
408,312,112270,2,0,P|410:250|388:218,2,80,0|0|8,0:0|0:0|0:0,0:0:0:0:
325,277,112941,1,0,0:0:0:0:
268,189,113165,6,0,L|264:101,1,80,2|0,0:0|0:0,0:0:0:0:
368,105,113613,2,0,L|364:17,1,80,8|0,0:0|0:0,0:0:0:0:
454,77,114061,2,0,P|476:125|463:193,1,120
432,230,114509,2,0,P|384:252|328:245,1,80,8|0,0:0|0:0,0:0:0:0:
259,219,114956,6,2,B|245:184|259:130|300:111|300:111|355:117|355:117|377:187,1,240,2|0,0:0|0:0,0:0:0:0:
365,277,115852,2,0,L|332:378,1,80
235,348,116300,2,0,P|199:331|173:300,1,80,8|0,0:0|0:0,0:0:0:0:
164,197,116747,53,0,0:0:0:0:
295,131,116971,1,0,0:0:0:0:
263,230,117195,1,8,0:0:0:0:
196,99,117419,1,0,0:0:0:0:
342,106,117643,6,0,P|371:147|377:189,1,80
170,278,118091,2,0,P|140:236|134:194,1,80,8|8,0:0|0:0,0:0:0:0:
350,290,118538,6,2,B|288:315|242:281|242:281|241:331|195:357|155:349,1,240,6|0,0:0|0:0,0:0:0:0:
67,291,119434,1,0,0:0:0:0:
170,278,119658,1,0,0:0:0:0:
201,178,119882,2,0,P|193:103|166:77,1,80,8|0,0:0|0:0,0:0:0:0:
102,155,120330,5,2,0:0:0:0:
155,243,120553,2,0,P|217:255|248:243,1,80,0|8,0:0|0:0,0:0:0:0:
275,221,120889,2,0,P|314:216|351:228,1,80
204,175,121449,2,0,L|205:91,2,80,0|8|0,0:0|0:0|0:0,0:0:0:0:
223,277,122121,6,2,B|296:260|318:187|301:142|301:142|335:167|392:153,1,240,2|0,0:0|0:0,0:0:0:0:
434,82,123016,2,0,P|481:79|519:90,2,80,0|0|8,0:0|0:0|0:0,0:0:0:0:
336,45,123688,1,0,0:0:0:0:
248,100,123912,6,0,P|201:103|137:65,1,120,2|0,0:0|0:0,0:0:0:0:
99,33,124359,2,0,P|102:80|91:118,1,80,8|0,0:0|0:0,0:0:0:0:
48,205,124807,2,0,P|95:202|133:213,1,80
220,256,125255,2,0,P|217:209|287:197,1,120,8|0,0:0|0:0,0:0:0:0:
319,223,125703,70,2,B|356:232|418:219|444:172|391:144|359:138|325:195|386:258|419:265,1,240,2|0,0:0|0:0,0:0:0:0:
482,190,126598,2,0,P|465:132|437:103,1,80
358,73,127046,2,0,P|297:71|261:88,1,80,8|0,0:0|0:0,0:0:0:0:
201,146,127494,2,2,P|255:319|301:132,1,480
263,221,129285,6,0,L|263:126,1,80,8|8,0:0|0:0,0:0:0:0:
288,40,129732,1,0,0:0:0:0:
364,111,129956,2,0,P|397:181|373:256,1,160,8|8,0:0|0:0,0:0:0:0:
269,259,130628,53,2,0:0:0:0:
272,278,130739,1,2,0:0:0:0:
275,298,130851,1,2,0:0:0:0:
279,318,130963,1,2,0:0:0:0:
282,337,131076,101,12,0:0:0:0:
245,320,131187,1,0,0:0:0:0:
206,312,131299,1,0,0:0:0:0:
166,315,131411,1,0,0:0:0:0:
127,324,131523,1,0,0:0:0:0:
89,316,131635,1,0,0:0:0:0:
59,289,131747,1,0,0:0:0:0:
45,253,131859,1,0,0:0:0:0:
48,213,131971,6,0,P|56:181|53:146,3,40,2|0|0|0,0:0|0:0|0:0|0:0,0:0:0:0:
43,94,132419,2,0,P|44:74|50:54,3,40,2|0|0|0,0:0|0:0|0:0|0:0,0:0:0:0:
122,91,132867,101,8,0:0:0:0:
160,99,132978,1,0,0:0:0:0:
200,97,133090,1,0,0:0:0:0:
238,84,133202,1,0,0:0:0:0:
270,60,133315,1,0,0:0:0:0:
292,94,133426,1,0,0:0:0:0:
296,133,133538,1,0,0:0:0:0:
298,173,133650,1,0,0:0:0:0:
317,207,133762,6,0,P|365:222|374:220,3,40,2|0|0|0,0:0|0:0|0:0|0:0,0:0:0:0:
371,301,134210,2,0,P|414:277|419:269,3,40,2|0|0|0,0:0|0:0|0:0|0:0,0:0:0:0:
440,211,134658,101,8,0:0:0:0:
445,171,134769,1,0,0:0:0:0:
431,135,134881,1,0,0:0:0:0:
400,110,134993,1,0,0:0:0:0:
361,104,135106,1,0,0:0:0:0:
337,72,135217,1,0,0:0:0:0:
301,56,135329,1,0,0:0:0:0:
261,60,135441,1,0,0:0:0:0:
230,84,135553,6,0,L|226:150,3,40,2|0|0|0,0:0|0:0|0:0|0:0,0:0:0:0:
147,116,136001,2,0,L|143:182,3,40,2|0|0|0,0:0|0:0|0:0|0:0,0:0:0:0:
64,150,136449,101,8,0:0:0:0:
71,188,136560,1,0,0:0:0:0:
96,219,136672,1,0,0:0:0:0:
133,234,136784,1,0,0:0:0:0:
172,231,136898,1,0,0:0:0:0:
211,228,137010,1,0,0:0:0:0:
248,243,137122,1,0,0:0:0:0:
273,274,137234,1,0,0:0:0:0:
281,313,137344,6,0,L|275:359,7,40,2|0|0|0|2|0|0|0,0:0|0:0|0:0|0:0|0:0|0:0|0:0|0:0,0:0:0:0:
354,330,138240,102,0,L|358:290,1,40,8|0,0:0|0:0,0:0:0:0:
436,268,138464,2,0,L|440:228,1,40
364,201,138688,2,0,L|368:161,1,40
446,139,138912,2,0,L|450:99,1,40
374,72,139135,6,0,L|378:32,3,40,2|0|0|0,0:0|0:0|0:0|0:0,0:0:0:0:
300,52,139583,2,0,L|295:91,3,40,2|0|0|0,0:0|0:0|0:0|0:0,0:0:0:0:
217,69,140031,102,0,L|212:108,1,40,8|0,0:0|0:0,0:0:0:0:
135,131,140255,2,0,L|130:170,1,40
207,198,140479,2,0,L|202:237,1,40
125,260,140703,2,0,L|120:299,1,40
197,327,140926,6,0,L|192:366,3,40,2|0|0|0,0:0|0:0|0:0|0:0,0:0:0:0:
271,347,141374,2,0,L|275:307,3,40,2|0|0|0,0:0|0:0|0:0|0:0,0:0:0:0:
355,296,141822,101,8,0:0:0:0:
339,259,141933,1,0,0:0:0:0:
308,234,142045,1,0,0:0:0:0:
269,226,142157,1,0,0:0:0:0:
231,238,142271,1,0,0:0:0:0:
193,249,142383,1,0,0:0:0:0:
154,241,142495,1,0,0:0:0:0:
123,216,142606,1,0,0:0:0:0:
112,178,142718,6,0,L|163:168,3,40,8|0|0|0,0:0|0:0|0:0|0:0,0:0:0:0:
122,95,143165,2,0,L|161:87,3,40
243,81,143613,102,0,L|261:132,3,40,2|0|0|0,0:0|0:0|0:0|0:0,0:0:0:0:
302,184,144061,2,0,L|319:234,3,40,2|0|0|0,0:0|0:0|0:0|0:0,0:0:0:0:
364,285,144509,6,0,L|381:335,3,40,2|0|0|0,0:0|0:0|0:0|0:0,0:0:0:0:
300,344,144956,1,2,0:0:0:0:
281,341,145069,1,2,0:0:0:0:
261,337,145181,1,2,0:0:0:0:
241,334,145293,1,2,0:0:0:0:
222,331,145404,102,0,L|210:268,3,40,12|0|0|0,0:0|0:0|0:0|0:0,0:0:0:0:
142,255,145852,2,0,L|79:267,3,40
45,205,146300,6,0,L|57:142,3,40,2|0|0|0,0:0|0:0|0:0|0:0,0:0:0:0:
125,129,146748,2,0,L|188:141,3,40,2|0|0|0,0:0|0:0|0:0|0:0,0:0:0:0:
244,136,147195,102,0,L|283:128,3,40,8|0|0|0,0:0|0:0|0:0|0:0,0:0:0:0:
310,204,147643,2,0,L|347:217,3,40
333,295,148091,6,0,L|359:325,3,40,2|0|0|0,0:0|0:0|0:0|0:0,0:0:0:0:
439,325,148538,2,0,L|465:294,3,40,2|0|0|0,0:0|0:0|0:0|0:0,0:0:0:0:
470,214,148986,102,0,L|461:165,3,40,8|0|0|0,0:0|0:0|0:0|0:0,0:0:0:0:
383,161,149434,2,0,L|374:112,3,40
306,162,149882,6,0,L|298:201,3,40,2|0|0|0,0:0|0:0|0:0|0:0,0:0:0:0:
348,265,150330,2,0,L|340:304,3,40,2|0|0|0,0:0|0:0|0:0|0:0,0:0:0:0:
275,350,150777,102,0,L|268:310,3,40,8|0|0|0,0:0|0:0|0:0|0:0,0:0:0:0:
348,303,151225,2,0,L|341:263,3,40
273,218,151673,6,0,L|233:211,3,40,2|0|0|0,0:0|0:0|0:0|0:0,0:0:0:0:
160,244,152121,2,0,L|153:284,3,40,2|0|0|0,0:0|0:0|0:0|0:0,0:0:0:0:
200,348,152568,101,8,0:0:0:0:
227,319,152679,1,0,0:0:0:0:
239,281,152791,1,0,0:0:0:0:
234,242,152903,1,0,0:0:0:0:
212,208,153016,1,0,0:0:0:0:
190,174,153128,1,0,0:0:0:0:
185,135,153240,1,0,0:0:0:0:
197,97,153352,1,0,0:0:0:0:
225,69,153464,6,0,L|279:59,3,40,2|0|0|0,0:0|0:0|0:0|0:0,0:0:0:0:
319,120,153912,2,0,L|373:130,3,40,2|0|0|0,0:0|0:0|0:0|0:0,0:0:0:0:
400,59,154359,101,8,0:0:0:0:
427,88,154470,1,0,0:0:0:0:
440,126,154582,1,0,0:0:0:0:
434,165,154694,1,0,0:0:0:0:
412,199,154807,1,0,0:0:0:0:
390,233,154919,1,0,0:0:0:0:
385,272,155031,1,0,0:0:0:0:
397,310,155143,1,0,0:0:0:0:
425,338,155255,6,0,L|479:348,3,40,2|0|0|0,0:0|0:0|0:0|0:0,0:0:0:0:
464,264,155703,2,0,L|509:232,3,40,2|0|0|0,0:0|0:0|0:0|0:0,0:0:0:0:
453,173,156150,101,8,0:0:0:0:
433,178,156261,1,0,0:0:0:0:
414,183,156373,1,0,0:0:0:0:
395,188,156485,1,0,0:0:0:0:
375,194,156598,2,0,L|330:226,3,40,2|0|0|0,0:0|0:0|0:0|0:0,0:0:0:0:
263,232,157046,5,8,0:0:0:0:
243,237,157157,1,0,0:0:0:0:
224,242,157269,1,0,0:0:0:0:
205,247,157381,1,0,0:0:0:0:
185,253,157494,2,0,L|140:285,3,40,2|0|0|0,0:0|0:0|0:0|0:0,0:0:0:0:
125,352,157941,101,10,0:0:0:0:
141,352,158052,1,0,0:0:0:0:
157,352,158164,1,0,0:0:0:0:
173,352,158276,1,0,0:0:0:0:
190,352,158388,1,10,0:0:0:0:
206,352,158500,1,0,0:0:0:0:
222,352,158612,1,0,0:0:0:0:
238,352,158724,1,0,0:0:0:0:
255,352,158837,5,10,0:0:0:0:
271,352,158948,1,0,0:0:0:0:
287,352,159060,1,0,0:0:0:0:
303,352,159172,1,0,0:0:0:0:
320,352,159284,1,10,0:0:0:0:
336,352,159396,1,2,0:0:0:0:
352,352,159508,1,2,0:0:0:0:
368,352,159620,1,2,0:0:0:0:
385,352,159732,38,2,P|436:322|377:173,1,240,14|0,0:0|0:0,0:0:0:0:
305,233,160628,2,0,P|257:247|204:239,1,80
164,162,161076,1,8,0:0:0:0:
134,261,161300,2,0,L|123:314,2,40,2|2|2,0:0|0:0|0:0,0:0:0:0:
204,337,161747,6,0,P|285:340|308:325,1,80,0|8,0:0|0:0,0:0:0:0:
248,248,162195,1,0,0:0:0:0:
248,248,162307,2,0,P|166:244|129:271,1,120
81,352,162867,1,8,0:0:0:0:
31,260,163091,1,0,0:0:0:0:
114,197,163315,6,2,B|151:139|93:88|93:88|163:121|208:51,1,240,2|0,0:0|0:0,0:0:0:0:
296,99,164210,2,0,P|332:83|371:85,1,80
458,143,164658,1,8,0:0:0:0:
496,239,164882,2,0,L|505:294,2,40,2|2|2,0:0|0:0|0:0,0:0:0:0:
420,308,165330,5,0,0:0:0:0:
343,238,165553,2,0,L|339:139,1,80,8|0,0:0|0:0,0:0:0:0:
436,197,166001,2,0,L|439:276,1,80
350,331,166449,1,8,0:0:0:0:
266,269,166673,70,0,L|235:317,2,40,2|2|2,0:0|0:0|0:0,0:0:0:0:
173,220,167121,1,0,0:0:0:0:
117,132,167344,2,0,P|111:80|133:45,1,80,8|0,0:0|0:0,0:0:0:0:
215,104,167792,2,0,P|221:156|199:191,1,80
125,241,168240,1,8,0:0:0:0:
24,215,168464,1,2,0:0:0:0:
24,215,168576,1,2,0:0:0:0:
24,215,168688,6,0,P|17:148|68:100,1,120,2|0,0:0|0:0,0:0:0:0:
96,91,169135,2,0,L|210:82,1,80,8|0,0:0|0:0,0:0:0:0:
264,139,169583,2,0,L|392:128,1,120
429,155,170031,2,0,P|445:205|428:258,1,80,8|0,0:0|0:0,0:0:0:0:
376,313,170479,6,2,B|317:343|262:306|262:306|202:268|146:299,1,240,2|0,0:0|0:0,0:0:0:0:
64,358,171374,1,0,0:0:0:0:
41,256,171598,1,0,0:0:0:0:
39,151,171822,2,0,P|73:105|105:94,1,80,8|0,0:0|0:0,0:0:0:0:
126,195,172270,53,0,0:0:0:0:
220,239,172494,2,0,P|285:246|313:237,2,80,0|8|0,0:0|0:0|0:0,0:0:0:0:
126,195,173165,5,0,0:0:0:0:
263,135,173389,2,0,P|270:70|261:42,1,80,0|8,0:0|0:0,0:0:0:0:
128,98,173837,1,10,0:0:0:0:
128,98,173949,1,2,0:0:0:0:
128,98,174061,6,2,B|109:146|142:183|142:183|183:224|134:285|50:234|105:156|152:191,1,240,4|0,0:0|0:0,0:0:0:0:
201,126,174956,2,0,P|254:124|306:146,1,80
320,227,175404,1,8,0:0:0:0:
219,255,175628,2,0,L|161:236,2,40,2|2|2,0:0|0:0|0:0,0:0:0:0:
287,334,176076,6,0,P|339:337|377:326,2,80,0|8|0,0:0|0:0|0:0,0:0:0:0:
324,236,176747,2,0,P|376:233|414:244,1,80
463,324,177195,1,8,0:0:0:0:
495,225,177419,1,0,0:0:0:0:
396,259,177643,6,2,P|343:258|371:111,1,240,2|0,0:0|0:0,0:0:0:0:
443,152,178538,2,0,L|364:189,1,80
273,224,178986,1,8,0:0:0:0:
238,125,179210,1,2,0:0:0:0:
238,125,179322,1,2,0:0:0:0:
238,125,179434,6,0,P|283:119|351:156,1,120
368,200,179882,2,0,P|373:245|353:299,1,80,8|0,0:0|0:0,0:0:0:0:
269,236,180330,2,0,P|263:189|303:111,1,120
341,135,180777,2,0,L|472:140,1,120,8|2,0:0|0:0,0:0:0:0:
494,180,181225,70,2,P|467:286|491:171,2,640,2|2|6,0:0|0:0|0:0,0:0:0:0:
390,208,185031,6,0,L|295:220,1,80,0|8,0:0|0:0,0:0:0:0:
238,293,185479,2,0,L|143:305,1,80
70,247,185927,1,0,0:0:0:0:
81,144,186150,1,8,0:0:0:0:
165,204,186374,1,0,0:0:0:0:
185,102,186598,5,0,0:0:0:0:
266,167,186822,2,0,P|322:172|366:162,1,80,0|8,0:0|0:0,0:0:0:0:
307,70,187270,2,0,P|251:65|207:75,1,80
138,123,187718,1,0,0:0:0:0:
131,226,187941,1,8,0:0:0:0:
124,329,188165,1,0,0:0:0:0:
214,276,188389,5,0,0:0:0:0:
303,223,188613,2,0,P|367:220|414:233,1,80,0|8,0:0|0:0,0:0:0:0:
341,319,189061,2,0,P|277:322|230:309,1,80
178,255,189509,37,0,0:0:0:0:
193,114,189732,1,8,0:0:0:0:
334,129,189956,1,0,0:0:0:0:
319,270,190179,1,4,0:0:0:0:
