osu file format v14

[General]
AudioFilename: audio.ogg
AudioLeadIn: 0
PreviewTime: 97806
Countdown: 0
SampleSet: Soft
StackLeniency: 0.7
Mode: 0
LetterboxInBreaks: 0
WidescreenStoryboard: 1

[Editor]
Bookmarks: 29832,46909,53678,68986,88755,108370,123678,125524,132986,137986,157678,167524,173832
DistanceSpacing: 0.4
BeatDivisor: 4
GridSize: 32
TimelineZoom: 1.7

[Metadata]
Title:Ready For Combat
TitleUnicode:Ready For Combat
Artist:Icon For Hire
ArtistUnicode:Icon For Hire
Creator:Eterdesp
Version:Collab Normal
Source:
Tags:rock metal alternative english the reckoning piroshki Selithrarion dopaminos Jeempje
BeatmapID:3888256
BeatmapSetID:1885828

[Difficulty]
HPDrainRate:3
CircleSize:2.8
OverallDifficulty:4
ApproachRate:5.5
SliderMultiplier:1.4
SliderTickRate:1

[Events]
//Background and Video events
0,0,"Ev4chF_VEAENIvf.jpg",0,0
//Break Periods
2,29881,33479
2,88958,92556
//Storyboard Layer 0 (Background)
//Storyboard Layer 1 (Fail)
//Storyboard Layer 2 (Pass)
//Storyboard Layer 3 (Foreground)
//Storyboard Layer 4 (Overlay)
//Storyboard Sound Samples

[TimingPoints]
143,307.692307692308,4,2,1,76,1,0
143,-121.951219512195,4,2,1,76,0,0
1450,-121.951219512195,4,2,1,5,0,0
1527,-121.951219512195,4,2,1,76,0,0
2681,-121.951219512195,4,2,1,5,0,0
2758,-121.951219512195,4,2,1,76,0,0
6373,-121.951219512195,4,2,1,5,0,0
6450,-121.951219512195,4,2,1,76,0,0
7604,-121.951219512195,4,2,1,5,0,0
7681,-121.951219512195,4,2,1,76,0,0
8835,-121.951219512195,4,2,1,5,0,0
8912,-121.951219512195,4,2,1,76,0,0
9989,-133.333333333333,4,2,1,72,0,0
19835,-133.333333333333,4,2,1,76,0,0
29681,-111.111111111111,4,2,1,55,0,0
33989,-111.111111111111,4,2,1,55,0,0
39527,-111.111111111111,4,2,1,85,0,1
59219,-121.951219512195,4,2,1,76,0,0
60527,-121.951219512195,4,2,1,5,0,0
60604,-121.951219512195,4,2,1,76,0,0
61758,-121.951219512195,4,2,1,5,0,0
61835,-121.951219512195,4,2,1,76,0,0
65450,-121.951219512195,4,2,1,5,0,0
65527,-121.951219512195,4,2,1,76,0,0
66681,-121.951219512195,4,2,1,5,0,0
66758,-121.951219512195,4,2,1,76,0,0
67912,-121.951219512195,4,2,1,5,0,0
67989,-121.951219512195,4,2,1,76,0,0
69066,-133.333333333333,4,2,1,72,0,0
78912,-133.333333333333,4,2,1,76,0,0
88758,-111.111111111111,4,2,1,55,0,0
93066,-111.111111111111,4,2,1,55,0,0
97835,-111.111111111111,4,2,1,55,0,0
98604,-111.111111111111,4,2,1,85,0,1
118296,-133.333333333333,4,2,1,70,0,0
121989,-121.951219512195,4,2,1,70,0,1
123219,-133.333333333333,4,2,1,70,0,0
126912,-121.951219512195,4,2,1,70,0,1
127758,-121.951219512195,4,2,1,5,0,1
127835,-121.951219512195,4,2,1,70,0,1
128143,-133.333333333333,4,2,1,70,0,0
131835,-121.951219512195,4,2,1,70,0,1
133066,-133.333333333333,4,2,1,70,0,0
137989,-117.647058823529,4,2,1,74,0,0
156450,-121.951219512195,4,2,1,74,0,0
157681,-111.111111111111,4,2,1,50,0,0
160143,-111.111111111111,4,2,1,85,0,1
177373,-111.111111111111,4,2,1,76,0,0
178681,-111.111111111111,4,2,1,5,0,0
178758,-111.111111111111,4,2,1,76,0,0
179912,-111.111111111111,4,2,1,5,0,0
179989,-111.111111111111,4,2,1,76,0,0
181143,-111.111111111111,4,2,1,5,0,0
181219,-111.111111111111,4,2,1,76,0,0
183604,-111.111111111111,4,2,1,5,0,0
183681,-111.111111111111,4,2,1,76,0,0
184835,-111.111111111111,4,2,1,5,0,0
184912,-111.111111111111,4,2,1,76,0,0
187219,-111.111111111111,4,2,1,5,0,0

[Colours]
Combo1 : 239,177,156
Combo2 : 153,153,153
Combo3 : 255,45,45
Combo4 : 79,79,79

[HitObjects]
40,87,143,6,0,L|224:55,1,172.200002627564,4|0,3:1|3:2,0:0:0:0:
258,27,758,2,0,L|385:45,1,114.800001751709,10|2,3:2|0:0,0:0:0:0:
412,84,1219,2,0,L|400:233,1,114.800001751709,2|2,3:2|3:2,0:0:0:0:
379,314,1835,5,2,3:2:0:0:
379,314,1989,2,0,L|237:293,1,114.800001751709,10|0,3:2|0:0,0:0:0:0:
224,256,2450,2,0,L|236:107,1,114.800001751709,2|2,3:2|3:2,0:0:0:0:
177,47,3066,5,2,3:2:0:0:
177,47,3219,2,0,B|128:26|128:26|69:54,1,114.800001751709,10|0,3:2|0:0,0:0:0:0:
31,94,3681,2,0,L|12:218,2,114.800001751709,2|10|0,3:2|3:2|3:2,0:0:0:0:
125,169,4604,1,2,3:2:0:0:
125,169,4758,2,0,L|115:243,1,57.4000008758545,10|10,3:2|3:2,0:0:0:0:
129,282,5066,6,0,B|217:307|217:307|296:276,1,172.200002627564,4|0,3:1|3:2,0:0:0:0:
310,222,5681,2,0,B|372:199|372:199|430:218,1,114.800001751709,10|2,3:2|0:0,0:0:0:0:
468,243,6143,2,0,L|494:123,1,114.800001751709,2|2,3:2|3:2,0:0:0:0:
431,36,6758,5,2,3:2:0:0:
431,36,6912,2,0,B|378:20|378:20|315:49,1,114.800001751709,10|0,3:2|0:0,0:0:0:0:
283,85,7373,2,0,L|295:234,1,114.800001751709,2|10,3:2|3:2,0:0:0:0:
195,291,7989,5,2,3:2:0:0:
195,291,8143,2,0,B|144:313|144:313|90:287,1,114.800001751709,10|2,3:2|3:2,0:0:0:0:
49,246,8604,2,0,L|74:117,1,114.800001751709,10|2,3:2|3:2,0:0:0:0:
170,76,9219,2,0,L|194:200,1,114.800001751709,10|2,3:2|3:2,0:0:0:0:
225,235,9681,2,0,L|212:308,1,57.4000008758545,10|10,3:2|3:2,0:0:0:0:
252,328,9989,5,6,3:2:0:0:
353,302,10296,2,0,L|409:307,1,52.5000020027161,2|0,0:0|3:2,0:0:0:0:
458,306,10604,2,0,B|485:268|485:268|475:207,1,105.000004005432,10|2,3:2|0:0,0:0:0:0:
401,136,11219,2,0,L|349:126,2,52.5000020027161,0|0|2,3:2|0:0|0:0,0:0:0:0:
433,35,11835,2,0,B|369:11|369:11|285:46,1,157.500006008148,10|0,3:2|0:0,0:0:0:0:
267,95,12450,6,0,L|277:146,2,52.5000020027161,2|0|2,3:2|0:0|0:0,0:0:0:0:
171,50,13066,2,0,L|160:-1,2,52.5000020027161,10|0|2,3:2|0:0|0:0,0:0:0:0:
76,95,13681,2,0,B|55:143|55:143|74:192,1,105.000004005432,0|2,3:2|0:0,0:0:0:0:
121,214,14143,1,0,3:2:0:0:
121,214,14296,2,0,L|232:192,1,105.000004005432,10|2,3:2|0:0,0:0:0:0:
302,122,14912,5,2,3:2:0:0:
390,178,15219,2,0,L|380:242,1,52.5000020027161,2|0,0:0|3:2,0:0:0:0:
355,275,15527,2,0,B|314:287|314:287|234:278,1,105.000004005432,10|2,3:2|0:0,0:0:0:0:
158,328,16143,2,0,L|155:380,2,52.5000020027161,0|0|2,3:2|0:0|0:0,0:0:0:0:
99,240,16758,2,0,L|106:135,1,105.000004005432,10|2,3:2|0:0,0:0:0:0:
180,60,17373,6,0,B|225:41|225:41|293:57,2,105.000004005432,2|2|10,3:2|0:0|3:2,0:0:0:0:
105,135,18296,2,0,B|50:147|50:147|5:128,2,105.000004005432,2|0|2,0:0|3:2|0:0,0:0:0:0:
179,209,19219,2,0,B|233:221|233:221|278:202,1,105.000004005432,10|10,3:2|0:0,0:0:0:0:
316,164,19681,1,10,3:2:0:0:
316,164,19835,6,0,L|411:216,1,105.000004005432,6|2,3:2|0:0,0:0:0:0:
503,169,20450,2,0,B|519:117|519:117|506:68,1,105.000004005432,10|2,3:2|0:0,0:0:0:0:
461,51,20912,1,0,0:0:0:0:
461,51,21066,2,0,L|467:-3,2,52.5000020027161,0|0|2,3:2|0:0|0:0,0:0:0:0:
360,82,21681,2,0,L|253:68,1,105.000004005432,10|2,3:2|0:0,0:0:0:0:
158,28,22296,6,0,L|51:42,1,105.000004005432,2|2,3:2|0:0,0:0:0:0:
16,79,22758,1,0,3:2:0:0:
16,79,22912,2,0,B|51:122|51:122|36:174,1,105.000004005432,10|2,3:2|0:0,0:0:0:0:
111,243,23527,2,0,P|140:253|168:257,2,52.5000020027161,0|0|2,3:2|0:0|0:0,0:0:0:0:
58,334,24143,2,0,B|98:370|98:370|167:357,1,105.000004005432,10|2,3:2|0:0,0:0:0:0:
233,300,24758,6,0,B|280:278|280:278|335:289,1,105.000004005432,2|2,3:2|0:0,0:0:0:0:
376,328,25219,1,0,3:2:0:0:
376,328,25373,2,0,L|486:348,1,105.000004005432,10|2,3:2|0:0,0:0:0:0:
499,243,25989,2,0,L|489:187,1,52.5000020027161,0|0,3:2|0:0,0:0:0:0:
469,142,26296,1,2,0:0:0:0:
402,60,26604,2,0,B|351:76|351:76|299:61,1,105.000004005432,10|10,3:2|0:0,0:0:0:0:
248,61,27066,1,10,3:2:0:0:
248,61,27219,6,0,B|197:45|197:45|147:59,2,105.000004005432,4|4|8,3:1|3:1|3:2,0:0:0:0:
299,152,28143,2,0,B|348:166|348:166|399:150,2,105.000004005432,4|4|8,3:1|3:1|3:2,0:0:0:0:
204,197,29066,2,0,L|214:264,1,52.5000020027161,0|0,3:2|3:2,0:0:0:0:
176,287,29373,2,0,L|168:338,1,52.5000020027161,0|0,3:2|3:2,0:0:0:0:
112,368,29681,5,4,3:3:0:0:
256,192,34604,12,2,38296,0:0:0:0:
445,91,39527,6,0,L|302:86,1,125.999996154785,4|2,3:1|0:0,0:0:0:0:
262,115,39989,1,0,3:2:0:0:
262,115,40143,2,0,L|260:177,2,62.9999980773926,10|0|2,3:2|3:2|0:0,0:0:0:0:
172,26,40758,2,0,L|24:42,1,125.999996154785,2|2,3:2|0:0,0:0:0:0:
14,93,41219,1,0,3:2:0:0:
14,93,41373,2,0,L|5:155,2,62.9999980773926,8|0|2,3:2|0:0|0:0,0:0:0:0:
85,197,41989,6,0,B|138:219|138:219|203:200,1,125.999996154785,6|2,3:2|0:0,0:0:0:0:
235,146,42450,2,0,L|315:142,1,62.9999980773926,0|10,3:2|3:2,0:0:0:0:
328,198,42758,2,0,L|448:250,1,125.999996154785,0|0,3:2|0:0,0:0:0:0:
497,215,43219,2,0,L|506:89,1,125.999996154785,2|2,3:2|0:0,0:0:0:0:
408,9,43835,1,8,3:2:0:0:
408,9,43989,2,0,L|242:1,1,125.999996154785
230,39,44450,6,0,B|205:110|205:110|230:163,1,125.999996154785,6|2,3:2|0:0,0:0:0:0:
181,201,44912,1,0,3:2:0:0:
181,201,45066,2,0,L|83:193,2,62.9999980773926,10|0|2,3:2|3:2|0:0,0:0:0:0:
201,325,45681,2,0,B|261:340|261:340|326:334,1,125.999996154785,0|2,0:0|0:0,0:0:0:0:
385,354,46143,1,0,3:2:0:0:
385,354,46296,2,0,L|392:211,1,125.999996154785,8|2,3:2|0:0,0:0:0:0:
458,120,46912,6,0,L|381:132,1,62.9999980773926,6|8,3:2|3:2,0:0:0:0:
334,112,47219,1,2,0:0:0:0:
222,46,47527,2,0,L|233:175,2,125.999996154785,10|10|2,3:2|0:0|2:2,0:0:0:0:
163,21,48296,2,0,L|79:28,1,62.9999980773926,8|0,3:2|0:0,0:0:0:0:
52,66,48604,1,0,3:2:0:0:
52,66,48758,2,0,L|58:211,1,125.999996154785,8|10,3:2|0:0,0:0:0:0:
60,317,49373,6,0,B|119:349|119:349|197:320,1,125.999996154785,4|2,3:1|0:0,0:0:0:0:
219,283,49835,1,0,3:2:0:0:
219,283,49989,2,0,L|245:211,1,62.9999980773926,10|0,3:2|3:2,0:0:0:0:
302,210,50296,1,2,0:0:0:0:
410,274,50604,2,0,B|445:219|445:219|445:154,1,125.999996154785,2|2,3:2|0:0,0:0:0:0:
439,99,51066,1,0,3:2:0:0:
439,99,51219,2,0,L|424:28,1,62.9999980773926,8|0,3:2|0:0,0:0:0:0:
363,25,51527,1,2,0:0:0:0:
238,45,51835,6,0,B|181:71|181:71|108:46,1,125.999996154785,6|2,3:2|0:0,0:0:0:0:
76,94,52296,1,2,3:2:0:0:
76,94,52450,2,0,L|3:104,2,62.9999980773926,10|2|0,3:2|0:0|0:0,0:0:0:0:
148,197,53066,2,0,L|165:330,1,125.999996154785,0|2,3:0|2:0,0:0:0:0:
217,354,53527,1,2,0:0:0:0:
217,354,53681,2,0,B|276:323|276:323|338:339,1,125.999996154785,8|2,3:2|0:0,0:0:0:0:
457,358,54296,6,0,L|449:227,1,125.999996154785,6|2,3:2|0:0,0:0:0:0:
451,173,54758,1,0,3:2:0:0:
451,173,54912,2,0,L|447:88,2,62.9999980773926,10|0|2,3:2|3:2|0:0,0:0:0:0:
331,131,55527,2,0,B|283:156|283:156|201:142,1,125.999996154785,0|2,0:0|0:0,0:0:0:0:
189,84,55989,1,0,3:2:0:0:
189,84,56143,2,0,L|50:81,1,125.999996154785,8|2,3:2|0:0,0:0:0:0:
87,205,56758,6,0,L|149:194,2,62.9999980773926,6|8|2,3:2|3:2|0:0,0:0:0:0:
49,254,57219,1,0,3:2:0:0:
49,254,57373,2,0,B|64:314|64:314|53:377,2,125.999996154785,10|10|2,3:2|0:0|3:2,0:0:0:0:
5,208,58143,1,8,3:2:0:0:
113,144,58450,1,0,3:2:0:0:
113,144,58604,2,0,L|184:182,1,62.9999980773926,8|0,3:2|0:0,0:0:0:0:
203,226,58912,2,0,L|165:297,1,62.9999980773926,10|10,0:0|0:0,0:0:0:0:
213,322,59219,6,0,L|418:357,1,172.200002627564,4|0,3:1|3:2,0:0:0:0:
430,319,59834,2,0,L|446:176,1,114.800001751709,10|2,3:2|0:0,0:0:0:0:
412,158,60295,2,0,L|400:9,1,114.800001751709,2|2,3:2|3:2,0:0:0:0:
297,10,60911,5,2,3:2:0:0:
297,10,61065,2,0,L|155:31,1,114.800001751709,10|0,3:2|0:0,0:0:0:0:
142,67,61526,2,0,L|154:216,1,114.800001751709,2|2,3:2|3:2,0:0:0:0:
189,295,62142,5,2,3:2:0:0:
189,295,62295,2,0,B|140:315|140:315|81:287,1,114.800001751709,10|0,3:2|0:0,0:0:0:0:
31,265,62757,2,0,L|12:134,2,114.800001751709,2|10|0,3:2|3:2|3:2,0:0:0:0:
124,197,63680,1,2,3:2:0:0:
124,197,63834,2,0,L|114:123,1,57.4000008758545,10|10,3:2|3:2,0:0:0:0:
148,91,64142,6,0,B|234:66|234:66|311:96,1,172.200002627564,4|0,3:1|3:2,0:0:0:0:
321,152,64757,2,0,B|377:173|377:173|430:155,1,114.800001751709,10|2,3:2|0:0,0:0:0:0:
472,117,65219,2,0,L|459:266,1,114.800001751709,2|2,3:2|3:2,0:0:0:0:
447,348,65835,5,2,3:2:0:0:
447,348,65988,2,0,B|404:364|404:364|334:334,1,114.800001751709,10|0,3:2|0:0,0:0:0:0:
300,296,66449,2,0,L|282:149,1,114.800001751709,2|10,3:2|3:2,0:0:0:0:
218,88,67065,5,2,3:2:0:0:
218,88,67219,2,0,B|167:65|167:65|110:89,1,114.800001751709,10|2,3:2|3:2,0:0:0:0:
71,128,67680,2,0,L|92:268,1,114.800001751709,10|2,3:2|3:2,0:0:0:0:
150,337,68295,2,0,L|262:297,1,114.800001751709,10|2,3:2|3:2,0:0:0:0:
258,240,68757,2,0,L|254:167,1,57.4000008758545,10|10,3:2|3:2,0:0:0:0:
292,145,69066,6,0,B|322:96|322:96|374:77,1,105.000004005432,6|2,3:2|0:0,0:0:0:0:
403,116,69527,2,0,L|397:193,1,52.5000020027161,0|10,3:2|3:2,0:0:0:0:
444,263,69989,2,0,L|528:248,2,52.5000020027161,2|0|0,0:0|0:0|3:2,0:0:0:0:
398,357,70604,2,0,L|346:347,1,52.5000020027161,2|0,0:0|3:2,0:0:0:0:
293,341,70912,2,0,B|246:369|246:369|193:358,1,105.000004005432,10|2,3:2|0:0,0:0:0:0:
104,309,71527,6,0,B|94:258|94:258|65:207,1,105.000004005432,2|2,3:2|0:0,0:0:0:0:
65,159,71989,2,0,B|44:135|44:135|40:102,1,52.5000020027161,0|10,3:2|3:2,0:0:0:0:
109,35,72450,2,0,L|219:24,1,105.000004005432,2|0,0:0|3:2,0:0:0:0:
260,49,72912,2,0,L|331:48,1,52.5000020027161,0|2,0:0|0:0,0:0:0:0:
408,91,73373,2,0,B|453:115|453:115|469:175,1,105.000004005432,10|2,3:2|0:0,0:0:0:0:
440,269,73989,6,0,L|521:260,2,52.5000020027161,2|0|2,3:2|0:0|0:0,0:0:0:0:
397,300,74450,1,0,3:2:0:0:
397,300,74604,2,0,L|291:310,1,105.000004005432,10|2,3:2|0:0,0:0:0:0:
187,311,75219,2,0,L|219:357,2,52.5000020027161,0|0|2,3:2|0:0|0:0,0:0:0:0:
87,277,75835,2,0,L|26:183,1,105.000004005432,10|2,3:2|0:0,0:0:0:0:
46,85,76450,6,0,L|159:75,2,105.000004005432,2|2|10,3:2|0:0|3:2,0:0:0:0:
111,167,77373,2,0,L|253:172,2,105.000004005432,2|0|2,0:0|3:2|0:0,0:0:0:0:
36,241,78296,1,10,3:2:0:0:
60,343,78604,2,0,B|90:352|90:352|118:348,1,52.5000020027161,10|10,0:0|3:2,0:0:0:0:
149,313,78912,6,0,B|218:308|218:308|253:317,1,105.000004005432,6|2,3:2|0:0,0:0:0:0:
303,331,79373,1,0,3:2:0:0:
303,331,79527,2,0,L|291:224,1,105.000004005432,10|2,3:2|0:0,0:0:0:0:
354,142,80143,1,0,3:2:0:0:
456,121,80450,1,2,0:0:0:0:
466,225,80758,2,0,B|452:341,1,105.000004005432,10|2,3:2|0:0,0:0:0:0:
347,341,81373,6,0,L|238:340,1,105.000004005432,2|2,3:2|0:0,0:0:0:0:
200,307,81835,1,0,3:2:0:0:
200,307,81989,2,0,B|188:280|188:280|194:245,1,52.5000020027161,10|0,3:2|0:0,0:0:0:0:
158,216,82296,2,0,L|156:138,1,52.5000020027161,2|0,0:0|0:0,0:0:0:0:
115,130,82604,2,0,B|38:151|38:151|55:283,1,210.000008010865,0|10,3:2|3:2,0:0:0:0:
254,347,83835,6,0,B|304:343|304:343|310:349|310:349|357:345,1,105.000004005432,2|2,3:2|0:0,0:0:0:0:
415,343,84296,1,0,3:2:0:0:
415,343,84450,2,0,B|409:274,1,52.5000020027161,10|0,3:2|0:0,0:0:0:0:
447,253,84758,2,0,L|442:115,1,105.000004005432,2|0,0:0|3:2,0:0:0:0:
384,61,85373,2,0,L|266:38,1,105.000004005432,2|10,0:0|3:2,0:0:0:0:
175,40,85989,2,0,B|163:67|163:67|175:105,1,52.5000020027161,10|10,0:0|3:2,0:0:0:0:
210,123,86296,6,0,L|190:265,2,105.000004005432,4|4|8,3:1|3:1|3:2,0:0:0:0:
280,40,87219,2,0,L|398:21,2,105.000004005432,4|4|8,3:1|3:1|3:2,0:0:0:0:
280,92,87989,1,0,3:2:0:0:
280,92,88143,2,0,L|296:173,1,52.5000020027161,0|0,3:2|3:2,0:0:0:0:
327,180,88450,2,0,L|300:258,1,52.5000020027161,0|0,3:2|3:2,0:0:0:0:
330,290,88758,5,4,3:3:0:0:
256,192,93681,12,8,97373,3:2:0:0:
174,207,98604,6,0,B|240:185|240:185|290:210,1,125.999996154785,4|2,3:1|0:0,0:0:0:0:
311,270,99066,1,0,3:2:0:0:
311,270,99219,2,0,L|389:261,1,62.9999980773926,10|0,3:2|3:2,0:0:0:0:
436,254,99527,1,2,0:0:0:0:
477,134,99835,2,0,B|467:85|467:85|337:70,1,125.999996154785,2|2,3:2|0:0,0:0:0:0:
336,44,100296,1,0,3:2:0:0:
336,44,100450,2,0,L|258:51,1,62.9999980773926,8|0,3:2|0:0,0:0:0:0:
225,91,100758,1,2,0:0:0:0:
112,34,101066,6,0,L|99:166,1,125.999996154785,6|2,3:2|0:0,0:0:0:0:
54,203,101527,1,0,3:2:0:0:
54,203,101681,2,0,L|61:285,1,62.9999980773926,10|0,3:2|3:2,0:0:0:0:
108,305,101989,1,2,0:0:0:0:
217,365,102296,2,0,B|231:301|231:301|213:238,1,125.999996154785,2|2,3:2|0:0,0:0:0:0:
174,193,102758,1,0,3:2:0:0:
174,193,102912,2,0,B|160:129|160:129|178:66,1,125.999996154785,8|2,3:2|0:0,0:0:0:0:
302,57,103527,6,0,L|440:41,1,125.999996154785,6|2,3:2|0:0,0:0:0:0:
485,67,103989,1,0,3:2:0:0:
485,67,104143,2,0,L|498:145,1,62.9999980773926,10|0,3:2|3:2,0:0:0:0:
472,188,104450,1,2,0:0:0:0:
489,312,104758,2,0,B|426:295|426:295|338:335,1,125.999996154785,0|2,0:0|0:0,0:0:0:0:
326,364,105219,1,0,3:2:0:0:
326,364,105373,2,0,B|265:331|265:331|206:345,1,125.999996154785,8|2,3:2|0:0,0:0:0:0:
88,384,105989,6,0,L|31:345,1,62.9999980773926,6|8,3:2|3:2,0:0:0:0:
0,296,106296,1,2,0:0:0:0:
45,178,106604,2,0,B|22:115|22:115|39:58,2,125.999996154785,10|10|2,3:2|0:0|3:2,0:0:0:0:
104,200,107373,2,0,L|182:190,1,62.9999980773926,8|0,3:2|0:0,0:0:0:0:
207,144,107681,1,0,3:2:0:0:
207,144,107835,2,0,L|350:153,1,125.999996154785,8|10,3:2|0:0,0:0:0:0:
451,193,108450,6,0,L|445:339,1,125.999996154785,4|2,3:1|0:0,0:0:0:0:
389,343,108912,1,0,3:2:0:0:
389,343,109066,2,0,L|290:340,1,62.9999980773926,10|0,3:2|3:2,0:0:0:0:
265,322,109373,1,2,0:0:0:0:
139,337,109681,2,0,B|80:363|80:363|9:335,1,125.999996154785,2|2,3:2|0:0,0:0:0:0:
4,285,110143,1,0,3:2:0:0:
4,285,110296,2,0,L|15:208,1,62.9999980773926,8|0,3:2|0:0,0:0:0:0:
7,159,110604,1,2,0:0:0:0:
11,32,110912,6,0,B|72:21|72:21|138:31,1,125.999996154785,6|2,3:2|0:0,0:0:0:0:
169,83,111373,1,0,3:2:0:0:
169,83,111527,2,0,L|231:86,2,62.9999980773926,10|0|2,3:2|3:2|0:0,0:0:0:0:
112,196,112143,2,0,B|91:257|91:257|120:326,1,125.999996154785,2|2,3:2|3:2,0:0:0:0:
182,329,112604,1,2,0:0:0:0:
182,329,112758,2,0,B|243:308|243:308|312:337,1,125.999996154785,8|2,3:2|0:0,0:0:0:0:
414,354,113373,6,0,L|406:223,1,125.999996154785,6|2,3:2|0:0,0:0:0:0:
436,172,113835,1,0,3:2:0:0:
436,172,113989,2,0,L|432:87,1,62.9999980773926,10|0,3:2|3:2,0:0:0:0:
456,50,114296,1,2,0:0:0:0:
331,28,114604,2,0,B|272:48|272:48|206:13,1,125.999996154785,0|2,0:0|0:0,0:0:0:0:
158,39,115066,1,0,3:2:0:0:
158,39,115220,2,0,L|167:192,1,125.999996154785,8|2,3:2|0:0,0:0:0:0:
228,274,115835,5,6,3:2:0:0:
228,274,115989,2,0,L|340:256,1,62.9999980773926,8|2,3:2|0:0,0:0:0:0:
388,184,116450,2,0,B|451:173|451:173|527:186,2,125.999996154785,10|10|2,3:2|0:0|3:2,0:0:0:0:
324,181,117220,2,0,L|262:175,1,62.9999980773926,8|2,3:2|0:0,0:0:0:0:
156,245,117681,2,0,L|147:319,1,62.9999980773926,8|0,3:2|0:0,0:0:0:0:
193,351,117989,2,0,L|267:360,1,62.9999980773926,10|10,0:0|0:0,0:0:0:0:
298,328,118296,5,4,3:2:0:0:
451,362,118758,1,0,3:2:0:0:
440,310,118912,2,0,L|414:171,1,105.000004005432,2|0,3:2|3:2,0:0:0:0:
489,129,119527,2,0,L|512:26,1,105.000004005432,10|0,3:2|0:0,0:0:0:0:
406,21,120143,2,0,B|351:38|351:38|295:12,1,105.000004005432,2|0,3:2|0:0,0:0:0:0:
232,91,120758,2,0,L|221:243,2,105.000004005432,2|0|0,3:2|3:2|0:0,0:0:0:0:
139,40,121681,1,0,3:2:0:0:
58,121,121989,38,0,L|70:250,1,114.800001751709,4|0,3:1|0:0,0:0:0:0:
109,275,122450,2,0,B|147:288|147:288|186:270|186:270|226:279,1,114.800001751709,4|0,3:1|0:0,0:0:0:0:
273,290,122912,2,0,L|338:270,1,57.4000008758545,8|0,3:2|3:2,0:0:0:0:
365,235,123219,1,4,3:2:0:0:
447,17,123681,5,0,3:2:0:0:
484,54,123835,2,0,L|458:193,1,105.000004005432,2|0,3:2|3:2,0:0:0:0:
432,257,124450,2,0,B|380:273|380:273|327:249,1,105.000004005432,10|0,3:2|0:0,0:0:0:0:
260,327,125066,2,0,B|208:310|208:310|155:334,1,105.000004005432,2|0,3:2|0:0,0:0:0:0:
129,298,125527,1,0,0:0:0:0:
129,298,125681,2,0,L|140:146,1,105.000004005432,2|0,3:2|3:2,0:0:0:0:
66,115,126296,1,0,0:0:0:0:
117,23,126604,1,0,3:2:0:0:
231,10,126912,38,0,L|360:22,1,114.800001751709,4|0,3:1|0:0,0:0:0:0:
390,65,127373,1,4,3:1:0:0:
390,65,127527,2,0,L|392:139,1,57.4000008758545,8|0,0:0|0:0,0:0:0:0:
432,163,127835,2,0,L|430:220,1,57.4000008758545,8|0,3:2|3:2,0:0:0:0:
429,273,128143,5,4,3:2:0:0:
350,342,128450,1,2,0:0:0:0:
275,267,128758,2,0,L|142:277,1,105.000004005432,2|0,3:2|3:2,0:0:0:0:
90,343,129373,2,0,B|31:331|31:331|6:288,1,105.000004005432,10|0,3:2|0:0,0:0:0:0:
8,186,129989,2,0,L|14:81,1,105.000004005432,2|0,3:2|3:2,0:0:0:0:
94,13,130604,2,0,L|239:-1,1,105.000004005432,2|0,3:2|3:2,0:0:0:0:
237,38,131066,1,0,0:0:0:0:
237,38,131219,2,0,L|228:192,1,105.000004005432,2|0,3:2|3:2,0:0:0:0:
313,223,131835,38,0,B|369:228|369:228|426:197,1,114.800001751709,4|0,3:1|0:0,0:0:0:0:
461,160,132296,2,0,L|437:47,1,114.800001751709,4|0,3:1|0:0,0:0:0:0:
396,6,132758,2,0,L|326:-2,1,57.4000008758545,8|0,3:2|3:2,0:0:0:0:
298,40,133066,6,0,L|182:59,1,105.000004005432,4|2,3:2|0:0,0:0:0:0:
91,77,133681,2,0,L|109:190,1,105.000004005432,2|0,3:2|3:2,0:0:0:0:
137,281,134296,2,0,L|250:262,1,105.000004005432,10|0,3:2|0:0,0:0:0:0:
218,161,134912,1,2,3:2:0:0:
194,56,135219,1,0,3:2:0:0:
296,34,135527,2,0,B|346:64|346:64|413:58,2,105.000004005432,2|0|2,3:2|3:2|3:2,0:0:0:0:
194,56,136450,1,0,3:2:0:0:
218,161,136758,38,0,L|329:179,1,105.000004005432,4|0,3:1|3:2,0:0:0:0:
377,193,137219,1,4,3:1:0:0:
377,193,137373,2,0,L|442:183,1,52.5000020027161,8|8,3:2|3:2,0:0:0:0:
435,130,137681,1,8,3:2:0:0:
382,23,137989,6,0,L|523:20,2,119.000002269745,4|0|8,3:2|0:0|3:2,0:0:0:0:
349,72,138758,2,0,L|287:74,1,59.5000011348725,0|0,3:2|0:0,0:0:0:0:
189,138,139219,6,0,L|63:135,2,119.000002269745,4|0|8,3:2|0:0|3:2,0:0:0:0:
243,162,139988,2,0,L|241:225,1,59.5000011348725,0|0,3:2|0:0,0:0:0:0:
274,336,140450,6,0,B|196:343|196:343|161:315|161:315|83:321,1,178.500003404617,4|0,3:2|3:2,0:0:0:0:
72,269,141066,2,0,L|66:196,1,59.5000011348725,8|0,3:2|3:2,0:0:0:0:
61,150,141373,1,0,0:0:0:0:
140,61,141681,2,0,L|271:51,1,119.000002269745,4|0,3:2|0:0,0:0:0:0:
315,84,142143,1,0,3:2:0:0:
315,84,142296,2,0,L|310:157,1,59.5000011348725,8|0,3:2|3:2,0:0:0:0:
362,174,142604,1,8,3:2:0:0:
293,271,142912,6,0,L|154:265,2,119.000002269745,4|0|8,3:2|0:0|3:2,0:0:0:0:
338,309,143681,2,0,L|410:298,1,59.5000011348725,0|0,3:2|0:0,0:0:0:0:
478,212,144143,6,0,L|472:93,2,119.000002269745,4|0|8,3:2|0:0|3:2,0:0:0:0:
418,212,144912,2,0,L|359:201,1,59.5000011348725,0|0,3:2|0:0,0:0:0:0:
248,158,145373,2,0,B|196:165|196:165|179:189|179:189|130:195,1,119.000002269745,4|0,3:2|0:0,0:0:0:0:
118,144,145835,1,0,3:2:0:0:
118,144,145989,2,0,L|127:16,1,119.000002269745,8|0,3:2|0:0,0:0:0:0:
242,0,146604,6,0,L|360:9,1,119.000002269745,4|0,3:2|3:2,0:0:0:0:
405,55,147066,1,0,3:2:0:0:
405,55,147219,2,0,L|415:129,1,59.5000011348725,8|8,3:2|3:2,0:0:0:0:
454,156,147527,1,8,3:2:0:0:
376,247,147835,6,0,B|323:213|323:213|267:221,2,119.000002269745,4|0|8,3:2|0:0|3:2,0:0:0:0:
427,276,148604,2,0,L|463:329,1,59.5000011348725
352,376,149066,6,0,L|215:365,1,119.000002269745,4|0,3:2|0:0,0:0:0:0:
196,319,149527,1,0,3:2:0:0:
196,319,149681,2,0,L|59:330,1,119.000002269745,8|0,3:2|0:0,0:0:0:0:
8,231,150296,6,0,B|38:149|38:149|25:113,1,119.000002269745,4|0,3:2|0:0,0:0:0:0:
55,66,150758,1,0,3:2:0:0:
55,66,150912,2,0,L|45:7,2,59.5000011348725,8|0|0,3:2|3:2|0:0,0:0:0:0:
163,111,151527,2,0,B|219:115|219:115|274:81|274:81|332:84,1,178.500003404617,4|0,3:2|3:2,0:0:0:0:
384,111,152143,2,0,L|415:238,1,119.000002269745,8|8,3:2|3:2,0:0:0:0:
431,282,152604,1,8,3:2:0:0:
431,282,152758,6,0,L|303:265,2,119.000002269745,4|0|8,3:2|0:0|3:2,0:0:0:0:
506,187,153681,1,0,0:0:0:0:
428,98,153989,6,0,L|300:115,2,119.000002269745,4|0|8,3:2|0:0|3:2,0:0:0:0:
506,187,154912,1,0,0:0:0:0:
431,282,155219,6,0,B|367:262|367:262|318:282,1,119.000002269745,4|0,3:2|0:0,0:0:0:0:
276,324,155681,1,0,3:2:0:0:
276,324,155835,2,0,L|153:311,1,119.000002269745,8|0,3:2|0:0,0:0:0:0:
117,203,156450,2,0,L|58:212,2,57.4000008758545,12|8|8,3:2|3:2|3:2,0:0:0:0:
162,174,156912,2,0,L|233:162,2,57.4000008758545,0|8|0,3:2|3:2|3:2,0:0:0:0:
149,117,157373,1,8,3:2:0:0:
189,79,160143,6,0,B|130:63|130:63|74:96,1,125.999996154785,4|2,3:1|0:0,0:0:0:0:
31,139,160604,1,0,3:2:0:0:
31,139,160758,2,0,L|34:211,2,62.9999980773926,10|0|2,3:2|3:2|0:0,0:0:0:0:
154,165,161373,2,0,L|142:309,1,125.999996154785,2|2,3:2|0:0,0:0:0:0:
187,336,161835,1,0,3:2:0:0:
187,336,161989,2,0,B|251:362,1,62.9999980773926,8|0,3:2|0:0,0:0:0:0:
307,347,162296,1,10,0:0:0:0:
378,242,162604,6,0,B|443:218|443:218|494:243,1,125.999996154785,6|2,3:2|0:0,0:0:0:0:
511,185,163066,1,0,3:2:0:0:
511,185,163219,2,0,L|513:98,2,62.9999980773926,10|0|2,3:2|3:2|0:0,0:0:0:0:
422,94,163835,2,0,L|281:88,1,125.999996154785,0|2,0:0|0:0,0:0:0:0:
258,140,164297,1,0,3:2:0:0:
258,140,164450,2,0,B|236:202|236:202|268:290,1,125.999996154785,8|2,3:2|0:0,0:0:0:0:
138,304,165066,6,0,L|126:382,2,62.9999980773926,6|8|2,3:2|3:2|0:0,0:0:0:0:
97,263,165527,1,0,3:2:0:0:
97,263,165681,2,0,B|64:208|64:208|71:146,1,125.999996154785,10|10,3:2|0:0,0:0:0:0:
95,22,166296,2,0,L|174:43,1,62.9999980773926,10|2,3:2|3:2,0:0:0:0:
211,68,166604,2,0,B|274:48|274:48|332:61,1,125.999996154785,8|8,3:2|3:2,0:0:0:0:
383,99,167066,2,0,L|400:172,1,62.9999980773926,0|10,0:0|0:0,0:0:0:0:
408,286,167527,6,0,L|252:268,1,125.999996154785,4|2,3:1|0:0,0:0:0:0:
220,261,167989,1,0,3:2:0:0:
220,261,168143,2,0,L|130:272,1,62.9999980773926,10|0,3:2|3:2,0:0:0:0:
97,287,168450,1,2,0:0:0:0:
25,182,168758,2,0,L|66:49,1,125.999996154785,2|2,3:2|0:0,0:0:0:0:
113,24,169219,1,0,3:2:0:0:
113,24,169373,2,0,L|190:16,2,62.9999980773926,8|0|2,3:2|0:0|0:0,0:0:0:0:
190,141,169989,6,0,B|223:125|223:125|249:143|249:143|276:161|276:161|313:145,1,125.999996154785,6|2,3:2|0:0,0:0:0:0:
363,135,170450,1,0,3:2:0:0:
363,135,170604,2,0,L|348:73,2,62.9999980773926,10|0|2,3:2|3:2|0:0,0:0:0:0:
470,201,171219,2,0,B|410:220|410:220|399:290,1,125.999996154785,2|2,3:2|0:0,0:0:0:0:
393,349,171681,1,2,3:2:0:0:
393,349,171835,2,0,B|337:313|337:313|265:314,1,125.999996154785,8|10,3:2|0:0,0:0:0:0:
165,372,172450,6,0,L|14:360,1,125.999996154785,6|0,3:2|0:0,0:0:0:0:
10,311,172913,1,0,3:2:0:0:
10,311,173066,2,0,L|2:155,1,125.999996154785,10|2,3:2|0:0,0:0:0:0:
34,62,173681,2,0,B|78:13|78:13|138:6,1,125.999996154785,0|2,0:0|0:0,0:0:0:0:
181,52,174143,1,0,3:2:0:0:
181,52,174296,2,0,L|267:58,2,62.9999980773926,8|0|2,3:2|0:0|0:0,0:0:0:0:
133,169,174912,6,0,L|153:243,1,62.9999980773926,6|8,3:2|3:2,0:0:0:0:
194,274,175219,2,0,L|174:348,1,62.9999980773926,2|0,0:0|3:2,0:0:0:0:
233,364,175527,1,10,3:2:0:0:
357,346,175835,1,10,0:0:0:0:
481,324,176143,2,0,L|495:256,1,62.9999980773926,2|8,3:2|3:2,0:0:0:0:
508,201,176450,2,0,L|495:139,1,62.9999980773926,2|8,0:0|3:2,0:0:0:0:
450,94,176758,2,0,L|470:32,2,62.9999980773926,8|8|10,3:2|0:0|0:0,0:0:0:0:
330,132,177373,6,0,L|125:97,1,188.999994232178,4|0,3:1|3:2,0:0:0:0:
85,125,177988,2,0,L|64:267,1,125.999996154785,10|2,3:2|0:0,0:0:0:0:
109,295,178449,2,0,L|258:307,1,125.999996154785,2|2,3:2|3:2,0:0:0:0:
360,345,179065,5,2,3:2:0:0:
360,345,179219,2,0,L|502:324,1,125.999996154785,10|0,3:2|0:0,0:0:0:0:
493,264,179680,2,0,L|481:115,1,125.999996154785,2|2,3:2|3:2,0:0:0:0:
379,75,180296,5,2,3:2:0:0:
379,75,180449,2,0,B|318:49|318:49|243:85,1,125.999996154785,10|0,3:2|0:0,0:0:0:0:
233,130,180911,2,0,L|214:261,2,125.999996154785,2|10|0,3:2|3:2|3:2,0:0:0:0:
127,196,181834,1,2,3:2:0:0:
127,196,181988,2,0,L|117:270,1,62.9999980773926,10|10,3:2|3:2,0:0:0:0:
137,319,182296,6,0,B|227:360|227:360|323:313,1,188.999994232178,4|0,3:1|3:2,0:0:0:0:
371,320,182912,2,0,L|374:181,1,125.999996154785,10|2,3:2|0:0,0:0:0:0:
340,140,183373,2,0,L|197:131,1,125.999996154785,2|2,3:2|3:2,0:0:0:0:
116,61,183989,5,2,3:2:0:0:
116,61,184143,2,0,L|103:187,1,125.999996154785,10|0,3:2|0:0,0:0:0:0:
71,240,184604,2,0,B|133:273|133:273|196:247,1,125.999996154785,2|10,3:2|3:2,0:0:0:0:
297,191,185219,5,2,3:2:0:0:
297,191,185373,2,0,L|300:277,2,62.9999980773926,10|0|10,3:2|0:0|3:2,0:0:0:0:
329,136,185835,1,4,3:1:0:0:
212,86,186143,1,4,3:1:0:0:
104,150,186450,1,4,3:1:0:0:
94,275,186758,2,0,B|184:244|184:244|261:310,1,188.999994232178,4|0,3:1|0:0,0:0:0:0:
