osu file format v14

[General]
AudioFilename: audio.mp3
AudioLeadIn: 0
PreviewTime: 29834
Countdown: 0
SampleSet: None
StackLeniency: 0.3
Mode: 0
LetterboxInBreaks: 0
WidescreenStoryboard: 0

[Editor]
DistanceSpacing: 1.04
BeatDivisor: 4
GridSize: 32
TimelineZoom: 2.3

[Metadata]
Title:Make a Move (Speed Up Ver.)
TitleUnicode:Make a Move (Speed Up Ver.)
Artist:Icon For Hire
ArtistUnicode:Icon For Hire
Creator:Sotarks
Version:Riven's Extreme
Source:
Tags:TheFlandreChan Nightcore Flandre Chan KyuubiZz Zuni Scarlet Nightcore4Ever Ever Flan-Chan Ascendance Armin A_r_m_i_n Akitoshi Corinn -Laura- Chromoxx Kyuukai Yaleufeu Lami Naotoshi Nao_Tomori ShogunMoon Shunao Nevo Riven SnowNiNo_ intoon
BeatmapID:1611276
BeatmapSetID:765778

[Difficulty]
HPDrainRate:5.2
CircleSize:4
OverallDifficulty:9.4
ApproachRate:9.4
SliderMultiplier:1.6
SliderTickRate:1

[Events]
//Background and Video events
0,0,"BG.jpg",0,0
//Break Periods
//Storyboard Layer 0 (Background)
//Storyboard Layer 1 (Fail)
//Storyboard Layer 2 (Pass)
//Storyboard Layer 3 (Foreground)
//Storyboard Sound Samples

[TimingPoints]
3395,296.237780191567,4,3,22,35,1,0
3395,-125,4,3,22,35,0,0
6357,-117.647058823529,4,3,22,35,0,0
6949,-105.263157894737,4,3,22,40,0,0
8134,-103.092783505155,4,3,22,43,0,0
9319,-90.9090909090909,4,3,22,50,0,0
10430,-90.9090909090909,4,3,22,5,0,0
10504,-90.9090909090909,4,3,22,50,0,0
11615,-90.9090909090909,4,3,22,5,0,0
11689,-90.9090909090909,4,3,22,50,0,0
12800,-90.9090909090909,4,3,22,5,0,0
12874,-90.9090909090909,4,3,22,50,0,0
16207,-90.9090909090909,4,3,22,5,0,0
16281,-90.9090909090909,4,3,22,50,0,0
18799,-90.9090909090909,4,3,22,55,0,0
23168,-90.9090909090909,4,3,22,5,0,0
23242,-90.9090909090909,4,3,22,55,0,0
23465,-90.9090909090909,4,3,22,5,0,0
23539,-90.9090909090909,4,3,22,55,0,0
25909,-125,4,3,22,30,0,0
28278,-100,4,3,22,75,0,0
30648,-71.4285714285714,4,3,22,75,0,1
30871,-71.4285714285714,4,3,22,5,0,1
30945,-71.4285714285714,4,3,22,75,0,1
32056,-71.4285714285714,4,3,22,5,0,1
32130,-71.4285714285714,4,3,22,75,0,1
35018,-71.4285714285714,4,3,22,5,0,1
35092,-71.4285714285714,4,3,22,75,0,1
35610,-71.4285714285714,4,3,22,5,0,1
35684,-71.4285714285714,4,3,22,75,0,1
36795,-71.4285714285714,4,3,22,5,0,1
36869,-71.4285714285714,4,3,22,75,0,1
37980,-71.4285714285714,4,3,22,5,0,1
38054,-71.4285714285714,4,3,22,75,0,1
39536,-76.9230769230769,4,3,22,70,0,0
39684,-76.9230769230769,4,3,22,5,0,0
39758,-76.9230769230769,4,3,22,70,0,0
39906,-76.9230769230769,4,3,22,5,0,0
39980,-76.9230769230769,4,3,22,70,0,0
40128,-76.9230769230769,4,3,22,75,0,1
40350,-76.9230769230769,4,3,22,5,0,1
40424,-76.9230769230769,4,3,22,75,0,1
40943,-76.9230769230769,4,3,22,5,0,1
41017,-76.9230769230769,4,3,22,75,0,1
41535,-76.9230769230769,4,3,22,5,0,1
41609,-76.9230769230769,4,3,22,75,0,1
42276,-76.9230769230769,4,3,22,5,0,1
42350,-76.9230769230769,4,3,22,75,0,1
42720,-76.9230769230769,4,3,22,5,0,1
42794,-76.9230769230769,4,3,22,75,0,1
43313,-76.9230769230769,4,3,22,5,0,1
43387,-76.9230769230769,4,3,22,75,0,1
45090,-76.9230769230769,4,3,22,5,0,1
45164,-76.9230769230769,4,3,22,75,0,1
45682,-76.9230769230769,4,3,22,5,0,1
45757,-76.9230769230769,4,3,22,75,0,1
46275,-76.9230769230769,4,3,22,5,0,1
46349,-76.9230769230769,4,3,22,75,0,1
47460,-76.9230769230769,4,3,22,5,0,1
47534,-76.9230769230769,4,3,22,75,0,1
48719,-76.9230769230769,4,3,22,82,0,0

[Colours]
Combo1 : 128,106,106
Combo2 : 242,189,111
Combo3 : 179,231,255
Combo4 : 249,255,176

[HitObjects]
3,127,4431,6,0,B|69:140|60:105|134:121,1,128,0|0,0:0|0:0,0:0:0:0:
199,173,4876,1,0,0:0:0:0:
160,252,5024,1,0,0:0:0:0:
169,339,5172,1,0,0:0:0:0:
269,115,5468,1,0,0:0:0:0:
269,115,5764,5,0,0:0:0:0:
291,106,5838,1,0,0:0:0:0:
315,106,5913,1,0,0:0:0:0:
337,114,5987,1,0,0:0:0:0:
356,129,6061,1,0,0:0:0:0:
378,136,6135,1,0,0:0:0:0:
402,134,6209,1,0,0:0:0:0:
423,125,6283,1,0,0:0:0:0:
441,108,6357,2,0,L|435:5,2,102.000001945496,0|0|0,0:0|0:0|0:0,0:0:0:0:
506,231,6949,6,0,P|460:211|404:221,1,75.9999979705811,0|0,0:0|0:0,0:0:0:0:
354,246,7246,1,0,0:0:0:0:
284,298,7394,1,0,0:0:0:0:
197,310,7542,1,0,0:0:0:0:
441,233,7838,1,0,0:0:0:0:
267,56,8134,6,0,L|277:218,1,155.200003670654,0|0,0:0|0:0,0:0:0:0:
284,298,8579,1,0,0:0:0:0:
208,376,8727,2,0,B|145:390|158:357|93:374,2,116.400002752991,0|0|0,0:0|0:0|0:0,0:0:0:0:
450,353,9319,6,0,P|406:359|365:341,1,88.000002685547,2|0,1:2|0:0,0:0:0:0:
270,276,9615,2,0,P|226:270|186:286,1,88.000002685547,2|0,1:2|0:0,0:0:0:0:
94,374,9912,1,2,1:2:0:0:
24,189,10060,1,0,0:0:0:0:
24,189,10208,2,0,L|160:199,1,132.00000402832,2|0,1:2|0:0,0:0:0:0:
184,202,10504,5,2,1:2:0:0:
83,98,10652,1,0,0:0:0:0:
252,125,10800,1,2,1:2:0:0:
127,14,10949,1,0,0:0:0:0:
96,213,11097,2,0,L|190:201,1,88.000002685547,2|0,1:2|0:0,0:0:0:0:
393,313,11393,2,0,P|328:317|276:278,1,132.00000402832,2|0,1:2|0:0,0:0:0:0:
264,253,11689,6,0,L|273:152,1,88.000002685547,2|2,1:2|0:2,0:0:0:0:
111,124,11985,2,0,L|203:111,1,88.000002685547,2|0,1:2|0:0,0:0:0:0:
285,63,12282,1,2,1:2:0:0:
355,234,12430,1,2,0:2:0:0:
355,234,12578,2,0,B|369:90,1,132.00000402832,2|0,1:2|0:0,0:0:0:0:
372,74,12874,5,2,1:2:0:0:
444,190,13022,1,0,0:0:0:0:
273,198,13170,1,2,1:2:0:0:
388,321,13319,1,0,0:0:0:0:
190,242,13467,2,0,P|150:229|76:239,1,88.000002685547,2|0,1:2|0:0,0:0:0:0:
50,318,13763,1,2,1:2:0:0:
50,318,13837,1,0,0:0:0:0:
50,318,13911,2,0,P|79:310|113:315,1,44.0000013427735,0|0,0:0|0:0,0:0:0:0:
233,370,14059,6,0,P|274:383|320:375,1,88.000002685547,2|0,1:2|0:0,0:0:0:0:
387,269,14355,2,0,P|388:228|386:173,1,88.000002685547,2|0,1:2|0:0,0:0:0:0:
273,111,14652,1,2,1:2:0:0:
238,210,14800,1,2,0:2:0:0:
277,96,14948,1,2,1:2:0:0:
233,226,15096,1,2,0:2:0:0:
249,14,15244,5,2,1:2:0:0:
318,188,15392,1,2,0:2:0:0:
242,0,15540,1,2,1:2:0:0:
327,210,15688,1,2,0:2:0:0:
91,151,15836,5,2,1:2:0:0:
339,79,15985,2,0,L|325:226,1,132.00000402832,2|0,0:2|0:0,0:0:0:0:
336,236,16281,1,2,0:2:0:0:
218,338,16429,5,2,1:2:0:0:
403,296,16577,1,0,0:0:0:0:
242,249,16725,1,2,1:2:0:0:
377,382,16873,1,0,0:0:0:0:
236,161,17021,2,0,L|242:265,1,88.000002685547,2|0,1:2|0:0,0:0:0:0:
300,354,17318,1,2,1:2:0:0:
409,257,17466,1,2,0:2:0:0:
409,257,17613,6,0,P|370:235|327:235,1,88.000002685547,2|0,1:2|0:0,0:0:0:0:
245,284,17909,1,2,1:2:0:0:
164,183,18057,1,2,0:2:0:0:
298,0,18206,5,8,3:0:0:0:
502,243,18429,5,8,3:0:0:0:
163,325,18651,5,8,3:0:0:0:
335,147,18799,6,0,L|326:254,1,88.000002685547,6|2,1:2|0:2,0:0:0:0:
388,345,19095,2,0,P|430:354|476:328,1,88.000002685547,2|0,0:2|0:0,0:0:0:0:
252,376,19391,1,10,0:0:0:0:
420,261,19539,1,2,0:2:0:0:
229,184,19688,1,2,0:2:0:0:
310,313,19836,1,0,0:0:0:0:
331,153,19984,6,0,L|338:65,1,88.000002685547,2|2,1:2|0:2,0:0:0:0:
169,95,20280,2,0,P|212:99|252:80,1,88.000002685547,2|0,0:2|0:0,0:0:0:0:
483,196,20576,2,0,P|412:209|320:122,1,176.000005371094,10|2,0:0|0:2,0:0:0:0:
423,114,21021,1,2,0:2:0:0:
310,292,21169,6,0,P|353:291|397:288,1,88.000002685547,2|0,1:2|0:0,0:0:0:0:
512,271,21465,1,2,0:2:0:0:
400,164,21613,1,2,0:2:0:0:
228,354,21761,2,0,P|184:353|140:350,1,88.000002685547,10|0,0:0|0:0,0:0:0:0:
21,315,22057,1,2,0:2:0:0:
163,224,22205,1,2,0:2:0:0:
10,95,22354,5,2,1:2:0:0:
79,252,22502,1,2,0:2:0:0:
211,146,22650,1,2,0:2:0:0:
141,0,22798,1,2,0:2:0:0:
163,224,22946,2,0,P|227:233|298:166,1,132.00000402832,10|0,0:0|0:0,0:0:0:0:
288,174,23242,2,0,P|262:237|275:301,1,132.00000402832,2|0,0:2|0:0,0:0:0:0:
288,322,23539,6,0,L|386:318,1,88.000002685547,2|2,1:2|0:2,0:0:0:0:
187,379,23835,2,0,L|89:375,1,88.000002685547,2|0,0:2|0:0,0:0:0:0:
195,182,24131,1,10,0:0:0:0:
281,348,24279,1,2,0:2:0:0:
183,279,24427,1,2,0:2:0:0:
70,300,24576,1,2,0:2:0:0:
190,87,24724,6,0,B|286:106|249:149|348:178,1,176.000005371094,2|2,1:2|0:2,0:0:0:0:
495,30,25168,2,0,P|407:26|344:86,1,176.000005371094,2|0,0:2|0:0,0:0:0:0:
334,262,25612,2,0,P|337:218|338:174,1,88.000002685547,0|2,0:0|0:2,0:0:0:0:
89,250,25909,5,2,1:2:0:0:
170,287,26057,1,0,0:0:0:0:
168,267,26353,5,0,0:0:0:0:
253,292,26501,1,0,0:0:0:0:
334,262,26649,1,0,0:0:0:0:
327,243,26945,5,0,0:0:0:0:
417,237,27093,1,0,0:0:0:0:
491,286,27242,2,0,L|489:300,24,8,0|0|0|0|0|0|0|0|0|0|0|0|0|0|0|0|0|0|0|0|0|0|0|0|0,0:0|0:0|0:0|0:0|0:0|0:0|0:0|0:0|0:0|0:0|0:0|0:0|0:0|0:0|0:0|0:0|0:0|0:0|0:0|0:0|0:0|0:0|0:0|0:0|0:0,0:0:0:0:
39,101,28278,5,8,0:0:0:0:
290,47,28426,1,0,1:0:0:0:
39,101,28575,1,0,1:0:0:0:
494,175,28723,5,8,0:0:0:0:
233,115,28872,1,0,1:0:0:0:
494,175,29020,1,0,1:0:0:0:
57,300,29167,5,8,0:0:0:0:
299,173,29316,1,0,1:0:0:0:
57,300,29464,1,0,1:0:0:0:
479,345,29612,5,8,0:0:0:0:
220,224,29761,1,0,1:0:0:0:
479,345,29909,1,0,1:0:0:0:
335,98,30056,5,8,0:0:0:0:
297,371,30204,1,2,0:2:0:0:
486,173,30352,1,2,0:2:0:0:
220,224,30500,1,2,0:2:0:0:
452,76,30648,6,0,L|438:294,1,167.999994873047,6|0,1:2|0:0,0:0:0:0:
390,306,30945,2,0,P|334:303|291:269,1,111.999996582031,6|0,1:2|0:0,0:0:0:0:
261,17,31241,1,10,0:0:0:0:
60,166,31389,1,2,0:2:0:0:
261,17,31537,1,2,1:2:0:0:
167,308,31685,1,10,0:0:0:0:
47,75,31833,6,0,B|94:73|126:102|126:102|179:107|228:58,1,167.999994873047,6|0,1:2|0:0,0:0:0:0:
261,17,32130,2,0,P|314:8|375:27,1,111.999996582031,6|0,1:2|0:0,0:0:0:0:
405,309,32426,1,10,0:0:0:0:
310,96,32574,1,2,0:2:0:0:
294,357,32722,1,2,0:2:0:0:
494,180,32870,5,2,0:0:0:0:
494,180,32944,1,8,0:0:0:0:
494,180,33018,1,6,1:2:0:0:
229,244,33166,1,2,0:2:0:0:
405,42,33315,2,0,L|396:187,1,111.999996582031,2|0,1:2|0:0,0:0:0:0:
380,367,33611,1,10,0:0:0:0:
274,127,33759,1,2,1:2:0:0:
380,367,33907,1,0,1:2:0:0:
95,271,34055,1,8,0:0:0:0:
363,243,34203,5,6,1:2:0:0:
198,46,34351,1,2,0:0:0:0:
224,324,34499,2,0,L|237:189,1,111.999996582031,2|0,1:2|0:0,0:0:0:0:
1,206,34796,2,0,P|74:227|156:178,1,167.999994873047,10|0,0:0|0:0,0:0:0:0:
206,127,35092,2,0,P|260:129|306:160,1,111.999996582031,2|2,0:2|0:2,0:0:0:0:
512,339,35388,6,0,B|427:320|439:365|345:342,1,167.999994873047,6|0,1:2|0:0,0:0:0:0:
304,273,35684,2,0,P|305:217|308:161,1,111.999996582031,6|0,1:2|0:0,0:0:0:0:
324,0,35981,1,10,0:0:0:0:
211,184,36129,1,2,0:2:0:0:
324,0,36277,1,2,1:2:0:0:
396,274,36425,1,8,0:0:0:0:
180,90,36573,6,0,P|89:93|11:150,1,167.999994873047,6|0,1:2|0:0,0:0:0:0:
7,210,36869,2,0,L|15:321,1,111.999996582031,4|0,1:0|0:0,0:0:0:0:
71,10,37166,1,10,0:0:0:0:
164,208,37314,1,2,0:2:0:0:
271,32,37462,2,0,P|321:9|377:14,1,111.999996582031,2|2,1:2|0:2,0:0:0:0:
499,187,37758,6,0,P|445:123|367:94,1,167.999994873047,2|0,1:2|0:0,0:0:0:0:
340,103,38054,1,0,1:0:0:0:
198,207,38202,1,2,0:2:0:0:
432,308,38351,1,2,1:2:0:0:
240,109,38499,1,2,0:2:0:0:
161,362,38647,1,2,1:2:0:0:
406,192,38795,1,2,0:2:0:0:
141,60,38943,5,2,1:2:0:0:
275,298,39091,1,2,0:2:0:0:
354,0,39239,2,0,L|346:111,1,111.999996582031,2|0,1:2|0:0,0:0:0:0:
26,191,39536,6,0,P|66:171|153:185,1,103.999995239258,10|0,0:0|0:0,0:0:0:0:
195,207,39758,2,0,P|223:241|229:329,1,103.999995239258,6|0,3:0|0:0,0:0:0:0:
188,364,39980,1,6,3:0:0:0:
370,196,40128,6,0,P|450:205|511:257,1,155.999992858887,6|0,1:2|0:0,0:0:0:0:
507,251,40424,2,0,L|498:140,1,103.999995239258,8|0,0:0|0:0,0:0:0:0:
205,101,40720,2,0,B|296:124|282:80|358:99,1,155.999992858887,2|0,1:2|0:0,0:0:0:0:
358,99,41017,2,0,P|380:157|358:212,1,103.999995239258,8|0,0:0|0:0,0:0:0:0:
239,350,41313,6,0,P|183:308|74:302,1,155.999992858887,2|0,1:2|0:0,0:0:0:0:
99,296,41609,2,0,P|155:260|229:255,1,103.999995239258,8|0,0:0|0:0,0:0:0:0:
429,360,41905,2,0,P|372:346|320:281,1,103.999995239258,2|0,1:2|0:0,0:0:0:0:
293,256,42128,1,2,0:2:0:0:
293,256,42202,2,0,L|299:195,1,51.999997619629,8|0,0:0|0:0,0:0:0:0:
313,102,42350,1,2,0:2:0:0:
150,0,42498,6,0,L|159:173,1,155.999992858887,6|0,1:2|0:0,0:0:0:0:
158,155,42794,2,0,P|102:151|52:152,1,103.999995239258,8|0,0:0|0:0,0:0:0:0:
240,333,43090,2,0,P|323:341|384:286,1,155.999992858887,2|0,1:2|0:0,0:0:0:0:
377,298,43387,2,0,P|416:267|490:273,1,103.999995239258,8|0,0:0|0:0,0:0:0:0:
375,60,43683,6,0,P|307:23|230:26,1,155.999992858887,2|0,1:2|0:0,0:0:0:0:
230,25,43979,1,8,0:0:0:0:
65,108,44127,1,2,0:2:0:0:
243,243,44275,1,2,1:2:0:0:
149,42,44423,1,0,0:0:0:0:
153,78,44497,1,2,0:2:0:0:
157,114,44572,1,8,0:0:0:0:
119,220,44720,2,0,P|159:202|197:200,1,51.999997619629,2|0,1:2|1:0,0:0:0:0:
377,282,44868,6,0,P|299:290|238:233,1,155.999992858887,6|0,1:2|0:0,0:0:0:0:
242,242,45164,2,0,L|264:115,1,103.999995239258,8|0,0:0|0:0,0:0:0:0:
21,342,45460,2,0,P|96:330|175:322,1,155.999992858887,2|0,1:2|0:0,0:0:0:0:
176,321,45757,2,0,P|229:351|251:390,1,103.999995239258,8|0,0:0|0:0,0:0:0:0:
512,287,46053,6,0,B|426:265|440:310|359:288,1,155.999992858887,2|0,1:2|0:0,0:0:0:0:
358,288,46349,2,0,L|372:162,1,103.999995239258,8|0,0:0|0:0,0:0:0:0:
391,29,46645,1,2,1:2:0:0:
276,175,46793,1,2,0:2:0:0:
471,126,46941,1,10,0:0:0:0:
267,19,47090,1,2,0:2:0:0:
267,19,47238,6,0,L|276:187,1,155.999992858887,0|0,1:2|0:0,0:0:0:0:
276,175,47534,2,0,P|227:170|149:172,1,103.999995239258,8|0,0:0|0:0,0:0:0:0:
398,304,47830,5,8,0:0:0:0:
124,244,47978,1,8,0:0:0:0:
393,127,48127,1,8,0:0:0:0:
254,369,48275,1,8,0:0:0:0:
117,68,48423,5,4,0:0:0:0:
84,339,48571,1,4,0:0:0:0:
341,217,48719,1,12,0:0:0:0:
