osu file format v14

[General]
AudioFilename: audio.mp3
AudioLeadIn: 0
PreviewTime: 29834
Countdown: 0
SampleSet: None
StackLeniency: 0.5
Mode: 0
LetterboxInBreaks: 0
WidescreenStoryboard: 0

[Editor]
Bookmarks: 40128
DistanceSpacing: 1.2
BeatDivisor: 4
GridSize: 4
TimelineZoom: 2

[Metadata]
Title:Make a Move (Speed Up Ver.)
TitleUnicode:Make a Move (Speed Up Ver.)
Artist:Icon For Hire
ArtistUnicode:Icon For Hire
Creator:Sotarks
Version:Kyuukai's Extreme
Source:
Tags:TheFlandreChan Nightcore Flandre Chan KyuubiZz Zuni Scarlet Nightcore4Ever Ever Flan-Chan Ascendance Armin A_r_m_i_n Akitoshi Corinn -Laura- Chromoxx Kyuukai Yaleufeu Lami Naotoshi Nao_Tomori ShogunMoon Shunao Nevo Riven SnowNiNo_ intoon
BeatmapID:1610746
BeatmapSetID:765778

[Difficulty]
HPDrainRate:5.2
CircleSize:3.6
OverallDifficulty:9.4
ApproachRate:9.4
SliderMultiplier:1.8
SliderTickRate:1

[Events]
//Background and Video events
0,0,"BG.jpg",0,0
//Break Periods
2,26109,27739
//Storyboard Layer 0 (Background)
//Storyboard Layer 1 (Fail)
//Storyboard Layer 2 (Pass)
//Storyboard Layer 3 (Foreground)
//Storyboard Sound Samples

[TimingPoints]
3395,296.237780191567,4,3,22,35,1,0
9319,-138.888888888889,4,3,22,52,0,0
10430,-138.888888888889,4,3,22,5,0,0
10504,-138.888888888889,4,3,22,52,0,0
12800,-138.888888888889,4,3,22,5,0,0
12874,-138.888888888889,4,3,22,52,0,0
18207,-121.951219512195,4,3,22,52,0,0
18355,-121.951219512195,4,3,22,5,0,0
18429,-121.951219512195,4,3,22,52,0,0
18577,-121.951219512195,4,3,22,5,0,0
18651,-121.951219512195,4,3,22,52,0,0
18725,-121.951219512195,4,3,22,5,0,0
18799,-108.695652173913,4,3,22,62,0,0
25909,-192.307692307692,4,3,22,32,0,0
28279,-192.307692307692,4,3,22,72,0,0
30649,-81.967213114754,4,3,22,82,0,1
30871,-81.967213114754,4,3,22,5,0,1
30945,-81.967213114754,4,3,22,82,0,1
32056,-81.967213114754,4,3,22,5,0,1
32130,-81.967213114754,4,3,22,82,0,1
35611,-81.967213114754,4,3,22,5,0,1
35685,-81.967213114754,4,3,22,82,0,1
36796,-81.967213114754,4,3,22,5,0,1
36870,-81.967213114754,4,3,22,82,0,1
39536,-89.2857142857143,4,3,22,82,0,0
39684,-89.2857142857143,4,3,22,5,0,0
39758,-98.0392156862745,4,3,22,82,0,0
39906,-98.0392156862745,4,3,22,5,0,0
39980,-138.888888888889,4,3,22,82,0,0
40054,-138.888888888889,4,3,22,5,0,0
40128,-89.2857142857144,4,3,22,82,0,1
48719,-89.2857142857144,4,3,22,82,0,0

[Colours]
Combo1 : 128,106,106
Combo2 : 242,189,111
Combo3 : 150,205,22
Combo4 : 249,255,176

[HitObjects]
100,152,9319,6,0,L|84:72,1,64.8000015820313,2|0,1:2|0:0,0:0:0:0:
192,192,9616,2,0,L|208:112,1,64.8000015820313,2|0,1:2|0:0,0:0:0:0:
112,252,9912,1,2,1:2:0:0:
100,152,10060,1,0,0:0:0:0:
204,292,10208,2,0,P|160:340|108:348,1,97.2000023730469,2|0,1:2|0:0,0:0:0:0:
112,252,10504,5,2,1:2:0:0:
296,328,10653,1,0,0:0:0:0:
388,216,10801,1,2,1:2:0:0:
204,292,10950,1,0,0:0:0:0:
436,320,11097,5,2,1:2:0:0:
112,252,11393,1,2,1:2:0:0:
112,252,11689,6,0,L|112:340,1,64.8000015820313,2|2,1:2|0:2,0:0:0:0:
204,356,11986,2,0,L|204:292,1,64.8000015820313,2|0,1:2|0:0,0:0:0:0:
204,92,12282,1,2,1:2:0:0:
204,192,12430,1,2,0:2:0:0:
387,139,12578,2,0,P|339:132|292:140,1,97.2000023730469,2|0,1:2|0:0,0:0:0:0:
204,192,12874,5,2,1:2:0:0:
340,248,13022,1,0,0:0:0:0:
204,92,13171,1,2,1:2:0:0:
340,264,13319,1,0,0:0:0:0:
288,40,13467,5,2,1:2:0:0:
68,148,13763,1,2,1:2:0:0:
68,148,13837,1,0,0:0:0:0:
68,148,13911,1,0,0:0:0:0:
68,148,13985,1,0,0:0:0:0:
68,148,14059,6,0,P|76:192|68:224,1,64.8000015820313,2|0,1:2|0:0,0:0:0:0:
172,224,14355,2,0,P|156:266|134:289,1,64.8000015820313,2|0,1:2|0:0,0:0:0:0:
72,352,14652,1,2,1:2:0:0:
72,212,14800,1,2,0:2:0:0:
220,348,14948,1,2,1:2:0:0:
12,284,15096,1,2,0:2:0:0:
264,192,15244,5,2,1:2:0:0:
72,212,15392,1,2,0:2:0:0:
320,292,15540,1,2,1:2:0:0:
132,140,15689,1,2,0:2:0:0:
220,348,15837,1,2,1:2:0:0:
264,192,15985,2,0,L|393:192,1,129.600003164063,2|2,0:2|0:2,0:0:0:0:
476,144,16429,6,0,P|488:184|484:220,1,64.8000015820313,2|0,1:2|0:0,0:0:0:0:
404,254,16725,2,0,P|392:214|396:178,1,64.8000015820313,2|0,1:2|0:0,0:0:0:0:
488,308,17022,2,0,P|456:340|424:352,2,64.8000015820313,2|0|2,1:2|0:0|1:2,0:0:0:0:
486,206,17466,1,2,0:2:0:0:
403,254,17614,2,0,P|341:268|278:254,1,129.600003164063,2|2,1:2|1:2,0:0:0:0:
192,208,18058,1,2,0:2:0:0:
416,120,18207,6,0,L|428:4,2,110.700001689148,8|8|8,3:0|3:0|3:0,0:0:0:0:
416,120,18799,5,6,1:2:0:0:
268,60,18947,1,2,0:2:0:0:
320,224,19095,2,0,P|328:183|320:143,1,82.7999972204591,2|0,0:2|0:0,0:0:0:0:
168,60,19392,1,10,0:0:0:0:
268,60,19540,1,2,0:2:0:0:
82,110,19688,1,2,0:2:0:0:
168,60,19836,1,0,0:0:0:0:
33,197,19984,5,2,1:2:0:0:
80,12,20132,1,2,0:2:0:0:
168,160,20280,1,2,0:2:0:0:
168,160,20576,2,0,B|136:196|136:196|136:313,1,165.599994440918,10|2,0:0|0:2,0:0:0:0:
204,384,21021,1,2,0:2:0:0:
391,287,21169,6,0,P|311:268|231:288,1,165.599994440918,2|2,1:2|0:2,0:0:0:0:
416,384,21613,1,2,0:2:0:0:
488,312,21761,2,0,L|488:144,1,165.599994440918,10|2,0:0|0:2,0:0:0:0:
488,48,22206,1,2,0:2:0:0:
272,124,22354,5,2,1:2:0:0:
400,100,22502,1,2,0:2:0:0:
192,44,22650,1,2,0:2:0:0:
352,204,22798,1,2,0:2:0:0:
316,0,22946,5,10,0:0:0:0:
224,264,23243,1,2,0:2:0:0:
224,264,23539,5,2,1:2:0:0:
224,264,23687,1,2,0:2:0:0:
224,264,23835,2,0,L|112:256,1,82.7999972204591,2|0,0:2|0:0,0:0:0:0:
288,360,24131,1,10,0:0:0:0:
288,360,24279,1,2,0:2:0:0:
288,360,24427,2,0,L|400:352,1,82.7999972204591,2|2,0:2|0:2,0:0:0:0:
501,268,24724,6,0,L|336:256,1,165.599994440918,2|2,1:2|0:2,0:0:0:0:
224,264,25168,1,2,0:2:0:0:
272,160,25316,2,0,L|437:147,1,165.599994440918,10|0,0:0|0:0,0:0:0:0:
496,68,25761,1,2,0:2:0:0:
496,68,25909,1,2,1:2:0:0:
208,312,28279,5,8,0:0:0:0:
256,144,28427,1,0,1:0:0:0:
296,264,28575,1,0,1:0:0:0:
180,80,28723,5,8,0:0:0:0:
292,364,28871,1,0,1:0:0:0:
332,80,29019,1,0,1:0:0:0:
124,364,29167,5,8,0:0:0:0:
256,48,29316,1,0,1:0:0:0:
292,364,29464,1,0,1:0:0:0:
100,48,29612,5,8,0:0:0:0:
456,192,29760,1,0,1:0:0:0:
124,364,29908,1,0,1:0:0:0:
84,20,30056,5,8,0:0:0:0:
124,140,30204,1,2,0:2:0:0:
92,36,30352,1,2,0:2:0:0:
44,164,30500,1,2,0:2:0:0:
100,48,30649,6,0,P|179:68|258:48,1,164.699993214569,6|0,1:2|0:0,0:0:0:0:
349,121,30945,2,0,L|356:12,1,109.79999547638,6|0,1:2|0:0,0:0:0:0:
432,192,31241,1,10,0:0:0:0:
258,47,31389,1,2,0:2:0:0:
268,240,31537,1,2,1:2:0:0:
432,52,31685,1,10,0:0:0:0:
348,332,31834,2,0,P|269:352|190:332,1,164.699993214569,6|0,1:2|0:0,0:0:0:0:
104,380,32130,2,0,L|97:270,1,109.79999547638,6|0,1:2|0:0,0:0:0:0:
92,156,32426,5,10,0:0:0:0:
189,331,32574,1,2,0:2:0:0:
194,95,32722,1,2,0:2:0:0:
97,270,32870,1,2,0:0:0:0:
97,270,32944,1,8,0:0:0:0:
97,270,33018,1,6,1:2:0:0:
297,152,33167,1,2,0:2:0:0:
85,46,33315,2,0,L|92:156,1,109.79999547638,2|0,1:2|0:0,0:0:0:0:
97,270,33611,5,10,0:0:0:0:
297,152,33759,1,2,1:2:0:0:
192,76,33907,1,0,1:2:0:0:
424,120,34055,1,8,0:0:0:0:
256,304,34203,1,6,1:2:0:0:
332,28,34352,1,2,0:0:0:0:
460,272,34500,2,0,P|410:249|356:248,1,109.79999547638,2|0,1:2|0:0,0:0:0:0:
156,360,34796,5,10,0:0:0:0:
356,360,34944,1,0,0:0:0:0:
256,192,35092,1,2,0:2:0:0:
256,304,35240,1,2,0:2:0:0:
356,136,35388,6,0,P|280:80|184:104,1,164.699993214569,6|0,1:2|0:0,0:0:0:0:
160,167,35685,2,0,P|105:176|51:167,1,109.79999547638,6|0,1:2|0:0,0:0:0:0:
116,76,35981,1,10,0:0:0:0:
216,276,36129,1,2,0:2:0:0:
213,86,36277,1,2,1:2:0:0:
68,308,36425,1,8,0:0:0:0:
276,164,36573,6,0,B|360:148|360:148|437:163,1,164.699993214569,6|0,1:2|0:0,0:0:0:0:
504,236,36870,2,0,B|504:304|504:304|480:360,1,109.79999547638,4|0,1:0|0:0,0:0:0:0:
360,272,37166,1,10,0:0:0:0:
504,72,37314,1,2,0:2:0:0:
504,236,37462,1,2,1:2:0:0:
296,12,37610,1,2,0:2:0:0:
504,72,37758,5,2,1:2:0:0:
325,151,37906,1,0,0:0:0:0:
392,60,38055,1,0,1:0:0:0:
437,163,38203,1,2,0:2:0:0:
276,48,38351,5,2,1:2:0:0:
209,139,38499,1,2,0:2:0:0:
164,36,38648,1,2,1:2:0:0:
325,151,38795,1,2,0:2:0:0:
97,127,38943,5,2,1:2:0:0:
276,48,39091,1,2,0:2:0:0:
256,244,39239,1,2,1:2:0:0:
209,139,39388,1,0,0:0:0:0:
325,151,39536,6,0,B|288:240|288:240|288:320,2,151.200001845703,10|6|6,0:0|3:0|3:0,0:0:0:0:
325,151,40128,6,0,L|425:161,1,100.800001230469,6|0,1:2|0:0,0:0:0:0:
388,48,40424,1,8,0:0:0:0:
256,244,40573,1,0,0:0:0:0:
488,58,40721,6,0,L|387:47,1,100.800001230469,2|0,1:2|0:0,0:0:0:0:
256,36,41017,1,8,0:0:0:0:
480,264,41165,1,0,0:0:0:0:
387,47,41313,5,2,1:2:0:0:
256,244,41461,1,0,0:0:0:0:
125,47,41609,1,8,0:0:0:0:
256,260,41757,1,0,0:0:0:0:
388,60,41906,5,2,1:2:0:0:
257,273,42054,1,0,0:0:0:0:
124,60,42202,1,8,0:0:0:0:
257,289,42350,1,2,0:2:0:0:
352,192,42498,6,0,P|258:159|164:191,1,201.600002460938,6|8,1:2|0:0,0:0:0:0:
0,312,42942,1,0,0:0:0:0:
44,204,43091,6,0,P|102:285|91:387,1,201.600002460938,2|8,1:2|0:0,0:0:0:0:
0,312,43535,1,0,0:0:0:0:
164,191,43683,5,2,1:2:0:0:
0,84,43831,1,0,0:0:0:0:
272,108,43979,1,8,0:0:0:0:
44,204,44127,1,2,0:2:0:0:
192,0,44276,1,2,1:2:0:0:
244,256,44424,1,0,1:0:0:0:
244,256,44498,1,2,0:2:0:0:
244,256,44572,1,8,0:0:0:0:
408,108,44720,5,2,1:2:0:0:
408,108,44794,1,0,1:0:0:0:
408,108,44868,2,0,B|288:80,1,100.800001230469,6|0,1:2|0:0,0:0:0:0:
192,56,45164,1,8,0:0:0:0:
380,8,45312,1,0,0:0:0:0:
16,200,45460,6,0,B|136:172,1,100.800001230469,2|0,1:2|0:0,0:0:0:0:
232,148,45756,1,8,0:0:0:0:
44,100,45904,1,0,0:0:0:0:
256,292,46053,5,2,1:2:0:0:
316,56,46201,1,0,0:0:0:0:
256,304,46349,1,8,0:0:0:0:
196,56,46497,1,0,0:0:0:0:
256,316,46645,5,2,1:2:0:0:
320,44,46794,1,2,0:2:0:0:
256,328,46942,1,10,0:0:0:0:
192,44,47090,1,2,0:2:0:0:
154,283,47238,5,0,1:2:0:0:
324,32,47387,1,0,0:0:0:0:
115,156,47534,1,8,0:0:0:0:
397,156,47683,1,0,0:0:0:0:
188,32,47830,5,8,0:0:0:0:
364,292,47978,1,8,0:0:0:0:
104,156,48127,1,8,0:0:0:0:
408,156,48275,1,8,0:0:0:0:
148,292,48423,5,4,0:0:0:0:
328,20,48571,1,4,0:0:0:0:
256,340,48719,1,12,0:0:0:0:
