osu file format v14

[General]
AudioFilename: audio.mp3
AudioLeadIn: 0
PreviewTime: 29834
Countdown: 0
SampleSet: None
StackLeniency: 0.7
Mode: 0
LetterboxInBreaks: 0
WidescreenStoryboard: 0

[Editor]
DistanceSpacing: 1.2
BeatDivisor: 4
GridSize: 16
TimelineZoom: 2

[Metadata]
Title:Make a Move (Speed Up Ver.)
TitleUnicode:Make a Move (Speed Up Ver.)
Artist:Icon For Hire
ArtistUnicode:Icon For Hire
Creator:Sotarks
Version:Endless Fear
Source:
Tags:TheFlandreChan Nightcore Flandre Chan KyuubiZz Zuni Scarlet Nightcore4Ever Ever Flan-Chan Ascendance Armin A_r_m_i_n Akitoshi Corinn -Laura- Chromoxx Kyuukai Yaleufeu Lami Naotoshi Nao_Tomori ShogunMoon Shunao Nevo Riven SnowNiNo_ intoon
BeatmapID:1627148
BeatmapSetID:765778

[Difficulty]
HPDrainRate:5.2
CircleSize:4
OverallDifficulty:9.4
ApproachRate:9.5
SliderMultiplier:2.02
SliderTickRate:1

[Events]
//Background and Video events
0,0,"BG.jpg",0,0
//Break Periods
2,26109,27754
//Storyboard Layer 0 (Background)
//Storyboard Layer 1 (Fail)
//Storyboard Layer 2 (Pass)
//Storyboard Layer 3 (Foreground)
//Storyboard Sound Samples

[TimingPoints]
3395,296.237780191567,4,3,22,35,1,0
9319,-138.888888888889,4,3,22,52,0,0
18207,-121.951219512195,4,3,22,52,0,0
18355,-121.951219512195,4,3,22,5,0,0
18429,-121.951219512195,4,3,22,52,0,0
18577,-121.951219512195,4,3,22,5,0,0
18651,-121.951219512195,4,3,22,52,0,0
18725,-121.951219512195,4,3,22,5,0,0
18799,-108.695652173913,4,3,22,62,0,0
25909,-192.307692307692,4,3,22,32,0,0
28279,-192.307692307692,4,3,22,72,0,0
30649,-81.967213114754,4,3,22,82,0,1
39536,-89.2857142857143,4,3,22,82,0,0
39684,-89.2857142857143,4,3,22,5,0,0
39758,-98.0392156862745,4,3,22,82,0,0
39906,-98.0392156862745,4,3,22,5,0,0
39980,-138.888888888889,4,3,22,82,0,0
40054,-138.888888888889,4,3,22,5,0,0
40128,-89.2857142857144,4,3,22,82,0,1
48719,-89.2857142857144,4,3,22,82,0,0

[Colours]
Combo1 : 128,106,106
Combo2 : 242,189,111
Combo3 : 150,205,22
Combo4 : 249,255,176

[HitObjects]
131,68,9319,6,0,P|177:117|179:155,1,72.7200017753907,2|0,1:2|0:0,0:0:0:0:
221,307,9616,2,0,P|189:247|197:210,1,72.7200017753907,2|0,1:2|0:0,0:0:0:0:
272,97,9912,1,2,1:2:0:0:
296,224,10060,1,0,0:0:0:0:
177,120,10208,2,0,L|77:108,1,72.7200017753907,2|0,1:2|0:0,0:0:0:0:
68,288,10504,5,2,1:2:0:0:
24,108,10653,1,0,0:0:0:0:
213,248,10801,1,2,1:2:0:0:
75,191,10949,1,0,0:0:0:0:
237,62,11097,2,0,P|288:35|325:37,1,72.7200017753907,2|0,1:2|0:0,0:0:0:0:
345,217,11393,2,0,P|309:209|280:188,1,72.7200017753907,2|0,1:2|0:0,0:0:0:0:
417,51,11689,5,2,1:2:0:0:
453,176,11837,1,2,0:2:0:0:
301,33,11986,2,0,L|290:119,1,72.7200017753907,2|0,1:2|0:0,0:0:0:0:
261,296,12282,1,2,1:2:0:0:
190,154,12430,1,2,0:2:0:0:
123,324,12578,2,0,L|38:308,1,72.7200017753907,2|0,1:2|0:0,0:0:0:0:
115,115,12874,5,2,1:2:0:0:
155,244,13022,1,0,0:0:0:0:
223,77,13171,1,2,1:2:0:0:
273,205,13319,1,0,0:0:0:0:
115,115,13467,2,0,P|71:100|28:106,1,72.7200017753907,2|0,1:2|0:0,0:0:0:0:
155,244,13763,1,2,1:2:0:0:
159,269,13837,1,0,0:0:0:0:
163,294,13911,1,0,0:0:0:0:
167,319,13985,1,0,0:0:0:0:
172,344,14059,6,0,P|216:329|259:335,1,72.7200017753907,2|0,1:2|0:0,0:0:0:0:
375,352,14355,1,2,1:2:0:0:
282,258,14504,1,0,0:0:0:0:
421,166,14652,1,2,1:2:0:0:
264,95,14800,1,2,0:2:0:0:
454,29,14948,1,2,1:2:0:0:
332,180,15096,1,2,0:2:0:0:
207,23,15244,5,2,1:2:0:0:
368,79,15392,1,2,0:2:0:0:
206,223,15540,1,2,1:2:0:0:
264,95,15689,1,2,0:2:0:0:
362,264,15837,1,2,1:2:0:0:
178,137,15985,2,0,L|85:122,1,72.7200017753907,2|0,0:2|1:0,0:0:0:0:
37,240,16281,1,2,0:2:0:0:
155,46,16429,5,2,1:2:0:0:
106,125,16577,1,0,0:0:0:0:
62,44,16725,1,2,1:2:0:0:
13,123,16873,1,0,0:0:0:0:
167,40,17022,2,0,L|256:19,1,72.7200017753907,2|0,1:2|0:0,0:0:0:0:
348,148,17318,1,2,1:2:0:0:
232,122,17466,1,2,0:2:0:0:
399,68,17614,6,0,P|438:112|443:140,1,72.7200017753907,2|0,1:2|0:0,0:0:0:0:
326,250,17910,1,2,1:2:0:0:
348,148,18058,1,2,0:2:0:0:
407,330,18207,6,0,L|299:346,1,82.8200012637329,8|0,3:0|0:0,0:0:0:0:
256,303,18429,2,0,L|174:290,1,82.8200012637329,8|0,3:0|0:0,0:0:0:0:
100,323,18651,2,0,L|88:262,1,41.4100006318665,8|0,3:0|0:0,0:0:0:0:
142,211,18799,5,6,1:2:0:0:
25,162,18947,1,2,0:2:0:0:
177,106,19095,2,0,L|271:74,1,92.9199968807374,2|0,0:2|0:0,0:0:0:0:
389,238,19392,1,10,0:0:0:0:
249,175,19540,1,2,0:2:0:0:
366,42,19688,1,2,0:2:0:0:
334,166,19836,1,0,0:0:0:0:
200,19,19984,5,2,1:2:0:0:
155,185,20132,1,2,0:2:0:0:
264,76,20280,2,0,L|366:42,1,92.9199968807374,2|0,0:2|0:0,0:0:0:0:
301,246,20576,2,0,P|255:199|249:145,1,92.9199968807374,10|0,0:0|0:0,0:0:0:0:
273,324,20873,1,2,0:2:0:0:
334,166,21021,1,2,0:2:0:0:
195,306,21169,6,0,L|84:279,1,92.9199968807374,2|0,1:2|0:0,0:0:0:0:
139,103,21465,1,2,0:2:0:0:
178,217,21613,1,2,0:2:0:0:
49,107,21761,2,0,P|70:46|106:23,1,92.9199968807374,10|0,0:0|0:0,0:0:0:0:
264,34,22058,1,2,0:2:0:0:
139,103,22206,1,2,0:2:0:0:
283,238,22354,5,2,1:2:0:0:
236,117,22502,1,2,0:2:0:0:
104,284,22650,1,2,0:2:0:0:
57,163,22798,1,2,0:2:0:0:
218,314,22946,2,0,L|327:338,1,92.9199968807374,10|0,0:0|0:0,0:0:0:0:
403,145,23243,2,0,L|294:169,1,92.9199968807374,2|0,0:2|0:0,0:0:0:0:
453,253,23539,5,2,1:2:0:0:
482,125,23687,1,2,0:2:0:0:
338,244,23835,2,0,P|286:247|247:224,1,92.9199968807374,2|0,0:2|0:0,0:0:0:0:
254,53,24131,1,10,0:0:0:0:
312,164,24279,1,2,0:2:0:0:
345,34,24428,1,2,0:2:0:0:
403,145,24576,1,2,0:2:0:0:
254,53,24724,6,0,L|154:41,1,92.9199968807374,2|0,1:2|0:0,0:0:0:0:
40,176,25020,1,2,0:2:0:0:
87,31,25168,1,2,0:2:0:0:
159,194,25316,2,0,L|173:305,1,92.9199968807374,10|0,0:0|0:0,0:0:0:0:
255,207,25613,1,0,0:0:0:0:
313,292,25761,1,2,0:2:0:0:
404,238,25909,5,2,1:2:0:0:
114,196,28279,5,8,0:0:0:0:
400,244,28427,1,0,1:0:0:0:
92,332,28575,1,0,1:0:0:0:
324,75,28723,5,8,0:0:0:0:
440,339,28871,1,0,1:0:0:0:
195,214,29019,1,0,1:0:0:0:
481,67,29167,5,8,0:0:0:0:
191,83,29316,1,0,1:0:0:0:
400,244,29464,1,0,1:0:0:0:
34,192,29612,5,8,0:0:0:0:
324,75,29760,1,0,1:0:0:0:
203,327,29908,1,0,1:0:0:0:
57,91,30056,5,8,0:0:0:0:
108,328,30204,1,2,0:2:0:0:
366,148,30352,1,2,0:2:0:0:
421,366,30500,1,2,0:2:0:0:
195,89,30649,6,0,P|137:77|85:108,1,123.219994923493,6|0,1:2|0:0,0:0:0:0:
322,224,30945,2,0,P|380:236|432:205,1,123.219994923493,6|0,1:2|0:0,0:0:0:0:
184,297,31241,5,10,0:0:0:0:
365,148,31389,1,2,0:2:0:0:
149,161,31537,1,2,1:2:0:0:
424,88,31685,1,10,0:0:0:0:
184,297,31833,6,0,L|58:272,1,123.219994923493,6|0,1:2|0:0,0:0:0:0:
275,113,32130,2,0,L|298:270,1,123.219994923493,6|0,1:2|0:0,0:0:0:0:
85,108,32426,5,10,0:0:0:0:
263,29,32574,1,2,0:2:0:0:
184,297,32722,1,2,0:2:0:0:
181,139,32870,1,2,0:0:0:0:
181,139,32944,1,8,0:0:0:0:
181,139,33018,1,6,1:2:0:0:
357,281,33167,1,2,0:2:0:0:
122,201,33315,2,0,P|31:227|14:258,1,123.219994923493,2|0,1:2|0:0,0:0:0:0:
278,326,33611,5,10,0:0:0:0:
363,89,33759,1,2,1:2:0:0:
220,214,33907,1,0,1:2:0:0:
447,324,34055,1,8,0:0:0:0:
301,146,34203,1,6,1:2:0:0:
190,331,34352,1,2,0:0:0:0:
427,245,34500,2,0,P|456:179|448:108,1,123.219994923493,2|0,1:2|0:0,0:0:0:0:
188,42,34796,6,0,L|218:182,1,123.219994923493,10|0,0:0|0:0,0:0:0:0:
340,55,35092,1,2,0:2:0:0:
341,222,35240,1,2,0:2:0:0:
124,105,35388,6,0,P|48:133|20:199,1,123.219994923493,6|0,1:2|0:0,0:0:0:0:
228,353,35685,2,0,P|254:281|243:220,1,123.219994923493,6|0,1:2|0:0,0:0:0:0:
188,42,35981,5,10,0:0:0:0:
132,259,36129,1,2,0:2:0:0:
339,136,36277,1,2,1:2:0:0:
124,105,36425,1,8,0:0:0:0:
322,303,36573,6,0,L|452:260,1,123.219994923493,6|0,1:2|0:0,0:0:0:0:
392,20,36870,2,0,L|275:58,1,123.219994923493,4|0,1:0|0:0,0:0:0:0:
217,331,37166,1,10,0:0:0:0:
419,168,37314,1,2,0:2:0:0:
155,94,37462,1,2,1:2:0:0:
322,303,37610,1,2,0:2:0:0:
274,58,37758,5,2,1:2:0:0:
193,238,37906,1,0,0:0:0:0:
419,167,38055,1,0,1:0:0:0:
155,94,38203,1,2,0:2:0:0:
398,12,38351,5,2,1:2:0:0:
322,303,38499,1,2,0:2:0:0:
155,94,38647,1,2,1:2:0:0:
497,189,38795,1,2,0:2:0:0:
256,354,38943,5,2,1:2:0:0:
323,69,39091,1,2,0:2:0:0:
136,316,39239,2,0,L|3:295,1,123.219994923493,2|0,1:2|0:0,0:0:0:0:
297,147,39536,6,0,P|328:222|320:278,1,113.120001380859,10|0,0:0|0:0,0:0:0:0:
415,323,39758,2,0,P|425:265|457:221,1,103.020000628784,6|0,3:0|0:0,0:0:0:0:
399,155,39980,2,0,L|395:104,1,36.3600008876953,6|0,3:0|0:0,0:0:0:0:
236,224,40128,6,0,P|163:209|128:164,1,113.120001380859,6|0,1:2|0:0,0:0:0:0:
297,77,40424,2,0,P|370:92|405:137,1,113.120001380859,8|0,0:0|0:0,0:0:0:0:
329,282,40721,1,2,1:2:0:0:
314,165,40869,1,0,0:0:0:0:
227,348,41017,2,0,P|154:333|119:288,1,113.120001380859,8|0,0:0|0:0,0:0:0:0:
134,142,41313,1,2,1:2:0:0:
212,251,41461,1,0,0:0:0:0:
42,175,41609,2,0,P|44:100|82:58,1,113.120001380859,8|0,0:0|0:0,0:0:0:0:
266,20,41906,6,0,P|292:94|311:199,1,169.680002071289,2|2,1:2|0:2,0:0:0:0:
308,227,42202,1,8,0:0:0:0:
379,80,42350,1,2,0:2:0:0:
267,315,42498,6,0,P|322:318|370:290,1,113.120001380859,6|0,1:2|0:0,0:0:0:0:
233,156,42794,2,0,P|177:152|129:180,1,113.120001380859,8|0,0:0|0:0,0:0:0:0:
99,330,43091,1,2,1:2:0:0:
197,244,43239,1,0,0:0:0:0:
382,354,43387,2,0,L|400:215,1,113.120001380859,8|0,0:0|0:0,0:0:0:0:
306,64,43683,1,2,1:2:0:0:
314,227,43831,1,0,0:0:0:0:
464,58,43979,1,8,0:0:0:0:
472,221,44127,1,2,0:2:0:0:
297,51,44276,6,0,P|214:34|168:63,1,113.120001380859,2|0,1:2|1:0,0:0:0:0:
176,63,44498,1,2,0:2:0:0:
176,63,44572,1,8,0:0:0:0:
256,280,44720,1,2,1:2:0:0:
256,280,44794,1,0,1:0:0:0:
256,280,44868,6,0,P|281:211|255:153,1,113.120001380859,6|0,1:2|0:0,0:0:0:0:
107,7,45164,2,0,P|82:57|92:111,1,113.120001380859,8|0,0:0|0:0,0:0:0:0:
196,214,45460,1,2,1:2:0:0:
176,63,45609,1,0,0:0:0:0:
131,278,45757,2,0,P|197:307|245:290,1,113.120001380859,8|0,0:0|0:0,0:0:0:0:
346,136,46053,2,0,P|289:90|238:94,1,113.120001380859,2|0,1:2|0:0,0:0:0:0:
338,286,46349,1,8,0:0:0:0:
426,165,46497,1,0,0:0:0:0:
196,214,46645,5,2,1:2:0:0:
357,295,46794,1,2,0:2:0:0:
251,91,46942,1,10,0:0:0:0:
147,280,47090,1,2,0:2:0:0:
170,61,47238,2,0,P|227:6|296:21,1,113.120001380859,0|0,1:2|0:0,0:0:0:0:
426,165,47534,2,0,P|369:220|300:205,1,113.120001380859,8|0,0:0|0:0,0:0:0:0:
51,111,47830,5,8,0:0:0:0:
409,49,47978,1,8,0:0:0:0:
255,373,48127,1,8,0:0:0:0:
75,35,48275,1,8,0:0:0:0:
480,104,48423,5,4,0:0:0:0:
167,357,48571,1,4,0:0:0:0:
336,0,48719,1,12,0:0:0:0:
