osu file format v14

[General]
AudioFilename: audio.mp3
AudioLeadIn: 0
PreviewTime: 29834
Countdown: 0
SampleSet: None
StackLeniency: 0.7
Mode: 0
LetterboxInBreaks: 0
WidescreenStoryboard: 0

[Editor]
DistanceSpacing: 1
BeatDivisor: 4
GridSize: 16
TimelineZoom: 2

[Metadata]
Title:Make a Move (Speed Up Ver.)
TitleUnicode:Make a Move (Speed Up Ver.)
Artist:Icon For Hire
ArtistUnicode:Icon For Hire
Creator:Sotarks
Version:Akitoshi's Normal
Source:
Tags:TheFlandreChan Nightcore Flandre Chan KyuubiZz Zuni Scarlet Nightcore4Ever Ever Flan-Chan Ascendance Armin A_r_m_i_n Akitoshi Corinn -Laura- Chromoxx Kyuukai Yaleufeu Lami Naotoshi Nao_Tomori ShogunMoon Shunao Nevo Riven SnowNiNo_ intoon
BeatmapID:1617643
BeatmapSetID:765778

[Difficulty]
HPDrainRate:4
CircleSize:3
OverallDifficulty:4
ApproachRate:5
SliderMultiplier:0.999999999999999
SliderTickRate:1

[Events]
//Background and Video events
0,0,"BG.jpg",0,0
//Break Periods
//Storyboard Layer 0 (Background)
//Storyboard Layer 1 (Fail)
//Storyboard Layer 2 (Pass)
//Storyboard Layer 3 (Foreground)
//Storyboard Sound Samples

[TimingPoints]
3395,296.237780191567,4,3,22,35,1,0
9319,-100,4,3,22,52,0,0
18207,-100,4,3,22,52,0,0
18355,-100,4,3,22,5,0,0
18429,-100,4,3,22,52,0,0
18577,-100,4,3,22,5,0,0
18651,-100,4,3,22,52,0,0
18725,-100,4,3,22,5,0,0
18799,-100,4,3,22,62,0,0
25909,-100,4,3,22,32,0,0
28279,-100,4,3,22,72,0,0
30649,-95.2380952380952,4,3,22,82,0,0
39536,-95.2380952380952,4,3,22,82,0,0
40128,-90.9090909090909,4,3,22,82,0,1
48719,-100,4,3,22,82,0,0

[Colours]
Combo1 : 128,106,106
Combo2 : 242,189,111
Combo3 : 150,205,22
Combo4 : 249,255,176

[HitObjects]
177,253,9319,6,0,P|127:266|67:255,2,99.9999999999999,2|2|2,1:2|1:2|3:2,0:0:0:0:
256,192,10208,1,2,1:2:0:0:
333,129,10504,2,0,P|383:116|443:127,2,99.9999999999999,2|2|2,1:2|1:2|3:2,0:0:0:0:
256,192,11393,1,2,1:2:0:0:
333,253,11689,6,0,P|383:266|443:255,2,99.9999999999999,2|2|2,1:2|1:2|3:2,0:0:0:0:
256,192,12578,1,2,1:2:0:0:
179,129,12874,2,0,P|129:116|69:127,2,99.9999999999999,2|2|2,1:2|1:2|3:2,0:0:0:0:
256,192,13763,1,2,1:2:0:0:
333,129,14059,6,0,L|439:137,1,99.9999999999999,2|2,1:2|1:2,0:0:0:0:
503,207,14652,1,2,1:2:0:0:
503,306,14948,1,2,1:2:0:0:
416,356,15244,2,0,P|366:362|304:343,1,99.9999999999999,2|2,1:2|1:2,0:0:0:0:
279,329,15689,1,2,0:2:0:0:
279,329,15837,2,0,L|163:335,1,99.9999999999999,2|0,1:2|1:0,0:0:0:0:
79,335,16429,6,0,P|63:288|69:235,1,99.9999999999999,2|2,1:2|1:2,0:0:0:0:
116,150,17022,1,2,1:2:0:0:
211,121,17318,1,2,1:2:0:0:
302,160,17614,2,0,L|311:273,1,99.9999999999999,2|2,1:2|1:2,0:0:0:0:
319,359,18207,2,0,P|277:366|226:355,2,74.9999999999999,8|8|8,3:0|3:0|3:0,0:0:0:0:
366,344,18799,6,0,P|418:354|482:336,1,99.9999999999999,6|2,1:2|0:2,0:0:0:0:
510,256,19392,1,10,0:0:0:0:
474,162,19688,1,2,0:2:0:0:
375,142,19984,2,0,P|307:144|261:171,1,99.9999999999999,2|2,1:2|0:2,0:0:0:0:
193,208,20576,2,0,P|146:190|96:192,1,99.9999999999999,10|2,0:0|0:2,0:0:0:0:
51,205,21021,1,2,0:2:0:0:
51,205,21169,6,0,L|57:100,1,99.9999999999999,2|2,1:2|0:2,0:0:0:0:
123,31,21761,1,10,0:0:0:0:
223,25,22058,1,2,0:2:0:0:
303,83,22354,2,0,P|315:142|308:189,1,99.9999999999999,2|2,1:2|0:2,0:0:0:0:
289,228,22798,1,2,0:2:0:0:
289,228,22946,2,0,P|348:216|395:223,1,99.9999999999999,10|2,0:0|0:2,0:0:0:0:
484,245,23539,6,0,L|491:138,1,99.9999999999999,2|2,1:2|0:2,0:0:0:0:
450,53,24131,1,10,0:0:0:0:
352,29,24428,1,2,0:2:0:0:
259,65,24724,2,0,P|190:78|143:66,1,99.9999999999999,2|2,1:2|0:2,0:0:0:0:
115,54,25168,2,0,L|106:167,1,99.9999999999999,2|0,0:2|0:0,0:0:0:0:
103,203,25613,1,0,0:0:0:0:
170,277,25909,5,2,1:2:0:0:
256,192,26057,12,0,27686,0:0:0:0:
317,192,28279,6,0,L|205:198,1,99.9999999999999,8|0,0:0|1:0,0:0:0:0:
174,223,28723,2,0,L|62:217,1,99.9999999999999,8|0,0:0|1:0,0:0:0:0:
24,210,29167,1,8,0:0:0:0:
24,59,29612,2,0,P|57:36|129:28,1,99.9999999999999,8|0,0:0|1:0,0:0:0:0:
164,33,30056,1,8,0:0:0:0:
248,87,30352,2,0,L|252:143,1,50,2|0,0:0|0:0,0:0:0:0:
259,189,30649,6,0,P|325:194|365:179,1,104.999996795654,6|6,1:2|1:2,0:0:0:0:
432,105,31241,2,0,L|428:50,2,52.4999983978271,10|2|2,0:0|0:2|1:2,0:0:0:0:
499,188,31834,2,0,L|494:306,1,104.999996795654,6|6,1:2|1:2,0:0:0:0:
398,334,32426,2,0,P|351:309|278:308,1,104.999996795654,10|2,0:0|0:2,0:0:0:0:
253,321,32870,1,2,0:0:0:0:
253,321,33018,6,0,L|257:380,2,52.4999983978271,6|2|2,1:2|0:2|1:2,0:0:0:0:
182,243,33611,2,0,L|190:120,1,104.999996795654,10|0,0:0|1:2,0:0:0:0:
211,93,34055,1,8,0:0:0:0:
211,93,34203,2,0,L|207:34,2,52.4999983978271,6|2|2,1:2|0:0|1:2,0:0:0:0:
297,153,34796,2,0,P|347:167|413:151,1,104.999996795654,10|2,0:0|0:2,0:0:0:0:
446,133,35240,1,2,0:2:0:0:
446,133,35388,6,0,L|444:257,1,104.999996795654,6|6,1:2|1:2,0:0:0:0:
386,325,35981,2,0,L|392:383,2,52.4999983978271,10|2|2,0:0|0:2|1:2,0:0:0:0:
294,273,36573,2,0,P|283:223|294:169,1,104.999996795654,6|4,1:2|1:0,0:0:0:0:
317,68,37166,2,0,L|200:61,1,104.999996795654,10|2,0:0|1:2,0:0:0:0:
169,43,37610,1,2,0:2:0:0:
169,43,37758,6,0,L|52:50,1,104.999996795654,2|0,1:2|1:0,0:0:0:0:
16,143,38351,2,0,P|6:191|20:252,1,104.999996795654,2|2,1:2|1:2,0:0:0:0:
82,327,38943,1,2,1:2:0:0:
186,327,39239,1,2,1:2:0:0:
268,260,39536,2,0,L|263:173,2,78.7499975967407,10|6|6,0:0|3:0|3:0,0:0:0:0:
308,297,40128,6,0,P|375:311|469:251,1,165.0000050354,6|0,1:2|0:0,0:0:0:0:
483,218,40721,2,0,B|499:163|499:163|476:99,1,110.000003356934,2|8,1:2|0:0,0:0:0:0:
403,35,41313,1,2,1:2:0:0:
293,35,41609,1,8,0:0:0:0:
210,108,41906,2,0,L|216:208,2,82.5000025177002,2|2|2,1:2|0:2|0:2,0:0:0:0:
180,61,42498,6,0,P|124:49|28:109,1,165.0000050354,6|0,1:2|0:0,0:0:0:0:
16,151,43091,2,0,B|10:208|10:208|26:263,1,110.000003356934,2|8,1:2|0:0,0:0:0:0:
70,358,43683,1,2,1:2:0:0:
179,358,43979,1,8,0:0:0:0:
265,289,44276,2,0,L|354:294,2,82.5000025177002,2|2|2,1:2|0:2|1:2,0:0:0:0:
224,252,44868,6,0,B|197:165|252:165|228:77,1,165.0000050354,6|0,1:2|0:0,0:0:0:0:
217,37,45460,2,0,P|270:21|337:35,1,110.000003356934,2|8,1:2|0:0,0:0:0:0:
420,80,46053,1,2,1:2:0:0:
449,185,46349,1,8,0:0:0:0:
382,272,46645,2,0,L|389:338,2,55.0000016784668,2|2|10,1:2|0:2|0:0,0:0:0:0:
346,229,47090,6,0,P|288:211|224:228,1,110.000003356934,2|0,0:2|0:0,0:0:0:0:
191,244,47534,1,8,0:0:0:0:
87,206,47830,2,0,B|76:152|76:152|90:96,1,110.000003356934,8|8,0:0|0:0,0:0:0:0:
110,50,48275,1,8,0:0:0:0:
110,50,48423,2,0,L|181:44,1,55.0000016784668,4|4,0:0|0:0,0:0:0:0:
214,42,48719,5,12,0:0:0:0:
