osu file format v14

[General]
AudioFilename: audio.mp3
AudioLeadIn: 0
PreviewTime: 29852
Countdown: 1
SampleSet: Soft
StackLeniency: 0.3
Mode: 0
LetterboxInBreaks: 0
WidescreenStoryboard: 1

[Editor]
Bookmarks: 8275
DistanceSpacing: 0.6
BeatDivisor: 4
GridSize: 4
TimelineZoom: 1

[Metadata]
Title:Make a Move (Speed Up Ver.)
TitleUnicode:Make a Move (Speed Up Ver.)
Artist:Icon For Hire
ArtistUnicode:Icon For Hire
Creator:OsuMagic360
Version:Time to Move
Source:
Tags:
BeatmapID:1802618
BeatmapSetID:861677

[Difficulty]
HPDrainRate:7.9
CircleSize:4
OverallDifficulty:8.2
ApproachRate:9.1
SliderMultiplier:1.5
SliderTickRate:1

[Events]
//Background and Video events
0,0,"BG.jpg",0,0
//Break Periods
//Storyboard Layer 0 (Background)
//Storyboard Layer 1 (Fail)
//Storyboard Layer 2 (Pass)
//Storyboard Layer 3 (Foreground)
//Storyboard Sound Samples

[TimingPoints]
0,295.566502463054,4,2,0,100,1,0
18177,-250,4,2,0,100,0,0
18472,-100,4,2,0,100,0,0
22906,-333.333333333333,4,2,0,100,0,0
23201,-100,4,2,0,100,0,0
40197,-100,4,2,0,100,0,1
48768,-100,4,2,0,100,0,0

[Colours]
Combo1 : 121,39,0
Combo2 : 26,255,26
Combo3 : 255,193,132
Combo4 : 48,48,48

[HitObjects]
81,196,9162,6,0,L|218:135,1,150
309,128,9605,1,0,0:0:0:0:
237,196,9753,5,0,0:0:0:0:
358,163,9901,1,0,0:0:0:0:
184,289,10049,1,0,0:0:0:0:
310,256,10197,1,0,0:0:0:0:
123,239,10344,6,0,L|147:150,1,75
254,91,10640,1,0,0:0:0:0:
209,184,10788,1,0,0:0:0:0:
167,74,10935,1,0,0:0:0:0:
157,311,11083,2,0,L|204:242,1,75
337,122,11379,2,0,L|293:189,1,75
62,263,11674,5,0,0:0:0:0:
234,174,11822,1,0,0:0:0:0:
126,185,11970,5,0,0:0:0:0:
311,297,12118,1,0,0:0:0:0:
231,320,12266,5,0,0:0:0:0:
328,131,12413,1,0,0:0:0:0:
404,215,12561,5,0,0:0:0:0:
260,265,12709,2,0,L|253:183,1,75
227,49,13004,1,0,0:0:0:0:
213,142,13152,1,0,0:0:0:0:
146,26,13300,1,0,0:0:0:0:
119,108,13448,2,0,P|94:148|82:185,1,75
162,293,13743,2,0,P|136:238|141:206,1,75
212,131,14039,5,0,0:0:0:0:
224,239,14187,1,0,0:0:0:0:
304,167,14334,5,0,0:0:0:0:
259,342,14482,1,0,0:0:0:0:
359,128,14630,5,0,0:0:0:0:
391,270,14778,1,0,0:0:0:0:
284,68,14926,5,0,0:0:0:0:
252,234,15073,1,0,0:0:0:0:
156,137,15221,5,0,0:0:0:0:
190,337,15369,1,0,0:0:0:0:
226,158,15517,5,0,0:0:0:0:
213,280,15665,1,0,0:0:0:0:
291,74,15812,5,0,0:0:0:0:
320,308,15960,1,0,0:0:0:0:
101,258,16256,5,0,0:0:0:0:
79,163,16403,1,0,0:0:0:0:
177,189,16551,1,0,0:0:0:0:
151,78,16699,5,0,0:0:0:0:
312,133,16847,1,0,0:0:0:0:
176,238,16995,1,0,0:0:0:0:
351,191,17142,5,0,0:0:0:0:
318,40,17290,1,0,0:0:0:0:
193,134,17438,1,0,0:0:0:0:
303,308,17586,6,0,L|233:271,1,75
64,230,17881,2,0,L|144:285,1,75
253,208,18177,6,0,L|191:209,1,60
110,156,18620,1,0,0:0:0:0:
291,101,18768,5,0,0:0:0:0:
266,203,18916,1,0,0:0:0:0:
369,183,19064,1,0,0:0:0:0:
95,238,19359,5,0,0:0:0:0:
228,219,19507,1,0,0:0:0:0:
163,345,19655,1,0,0:0:0:0:
165,119,19802,1,0,0:0:0:0:
75,299,19950,5,0,0:0:0:0:
264,166,20098,1,0,0:0:0:0:
51,277,20246,2,0,P|80:243|112:215,1,75
312,213,20541,2,0,P|353:173|379:134,1,75
249,102,20837,5,0,0:0:0:0:
117,126,20985,1,0,0:0:0:0:
200,210,21133,1,0,0:0:0:0:
419,329,21428,5,0,0:0:0:0:
479,221,21576,1,0,0:0:0:0:
351,230,21724,1,0,0:0:0:0:
148,210,22019,5,0,0:0:0:0:
272,154,22167,1,0,0:0:0:0:
164,105,22315,5,0,0:0:0:0:
254,270,22463,1,0,0:0:0:0:
74,260,22610,5,0,0:0:0:0:
368,108,22758,1,0,0:0:0:0:
135,67,22906,6,0,L|156:112,1,44.999998626709
178,255,23497,5,0,0:0:0:0:
103,349,23645,1,0,0:0:0:0:
73,248,23793,1,0,0:0:0:0:
367,212,24088,5,0,0:0:0:0:
470,289,24236,1,0,0:0:0:0:
341,346,24384,1,0,0:0:0:0:
492,168,24532,1,0,0:0:0:0:
239,244,24679,6,0,L|239:348,1,75
156,200,24975,1,0,0:0:0:0:
321,136,25123,2,0,L|319:301,1,150
65,226,25714,5,0,0:0:0:0:
183,248,25862,1,0,0:0:0:0:
97,139,26009,1,0,0:0:0:0:
206,164,26157,2,0,P|280:169|377:209,1,150
252,242,26600,5,0,0:0:0:0:
444,211,26748,1,0,0:0:0:0:
271,156,26896,2,0,P|199:144|181:145,1,75
92,183,27192,5,0,0:0:0:0:
131,84,27339,1,0,0:0:0:0:
176,242,27487,2,0,P|189:298|244:216,1,225
101,83,28226,5,0,0:0:0:0:
256,60,28374,1,0,0:0:0:0:
198,178,28522,1,0,0:0:0:0:
459,183,28669,5,0,0:0:0:0:
307,79,28817,1,0,0:0:0:0:
283,245,28965,1,0,0:0:0:0:
446,316,29113,5,0,0:0:0:0:
215,139,29261,1,0,0:0:0:0:
83,338,29408,1,0,0:0:0:0:
347,270,29556,5,0,0:0:0:0:
81,200,29704,1,0,0:0:0:0:
306,112,29852,5,0,0:0:0:0:
170,144,29999,1,0,0:0:0:0:
158,155,30073,1,0,0:0:0:0:
154,172,30147,1,0,0:0:0:0:
157,190,30221,1,0,0:0:0:0:
168,200,30295,1,0,0:0:0:0:
185,211,30369,1,0,0:0:0:0:
201,226,30443,1,0,0:0:0:0:
215,249,30517,1,0,0:0:0:0:
212,271,30591,6,0,P|188:307|146:331,1,75
232,128,30886,2,0,P|256:92|292:65,1,75
89,228,31182,5,0,0:0:0:0:
332,177,31330,1,0,0:0:0:0:
108,149,31477,1,0,0:0:0:0:
257,123,31625,1,0,0:0:0:0:
171,282,31773,2,0,P|152:334|128:365,1,75
190,114,32068,2,0,P|201:67|230:37,1,75
294,318,32364,5,0,0:0:0:0:
314,113,32512,1,0,0:0:0:0:
364,261,32660,1,0,0:0:0:0:
354,240,32733,1,0,0:0:0:0:
338,223,32807,1,0,0:0:0:0:
319,209,32881,1,0,0:0:0:0:
299,197,32955,5,0,0:0:0:0:
185,261,33103,1,0,0:0:0:0:
206,104,33251,1,0,0:0:0:0:
235,320,33546,5,0,0:0:0:0:
251,308,33620,1,0,0:0:0:0:
272,301,33694,1,0,0:0:0:0:
292,300,33768,1,0,0:0:0:0:
307,309,33842,1,0,0:0:0:0:
316,320,33916,1,0,0:0:0:0:
331,325,33990,1,0,0:0:0:0:
348,324,34064,1,0,0:0:0:0:
363,313,34137,5,0,0:0:0:0:
375,154,34285,1,0,0:0:0:0:
301,243,34433,1,0,0:0:0:0:
287,249,34507,1,0,0:0:0:0:
270,255,34581,1,0,0:0:0:0:
252,258,34655,1,0,0:0:0:0:
229,261,34729,5,0,0:0:0:0:
297,106,34876,1,0,0:0:0:0:
109,299,35024,5,0,0:0:0:0:
259,168,35172,1,0,0:0:0:0:
115,208,35320,6,0,P|66:225|40:254,1,75
332,150,35615,2,0,P|377:134|407:107,1,75
158,274,35911,5,0,0:0:0:0:
266,87,36059,1,0,0:0:0:0:
238,261,36206,1,0,0:0:0:0:
169,122,36354,1,0,0:0:0:0:
328,230,36502,6,0,P|383:259|419:264,1,75
204,118,36798,2,0,P|167:87|125:69,1,75
307,315,37093,5,0,0:0:0:0:
281,124,37241,1,0,0:0:0:0:
177,311,37389,1,0,0:0:0:0:
210,125,37536,1,0,0:0:0:0:
244,314,37684,1,0,0:0:0:0:
244,65,37832,5,0,0:0:0:0:
260,76,37906,1,0,0:0:0:0:
271,93,37980,1,0,0:0:0:0:
276,110,38054,1,0,0:0:0:0:
278,134,38128,1,0,0:0:0:0:
271,160,38201,1,0,0:0:0:0:
250,176,38275,1,0,0:0:0:0:
220,176,38349,1,0,0:0:0:0:
188,179,38423,1,0,0:0:0:0:
168,198,38497,1,0,0:0:0:0:
162,233,38571,1,0,0:0:0:0:
202,255,38645,1,0,0:0:0:0:
236,231,38719,1,0,0:0:0:0:
238,188,38793,1,0,0:0:0:0:
215,146,38866,1,0,0:0:0:0:
131,62,39014,5,0,0:0:0:0:
81,246,39162,1,0,0:0:0:0:
160,120,39310,2,0,P|196:83|235:62,1,75
355,168,39605,5,0,0:0:0:0:
452,288,39753,1,0,0:0:0:0:
293,297,39901,2,0,P|253:271|218:270,1,75
24,135,40197,6,0,P|80:73|157:78,1,150
167,204,40640,1,8,0:0:0:0:
255,65,40788,6,0,P|264:145|255:233,1,150
68,249,41231,1,8,0:0:0:0:
234,302,41379,6,0,B|296:257|318:339|389:290,1,150
187,209,41822,6,0,P|146:253|111:271,1,75
206,106,42118,1,0,0:0:0:0:
113,168,42266,1,0,0:0:0:0:
270,270,42413,5,0,0:0:0:0:
276,283,42487,1,0,0:0:0:0:
283,298,42561,2,0,P|322:316|422:285,1,150
347,218,43004,1,8,0:0:0:0:
465,92,43152,2,0,P|417:65|327:98,1,150
349,260,43596,1,8,0:0:0:0:
21,324,43743,2,0,P|92:306|161:334,1,150
229,212,44187,5,0,0:0:0:0:
250,121,44334,2,0,L|314:55,2,75
147,142,44778,5,0,0:0:0:0:
122,155,44852,1,0,0:0:0:0:
107,176,44926,2,0,P|113:225|214:246,1,150
268,184,45369,5,8,0:0:0:0:
408,135,45517,2,0,P|376:260|345:272,1,150
330,183,45960,5,8,0:0:0:0:
439,312,46108,2,0,P|314:339|285:322,1,150
229,78,46551,5,0,0:0:0:0:
415,63,46699,1,0,0:0:0:0:
268,135,46847,1,0,0:0:0:0:
391,122,46995,1,0,0:0:0:0:
334,184,47142,2,0,L|334:232,4,37.5
101,80,47881,5,0,0:0:0:0:
264,355,48029,1,0,0:0:0:0:
462,49,48177,1,0,0:0:0:0:
83,348,48325,5,0,0:0:0:0:
465,347,48472,1,0,0:0:0:0:
61,55,48620,1,0,0:0:0:0:
444,56,48768,1,4,0:0:0:0:
