osu file format v14

[General]
AudioFilename: audio.mp3
AudioLeadIn: 0
PreviewTime: 29852
Countdown: 1
SampleSet: Soft
StackLeniency: 0.3
Mode: 0
LetterboxInBreaks: 0
WidescreenStoryboard: 1

[Editor]
Bookmarks: 8275
DistanceSpacing: 1.2
BeatDivisor: 4
GridSize: 4
TimelineZoom: 1

[Metadata]
Title:Make a Move (Speed Up Ver.)
TitleUnicode:Make a Move (Speed Up Ver.)
Artist:Icon For Hire
ArtistUnicode:Icon For Hire
Creator:OsuMagic360
Version:Normal
Source:
Tags:
BeatmapID:1802617
BeatmapSetID:861677

[Difficulty]
HPDrainRate:1.6
CircleSize:4
OverallDifficulty:1.8
ApproachRate:2.6
SliderMultiplier:0.999999999999999
SliderTickRate:1

[Events]
//Background and Video events
0,0,"BG.jpg",0,0
//Break Periods
//Storyboard Layer 0 (Background)
//Storyboard Layer 1 (Fail)
//Storyboard Layer 2 (Pass)
//Storyboard Layer 3 (Foreground)
//Storyboard Sound Samples

[TimingPoints]
0,295.566502463054,4,2,0,100,1,0
40197,-100,4,2,0,100,0,1
48768,-100,4,2,0,100,0,0

[Colours]
Combo1 : 121,39,0
Combo2 : 26,255,26
Combo3 : 255,193,132
Combo4 : 48,48,48

[HitObjects]
146,282,9310,5,0,0:0:0:0:
134,162,9605,1,0,0:0:0:0:
226,84,9901,2,0,P|271:115|289:163,1,99.9999999999999
285,215,10492,1,0,0:0:0:0:
192,292,10788,1,0,0:0:0:0:
123,193,11083,2,0,P|163:124|188:112,1,99.9999999999999
286,63,11674,6,0,L|356:71,1,50
373,183,12118,2,0,P|328:252|261:287,1,150
150,297,12857,6,0,L|106:260,1,50
76,216,13152,2,0,L|95:165,1,50
128,119,13448,1,0,0:0:0:0:
232,177,13743,1,0,0:0:0:0:
293,279,14039,6,0,P|370:209|392:100,2,200
174,297,15517,1,0,0:0:0:0:
74,230,15812,1,0,0:0:0:0:
128,58,16256,2,0,L|176:97,1,50
110,111,16551,2,0,L|154:157,1,50
185,191,16847,1,0,0:0:0:0:
250,291,17142,2,0,P|257:227|245:180,1,99.9999999999999
325,99,17733,2,0,P|334:150|373:188,1,99.9999999999999
415,219,18177,1,0,0:0:0:0:
343,315,18472,1,0,0:0:0:0:
223,331,18768,6,0,P|174:343|125:340,1,99.9999999999999
82,227,19359,2,0,P|92:178|88:128,1,99.9999999999999
123,79,19802,1,0,0:0:0:0:
176,52,19950,2,0,P|200:50|224:56,1,50
279,82,20246,2,0,P|318:112|349:151,1,99.9999999999999
448,219,20837,6,0,P|485:221|503:213,2,50
327,216,21428,2,0,P|297:225|275:217,2,50
388,319,22019,2,0,L|429:269,1,50
426,220,22315,2,0,L|427:164,1,50
415,111,22610,2,0,L|386:70,1,50
328,51,22906,2,0,P|278:36|215:42,1,99.9999999999999
286,144,23497,6,0,L|313:194,2,50
220,43,24088,2,0,L|158:49,1,50
109,50,24384,2,0,L|43:57,1,50
57,115,24679,2,0,L|57:231,1,99.9999999999999
58,275,25123,2,0,L|163:268,1,99.9999999999999
256,192,25566,12,0,27783,0:0:0:0:
93,245,28226,6,0,L|93:172,2,50
141,280,28670,2,0,L|140:340,2,50
188,242,29113,2,0,L|188:183,2,50
227,287,29556,2,0,P|284:300|332:289,1,99.9999999999999
377,264,29999,2,0,P|421:196|407:124,1,150
361,95,30591,1,0,0:0:0:0:
252,145,30886,1,0,0:0:0:0:
147,86,31182,6,0,L|99:129,1,50
100,178,31477,2,0,L|98:237,1,50
124,282,31773,1,0,0:0:0:0:
234,327,32068,1,0,0:0:0:0:
341,273,32364,6,0,P|375:235|376:226,1,50
377,177,32660,2,0,P|375:135|361:130,1,50
322,102,32955,2,0,L|275:80,2,50
279,214,33546,6,0,L|240:258,1,50
185,251,33842,2,0,L|120:248,1,50
92,206,34137,2,0,L|56:171,2,50
52,91,34729,6,0,L|105:75,1,50
145,37,35024,2,0,L|206:46,1,50
251,25,35320,2,0,P|303:44|321:88,1,99.9999999999999
415,155,35911,6,0,L|420:211,1,50
405,263,36206,2,0,L|357:283,1,50
304,308,36502,2,0,P|234:330|193:311,1,99.9999999999999
116,248,37093,6,0,P|107:157|185:15,1,250
299,25,38128,2,0,B|323:93|344:204|279:282|279:282|231:193,1,350
153,293,39458,5,0,0:0:0:0:
96,223,39679,1,0,0:0:0:0:
121,136,39901,1,0,0:0:0:0:
216,63,40197,2,0,P|277:112|400:112,2,200
118,132,41822,5,0,0:0:0:0:
94,218,42044,1,0,0:0:0:0:
135,298,42266,1,0,0:0:0:0:
245,344,42561,2,0,P|327:321|347:301,1,99.9999999999999
382,201,43152,2,0,P|300:224|280:244,1,99.9999999999999
196,157,43743,2,0,P|278:134|298:114,1,99.9999999999999
401,88,44334,6,0,P|341:61|308:59,1,99.9999999999999
188,75,44926,2,0,P|223:101|286:122,1,99.9999999999999
388,160,45517,2,0,P|434:177|484:178,1,99.9999999999999
468,297,46108,2,0,P|449:331|386:342,1,99.9999999999999
273,329,46699,6,0,P|186:318|113:233,1,200
231,27,47881,2,0,L|242:88,1,50
257,134,48177,2,0,L|264:187,1,50
289,237,48472,2,0,L|295:306,1,50
317,342,48768,1,4,0:0:0:0:
