osu file format v14

[General]
AudioFilename: audio.mp3
AudioLeadIn: 0
PreviewTime: 29852
Countdown: 1
SampleSet: None
StackLeniency: 0.3
Mode: 0
LetterboxInBreaks: 0
WidescreenStoryboard: 1

[Editor]
Bookmarks: 8275
DistanceSpacing: 1.2
BeatDivisor: 4
GridSize: 4
TimelineZoom: 1

[Metadata]
Title:Make a Move (Speed Up Ver.)
TitleUnicode:Make a Move (Speed Up Ver.)
Artist:Icon For Hire
ArtistUnicode:Icon For Hire
Creator:OsuMagic360
Version:Insane
Source:
Tags:
BeatmapID:1865798
BeatmapSetID:861677

[Difficulty]
HPDrainRate:6
CircleSize:4.2
OverallDifficulty:6
ApproachRate:8
SliderMultiplier:1.5
SliderTickRate:1

[Events]
//Background and Video events
0,0,"BG.jpg",0,0
//Break Periods
//Storyboard Layer 0 (Background)
//Storyboard Layer 1 (Fail)
//Storyboard Layer 2 (Pass)
//Storyboard Layer 3 (Foreground)
//Storyboard Sound Samples

[TimingPoints]
0,295.566502463054,4,2,0,100,1,0
40197,-100,4,2,0,100,0,1
48768,-100,4,2,0,100,0,0

[Colours]
Combo1 : 121,39,0
Combo2 : 26,255,26
Combo3 : 255,193,132
Combo4 : 196,196,196

[HitObjects]
120,61,9162,6,0,P|163:105|211:216,1,150
204,205,9605,1,0,0:0:0:0:
278,308,9753,6,0,L|333:218,1,75
278,166,10049,2,0,L|258:88,1,75
94,220,10492,6,0,L|97:109,1,75
170,42,10788,2,0,L|170:119,1,75
221,190,11083,2,0,L|223:347,1,150
346,303,11674,5,0,0:0:0:0:
402,196,11822,5,0,0:0:0:0:
241,256,11970,1,0,0:0:0:0:
292,316,12118,5,0,0:0:0:0:
151,203,12266,1,0,0:0:0:0:
93,248,12413,1,0,0:0:0:0:
101,121,12561,1,0,0:0:0:0:
176,68,12857,6,0,L|257:57,1,75
223,138,13152,2,0,L|131:151,1,75
100,231,13448,2,0,L|271:205,1,150
438,104,14039,6,0,L|412:189,1,75
467,230,14334,2,0,L|406:164,1,75
342,192,14630,2,0,L|428:172,1,75
244,226,14926,6,0,L|167:243,1,75
101,167,15221,2,0,L|182:143,1,75
41,101,15517,2,0,L|125:74,1,75
223,71,15812,2,0,P|272:71|367:137,1,150
316,243,16256,6,0,L|364:313,2,75
226,233,16699,2,0,L|204:155,1,75
270,101,16995,2,0,L|192:71,1,75
129,39,17290,2,0,L|101:135,1,75
36,155,17586,2,0,L|97:207,1,75
74,285,17881,2,0,L|159:276,1,75
165,352,18177,2,0,P|212:317|205:210,1,150
149,122,18620,1,0,0:0:0:0:
306,170,18768,6,0,L|354:104,2,75
221,209,19359,2,0,L|137:241,1,75
93,321,19655,1,0,0:0:0:0:
186,324,19802,1,0,0:0:0:0:
148,237,19950,2,0,L|108:159,1,75
162,94,20246,2,0,L|241:241,1,150
396,333,20837,6,0,L|379:250,1,75
414,179,21133,1,0,0:0:0:0:
294,72,21428,6,0,L|275:150,1,75
291,226,21724,1,0,0:0:0:0:
213,320,22019,6,0,L|179:239,1,75
82,219,22315,2,0,L|166:182,1,75
188,86,22610,2,0,L|219:160,1,75
318,184,22906,2,0,L|183:251,1,150
96,292,23497,6,0,P|90:331|63:362,2,75
178,215,24088,2,0,L|265:205,1,75
415,162,24384,2,0,L|330:156,1,75
209,57,24679,2,0,B|245:112|155:139|230:222,1,150
270,271,25123,2,0,P|326:299|345:224,1,150
253,116,25714,5,0,0:0:0:0:
170,104,25862,2,0,P|120:136|104:162,1,75
115,228,26157,1,0,0:0:0:0:
209,326,26453,6,0,L|301:322,1,75
433,236,26748,2,0,L|354:238,1,75
255,140,27192,6,0,L|234:224,1,75
178,121,27487,2,0,B|151:236|151:236|232:338,1,225
362,308,28226,5,0,0:0:0:0:
440,241,28374,1,0,0:0:0:0:
335,207,28522,1,0,0:0:0:0:
234,257,28669,5,0,0:0:0:0:
164,140,28817,1,0,0:0:0:0:
300,137,28965,1,0,0:0:0:0:
163,218,29113,5,0,0:0:0:0:
244,77,29261,1,0,0:0:0:0:
346,211,29408,1,0,0:0:0:0:
432,294,29556,6,0,L|327:320,1,75
220,335,29852,5,0,0:0:0:0:
48,178,29999,2,0,L|76:252,1,75
172,211,30295,2,0,L|150:300,1,75
119,156,30591,2,0,P|176:135|245:191,1,150
321,257,31182,6,0,L|405:265,1,75
255,188,31477,2,0,L|331:170,1,75
228,259,31773,2,0,P|182:212|198:134,1,150
245,69,32364,6,0,L|318:41,1,75
343,122,32660,2,0,L|420:134,1,75
462,218,32955,2,0,P|458:277|487:310,2,75
358,201,33546,6,0,B|321:187|321:187|273:186,1,75
234,256,33842,2,0,B|197:270|197:270|149:271,1,75
83,227,34137,2,0,P|36:210|28:187,2,75
207,165,34729,6,0,P|238:140|287:130,1,75
374,112,35024,2,0,P|376:160|351:213,1,75
297,217,35320,2,0,P|336:249|440:230,1,150
456,87,35911,6,0,L|451:163,1,75
367,160,36206,2,0,L|319:242,1,75
249,225,36502,2,0,L|110:300,1,150
61,234,37093,6,0,L|100:156,1,75
150,95,37389,2,0,L|242:88,1,75
321,99,37684,2,0,B|404:185|404:185|404:241,1,150
351,288,38128,6,0,L|281:333,1,75
187,322,38423,2,0,L|112:273,1,75
238,255,38719,1,0,0:0:0:0:
238,164,38866,5,0,0:0:0:0:
146,167,39014,2,0,L|190:95,1,75
326,164,39310,1,0,0:0:0:0:
236,305,39605,5,0,0:0:0:0:
79,243,39752,1,0,0:0:0:0:
212,144,39900,1,0,0:0:0:0:
349,211,40049,5,0,0:0:0:0:
362,232,40123,1,0,0:0:0:0:
374,254,40197,2,0,P|348:295|238:308,1,150
279,215,40640,5,0,0:0:0:0:
300,111,40788,2,0,P|224:118|162:198,1,150
145,309,41231,5,0,0:0:0:0:
89,206,41379,2,0,P|99:149|176:62,1,150
278,248,41822,2,0,L|313:116,2,112.5
176,258,42413,5,0,0:0:0:0:
157,271,42487,1,0,0:0:0:0:
128,281,42561,2,0,P|87:280|125:217,1,150
235,285,43004,1,0,0:0:0:0:
325,323,43152,6,0,P|369:341|388:253,1,150
312,164,43596,1,0,0:0:0:0:
197,119,43743,6,0,P|131:133|122:217,1,150
244,300,44187,6,0,L|113:331,2,112.5
372,297,44926,6,0,P|371:226|323:148,1,150
297,140,45369,1,0,0:0:0:0:
166,92,45517,6,0,P|141:169|161:255,1,150
164,253,45960,1,0,0:0:0:0:
351,335,46108,6,0,P|353:253|311:190,1,150
208,110,46551,6,0,B|170:93|123:96|125:93,2,75
235,190,46995,2,0,P|296:177|394:220,2,150
333,335,47881,5,0,0:0:0:0:
286,210,48029,1,0,0:0:0:0:
253,342,48177,5,0,0:0:0:0:
205,215,48325,1,0,0:0:0:0:
169,345,48472,5,0,0:0:0:0:
129,216,48620,1,0,0:0:0:0:
411,336,48768,5,4,0:0:0:0:
