osu file format v14

[General]
AudioFilename: audio.mp3
AudioLeadIn: 0
PreviewTime: 29852
Countdown: 1
SampleSet: Soft
StackLeniency: 0.3
Mode: 0
LetterboxInBreaks: 0
WidescreenStoryboard: 1

[Editor]
Bookmarks: 8275
DistanceSpacing: 1.2
BeatDivisor: 4
GridSize: 4
TimelineZoom: 1

[Metadata]
Title:Make a Move (Speed Up Ver.)
TitleUnicode:Make a Move (Speed Up Ver.)
Artist:Icon For Hire
ArtistUnicode:Icon For Hire
Creator:OsuMagic360
Version:Extra
Source:
Tags:
BeatmapID:1802616
BeatmapSetID:861677

[Difficulty]
HPDrainRate:5
CircleSize:4
OverallDifficulty:4
ApproachRate:8
SliderMultiplier:0.999999999999999
SliderTickRate:1

[Events]
//Background and Video events
0,0,"BG.jpg",0,0
//Break Periods
2,25323,27624
//Storyboard Layer 0 (Background)
//Storyboard Layer 1 (Fail)
//Storyboard Layer 2 (Pass)
//Storyboard Layer 3 (Foreground)
//Storyboard Sound Samples

[TimingPoints]
0,295.566502463054,4,2,0,100,1,0
40197,-100,4,2,0,100,0,1
48768,-100,4,2,0,100,0,0

[Colours]
Combo1 : 121,39,0
Combo2 : 26,255,26
Combo3 : 255,193,132
Combo4 : 48,48,48

[HitObjects]
131,327,9162,6,0,L|78:217,1,99.9999999999999
39,162,9605,1,0,0:0:0:0:
160,55,9753,2,0,P|189:102|137:177,1,150
76,250,10344,6,0,L|94:314,1,50
203,338,10640,2,0,L|185:284,1,50
153,186,10935,1,0,0:0:0:0:
243,184,11083,2,0,L|275:294,1,99.9999999999999
358,235,11674,5,0,0:0:0:0:
380,133,11822,1,0,0:0:0:0:
309,223,11970,5,0,0:0:0:0:
305,121,12118,1,0,0:0:0:0:
248,228,12266,5,0,0:0:0:0:
229,98,12413,1,0,0:0:0:0:
202,245,12561,5,0,0:0:0:0:
164,93,12857,5,0,0:0:0:0:
80,152,13004,1,0,0:0:0:0:
204,112,13152,5,0,0:0:0:0:
128,219,13300,1,0,0:0:0:0:
247,153,13448,6,0,P|208:228|181:251,1,99.9999999999999
421,335,14039,6,0,L|379:279,1,50
243,267,14334,2,0,L|279:317,1,50
336,197,14630,2,0,L|290:141,1,50
151,119,14926,2,0,L|186:168,1,50
388,238,15221,2,0,L|349:197,1,50
121,117,15517,2,0,L|156:159,1,50
388,238,15812,6,0,L|437:291,1,50
198,315,16256,5,0,0:0:0:0:
259,168,16403,1,0,0:0:0:0:
119,183,16551,5,0,0:0:0:0:
343,117,16699,1,0,0:0:0:0:
330,261,16847,5,0,0:0:0:0:
238,51,16995,1,0,0:0:0:0:
145,274,17142,5,0,0:0:0:0:
384,185,17290,2,0,L|447:172,1,50
427,58,17586,6,0,L|359:70,1,50
126,191,17881,1,0,0:0:0:0:
335,170,18029,5,0,0:0:0:0:
81,289,18177,2,0,L|187:283,1,99.9999999999999
350,108,18768,6,0,B|383:108|403:92|403:92|397:126|405:148,1,99.9999999999999
105,313,19359,2,0,B|145:284|145:284|90:264,1,99.9999999999999
175,193,19802,1,0,0:0:0:0:
309,64,19950,5,0,0:0:0:0:
256,282,20098,1,0,0:0:0:0:
396,93,20246,6,0,L|347:190,1,99.9999999999999
107,72,20837,6,0,B|138:86|173:85|189:144,1,99.9999999999999
133,209,21428,6,0,P|149:158|185:128,1,99.9999999999999
328,88,22019,5,0,0:0:0:0:
278,258,22167,1,0,0:0:0:0:
422,130,22315,5,0,0:0:0:0:
170,172,22462,1,0,0:0:0:0:
378,304,22610,5,0,0:0:0:0:
236,78,22758,1,0,0:0:0:0:
256,322,22906,6,0,L|174:246,1,99.9999999999999
354,64,23497,6,0,B|382:102|382:102|417:61,1,99.9999999999999
65,330,24088,5,0,0:0:0:0:
101,170,24236,1,0,0:0:0:0:
136,279,24384,5,0,0:0:0:0:
185,100,24532,1,0,0:0:0:0:
398,103,24679,6,0,L|386:224,1,99.9999999999999
313,103,25123,1,0,0:0:0:0:
192,126,28374,5,0,0:0:0:0:
147,221,28522,1,0,0:0:0:0:
253,212,28669,1,0,0:0:0:0:
118,144,28817,5,0,0:0:0:0:
208,293,28965,1,0,0:0:0:0:
278,130,29113,1,0,0:0:0:0:
92,285,29261,5,0,0:0:0:0:
341,244,29408,1,0,0:0:0:0:
175,70,29556,1,0,0:0:0:0:
440,59,29852,6,0,L|440:111,1,50
382,172,30147,1,0,0:0:0:0:
322,278,30295,2,0,L|323:223,1,50
259,71,30738,5,0,0:0:0:0:
145,316,30960,1,0,0:0:0:0:
119,116,31182,5,0,0:0:0:0:
241,231,31330,1,0,0:0:0:0:
217,119,31477,5,0,0:0:0:0:
200,311,31625,1,0,0:0:0:0:
345,71,31921,5,0,0:0:0:0:
69,284,32142,1,0,0:0:0:0:
396,173,32512,5,0,0:0:0:0:
257,298,32660,1,0,0:0:0:0:
390,286,32807,5,0,0:0:0:0:
175,214,32955,1,0,0:0:0:0:
265,169,33103,5,0,0:0:0:0:
38,266,33251,1,0,0:0:0:0:
408,88,33546,5,0,0:0:0:0:
310,315,33694,1,0,0:0:0:0:
334,134,33842,5,0,0:0:0:0:
396,304,33990,1,0,0:0:0:0:
168,197,34137,6,0,B|164:156|164:156|229:151,1,99.9999999999999
394,221,34729,5,0,0:0:0:0:
353,83,34876,1,0,0:0:0:0:
347,272,35024,5,0,0:0:0:0:
421,122,35172,1,0,0:0:0:0:
280,334,35320,6,0,L|257:235,1,99.9999999999999
172,83,35911,5,0,0:0:0:0:
128,286,36059,1,0,0:0:0:0:
243,125,36206,5,0,0:0:0:0:
347,322,36354,1,0,0:0:0:0:
438,70,36502,6,0,L|381:168,1,99.9999999999999
97,323,37093,5,0,0:0:0:0:
151,85,37241,1,0,0:0:0:0:
65,242,37388,5,0,0:0:0:0:
198,150,37536,1,0,0:0:0:0:
435,100,37684,2,0,L|366:184,1,99.9999999999999
379,339,38275,5,0,0:0:0:0:
255,207,38423,1,0,0:0:0:0:
421,282,38571,5,0,0:0:0:0:
142,227,38719,1,0,0:0:0:0:
445,208,38866,5,0,0:0:0:0:
165,122,39014,1,0,0:0:0:0:
249,347,39162,5,0,0:0:0:0:
238,59,39310,1,0,0:0:0:0:
383,69,39605,5,0,0:0:0:0:
416,150,39753,1,0,0:0:0:0:
346,214,39901,1,0,0:0:0:0:
131,325,40197,6,0,P|107:270|101:223,1,99.9999999999999
50,150,40640,1,0,0:0:0:0:
142,94,40788,2,0,P|162:145|201:167,1,99.9999999999999
320,102,41231,1,0,0:0:0:0:
269,271,41379,2,0,P|319:264|357:215,1,99.9999999999999
278,97,41822,5,0,0:0:0:0:
155,301,42118,1,0,0:0:0:0:
156,55,42339,1,0,0:0:0:0:
50,248,42561,6,0,P|74:285|123:324,1,99.9999999999999
243,163,43152,2,0,P|288:159|255:184,1,99.9999999999999
285,257,43743,2,0,P|325:243|352:185,1,99.9999999999999
224,105,44187,6,0,L|389:82,1,150
325,293,44926,6,0,L|431:291,1,99.9999999999999
208,198,45517,2,0,L|328:199,1,99.9999999999999
97,104,46108,2,0,L|205:108,1,99.9999999999999
63,328,46699,5,0,0:0:0:0:
148,194,46847,1,0,0:0:0:0:
51,244,46995,2,0,B|107:235|101:292|165:270,1,99.9999999999999
395,105,47881,5,0,0:0:0:0:
321,186,48029,1,0,0:0:0:0:
266,99,48177,5,0,0:0:0:0:
346,272,48325,1,0,0:0:0:0:
325,48,48473,5,0,0:0:0:0:
207,297,48620,1,0,0:0:0:0:
127,105,48768,5,4,0:0:0:0:
