osu file format v14

[General]
AudioFilename: audio.mp3
AudioLeadIn: 0
PreviewTime: 29852
Countdown: 1
SampleSet: Soft
StackLeniency: 0.3
Mode: 0
LetterboxInBreaks: 0
WidescreenStoryboard: 1

[Editor]
Bookmarks: 8275
DistanceSpacing: 0.6
BeatDivisor: 4
GridSize: 4
TimelineZoom: 1

[Metadata]
Title:Make a Move (Speed Up Ver.)
TitleUnicode:Make a Move (Speed Up Ver.)
Artist:Icon For Hire
ArtistUnicode:Icon For Hire
Creator:OsuMagic360
Version:Advanced
Source:
Tags:
BeatmapID:1836035
BeatmapSetID:861677

[Difficulty]
HPDrainRate:5.9
CircleSize:4
OverallDifficulty:5.9
ApproachRate:7.6
SliderMultiplier:1.5
SliderTickRate:1

[Events]
//Background and Video events
0,0,"BG.jpg",0,0
//Break Periods
//Storyboard Layer 0 (Background)
//Storyboard Layer 1 (Fail)
//Storyboard Layer 2 (Pass)
//Storyboard Layer 3 (Foreground)
//Storyboard Sound Samples

[TimingPoints]
0,295.566502463054,4,2,0,100,1,0
40197,-100,4,2,0,100,0,1
48768,-100,4,2,0,100,0,0

[Colours]
Combo1 : 121,39,0
Combo2 : 26,255,26
Combo3 : 255,193,132
Combo4 : 48,48,48

[HitObjects]
111,236,9310,5,0,0:0:0:0:
231,313,9605,1,0,0:0:0:0:
348,325,9753,2,0,P|370:267|357:104,1,225
171,113,10492,6,0,L|169:200,1,75
53,290,10788,2,0,L|56:215,1,75
88,108,11083,2,0,B|120:40|120:40|224:42,1,150
406,84,11674,5,0,0:0:0:0:
429,170,11822,2,0,L|357:230,1,75
404,281,12118,2,0,L|312:311,1,75
274,339,12413,2,0,L|188:342,1,75
29,299,12857,6,0,L|101:238,1,75
61,164,13152,2,0,L|134:135,1,75
188,80,13448,2,0,L|242:234,1,150
306,293,14039,6,0,P|361:265|381:225,1,75
430,218,14334,2,0,P|375:246|355:286,1,75
330,193,14630,2,0,P|358:248|398:268,1,75
405,317,14925,2,0,P|377:262|337:242,1,75
249,238,15221,2,0,P|216:213|190:182,1,75
199,115,15517,2,0,P|201:170|186:198,1,75
137,229,15812,2,0,P|178:212|196:177,1,75
321,94,16256,6,0,L|396:96,1,75
448,42,16551,2,0,L|387:104,1,75
439,156,16847,2,0,L|391:89,1,75
332,147,17142,2,0,L|279:208,1,75
235,261,17438,2,0,L|286:198,1,75
125,225,17881,2,0,L|180:170,1,75
226,55,18177,2,0,L|119:166,1,150
126,316,18916,6,0,P|165:325|215:320,1,75
168,243,19359,2,0,P|262:224|327:231,1,150
288,146,19950,1,0,0:0:0:0:
379,168,20098,2,0,L|307:235,1,75
255,276,20394,1,0,0:0:0:0:
145,288,20541,2,0,L|260:184,1,150
197,171,20985,6,0,L|280:110,1,75
118,200,21428,2,0,L|18:204,2,75
141,286,22019,6,0,L|242:288,1,75
206,243,22315,2,0,L|298:251,1,75
260,219,22610,2,0,L|351:237,1,75
457,240,22906,2,0,L|317:189,1,150
129,193,23497,6,0,B|157:180|138:129|138:129|182:167|212:147,1,150
275,130,24088,2,0,L|373:153,1,75
415,179,24384,2,0,L|328:209,1,75
176,257,24679,1,0,0:0:0:0:
77,99,24975,1,0,0:0:0:0:
47,188,25123,2,0,L|43:338,1,150
148,321,25714,6,0,L|245:304,1,75
194,278,26009,2,0,L|282:231,1,75
266,158,26453,2,0,B|296:168|339:137|339:137|308:182|330:213,1,150
59,120,27044,1,0,0:0:0:0:
84,139,27192,2,0,B|79:256|79:256|184:337,1,225
179,283,28374,6,0,L|193:186,2,75
112,149,28817,6,0,L|98:225,2,75
209,120,29261,6,0,L|293:143,2,75
373,336,29852,6,0,L|447:289,1,75
352,245,30147,2,0,L|433:252,1,75
364,159,30443,2,0,L|448:200,1,75
213,251,30886,1,0,0:0:0:0:
100,151,31182,6,0,L|143:82,1,75
159,156,31477,2,0,L|118:226,1,75
41,196,31773,2,0,L|127:52,1,150
269,85,32364,6,0,L|352:88,1,75
220,175,32660,2,0,L|299:175,1,75
159,256,32955,2,0,L|75:255,2,75
363,302,33546,6,0,L|270:299,1,75
244,121,33842,2,0,L|229:203,1,75
169,292,34137,2,0,L|100:329,2,75
85,189,34729,6,0,L|159:149,1,75
317,121,35024,2,0,L|236:168,1,75
227,263,35320,2,0,L|371:184,1,150
280,117,35911,2,0,L|183:142,1,75
329,189,36206,2,0,L|256:243,1,75
46,279,36650,2,0,L|191:209,1,150
66,188,37241,6,0,L|153:151,1,75
206,128,37536,1,0,0:0:0:0:
289,142,37684,2,0,P|289:71|214:47,1,150
86,152,38275,6,0,L|71:259,1,75
268,338,38571,2,0,L|188:279,1,75
192,108,38866,2,0,L|284:149,1,75
370,280,39162,1,0,0:0:0:0:
231,283,39605,6,0,L|142:312,2,75
88,213,40197,6,0,P|139:142|208:103,1,150
386,291,40788,2,0,P|335:211|269:151,1,150
149,339,41379,2,0,P|183:264|238:217,1,150
306,292,41970,2,0,L|390:322,2,75
125,328,42561,6,0,P|83:272|74:180,1,150
124,61,43152,2,0,P|175:123|169:215,1,150
337,314,43743,2,0,P|299:251|303:152,1,150
445,247,44334,2,0,L|455:333,2,75
338,326,44926,6,0,L|173:340,1,150
100,276,45517,2,0,L|264:264,1,150
323,200,46108,2,0,L|174:206,1,150
80,118,46699,6,0,L|27:55,2,75
159,91,47142,2,0,P|222:76|323:97,1,150
340,335,47881,6,0,L|291:244,1,75
321,195,48177,2,0,L|302:277,1,75
230,284,48472,2,0,L|330:262,1,75
245,202,48768,1,4,0:0:0:0:
