osu file format v14

[General]
AudioFilename: audio.mp3
AudioLeadIn: 0
PreviewTime: 30167
Countdown: 1
SampleSet: Soft
StackLeniency: 0.5
Mode: 0
LetterboxInBreaks: 0
WidescreenStoryboard: 0

[Editor]
DistanceSpacing: 1
BeatDivisor: 4
GridSize: 8
TimelineZoom: 1

[Metadata]
Title:Make a Move (Speed Up Ver.)
TitleUnicode:Make a Move (Speed Up Ver.)
Artist:Icon For Hire
ArtistUnicode:
Creator:FailureAtOsu
Version:Extreme
Source:
Tags:
BeatmapID:1735059
BeatmapSetID:828082

[Difficulty]
HPDrainRate:6
CircleSize:4
OverallDifficulty:9
ApproachRate:9.5
SliderMultiplier:1.6
SliderTickRate:1

[Events]
//Background and Video events
//Break Periods
2,112869,114514
//Storyboard Layer 0 (Background)
//Storyboard Layer 1 (Fail)
//Storyboard Layer 2 (Pass)
//Storyboard Layer 3 (Foreground)
//Storyboard Sound Samples

[TimingPoints]
9579,296.237780191567,4,2,0,20,1,0
9579,-100,4,2,0,20,0,0
26168,-133.333333333333,4,2,0,20,0,0
28538,-66.6666666666667,4,2,0,20,0,0
30908,-86.9565217391304,4,2,0,20,0,0
39795,-133.333333333333,4,2,0,20,0,0
40387,-80,4,2,0,20,0,1
49274,-80,4,2,0,20,0,0
49867,-100,4,2,0,20,0,0
68826,-66.6666666666667,4,2,0,20,0,0
71196,-86.9565217391304,4,2,0,20,0,0
80083,-133.333333333333,4,2,0,20,0,0
80676,-80,4,2,0,20,0,1
89563,-80,4,2,0,20,0,0
90155,-100,4,2,0,20,0,1
99042,-133.333333333333,4,2,0,20,0,0
99487,-133.333333333333,4,2,0,20,0,0
120964,-86.9565217391304,4,2,0,20,0,0
130444,-80,4,2,0,20,0,1
139923,-80,4,2,0,20,0,0

[HitObjects]
127,130,9578,6,0,L|205:136,1,80
127,254,9875,2,0,L|205:247,1,80
288,147,10171,1,0,0:0:0:0:
82,191,10319,1,0,0:0:0:0:
288,237,10467,2,0,P|335:224|358:204,1,80
372,115,10763,5,0,0:0:0:0:
288,327,10912,1,0,0:0:0:0:
442,172,11060,1,0,0:0:0:0:
305,62,11208,1,0,0:0:0:0:
358,203,11356,2,0,L|364:281,1,80
211,193,11652,2,0,P|200:155|203:113,1,80
386,31,11948,5,0,0:0:0:0:
290,147,12097,1,0,0:0:0:0:
215,15,12246,1,0,0:0:0:0:
372,115,12393,1,0,0:0:0:0:
211,193,12541,5,0,0:0:0:0:
386,31,12689,1,0,0:0:0:0:
358,203,12837,2,0,L|351:281,1,80
202,115,13133,5,0,0:0:0:0:
372,115,13281,1,0,0:0:0:0:
211,193,13430,1,0,0:0:0:0:
386,31,13578,1,0,0:0:0:0:
139,162,13726,2,0,L|59:168,1,80
321,184,14022,2,0,P|357:200|401:197,1,80
413,191,14244,1,0,0:0:0:0:
427,185,14318,5,0,0:0:0:0:
391,280,14466,1,0,0:0:0:0:
372,115,14615,1,0,0:0:0:0:
392,296,14763,1,0,0:0:0:0:
465,99,14911,5,0,0:0:0:0:
290,109,15059,1,0,0:0:0:0:
475,274,15207,1,0,0:0:0:0:
300,284,15355,1,0,0:0:0:0:
406,28,15503,5,0,0:0:0:0:
296,196,15651,1,0,0:0:0:0:
465,99,15799,1,0,0:0:0:0:
213,157,15948,1,0,0:0:0:0:
475,274,16096,1,0,0:0:0:0:
290,109,16244,2,0,L|283:29,1,80
213,157,16540,1,0,0:0:0:0:
370,151,16688,5,0,0:0:0:0:
290,109,16837,1,0,0:0:0:0:
373,241,16984,1,0,0:0:0:0:
296,288,17133,1,0,0:0:0:0:
290,109,17281,5,0,0:0:0:0:
216,244,17429,1,0,0:0:0:0:
370,151,17577,1,0,0:0:0:0:
213,157,17725,1,0,0:0:0:0:
373,241,17873,6,0,P|413:248|452:247,1,80
365,68,18169,1,0,0:0:0:0:
296,288,18318,1,0,0:0:0:0:
292,327,18392,1,0,0:0:0:0:
289,367,18466,5,0,0:0:0:0:
136,202,18688,1,0,0:0:0:0:
245,5,18910,1,0,0:0:0:0:
290,109,19058,5,0,0:0:0:0:
120,212,19206,1,0,0:0:0:0:
311,100,19354,2,0,L|393:92,1,80
144,289,19651,5,0,0:0:0:0:
92,136,19799,1,0,0:0:0:0:
268,180,19947,1,0,0:0:0:0:
320,27,20095,1,0,0:0:0:0:
181,159,20243,5,0,0:0:0:0:
390,93,20391,1,0,0:0:0:0:
159,73,20539,2,0,L|238:79,1,80
440,202,20836,2,0,L|360:208,1,80
320,27,21132,1,0,0:0:0:0:
268,180,21280,1,0,0:0:0:0:
404,283,21428,6,0,L|410:362,1,80
294,104,21724,1,0,0:0:0:0:
440,202,21872,1,0,0:0:0:0:
242,257,22020,2,0,L|160:264,1,80
381,115,22317,1,0,0:0:0:0:
220,118,22465,1,0,0:0:0:0:
404,283,22613,5,0,0:0:0:0:
294,104,22761,1,0,0:0:0:0:
440,202,22909,1,0,0:0:0:0:
242,257,23057,1,0,0:0:0:0:
381,115,23205,2,0,P|420:99|457:100,1,80
242,257,23502,2,0,P|203:241|166:242,1,80
190,344,23798,5,0,0:0:0:0:
404,283,23946,1,0,0:0:0:0:
181,347,24094,2,0,L|99:339,1,80
338,213,24390,1,0,0:0:0:0:
293,347,24539,1,0,0:0:0:0:
258,162,24687,1,0,0:0:0:0:
404,283,24835,1,0,0:0:0:0:
166,194,24983,6,0,L|173:111,1,80
124,271,25279,1,0,0:0:0:0:
258,162,25427,1,0,0:0:0:0:
404,283,25575,2,0,L|492:288,1,80
293,347,25872,2,0,L|205:352,1,80
399,142,26168,5,0,0:0:0:0:
405,152,26316,2,0,L|466:156,1,60.0000022888184
372,42,26612,5,0,0:0:0:0:
366,52,26760,1,0,0:0:0:0:
360,62,26908,2,0,L|299:66,1,60.0000022888184
216,120,27205,5,0,0:0:0:0:
222,130,27353,1,0,0:0:0:0:
228,140,27501,1,0,0:0:0:0:
228,140,28538,5,0,0:0:0:0:
265,247,28686,1,0,0:0:0:0:
215,348,28834,1,0,0:0:0:0:
256,113,28982,5,0,0:0:0:0:
265,247,29130,1,0,0:0:0:0:
175,349,29278,1,0,0:0:0:0:
297,90,29426,5,0,0:0:0:0:
265,247,29574,1,0,0:0:0:0:
128,337,29722,1,0,0:0:0:0:
352,76,29871,5,0,0:0:0:0:
265,247,30019,1,0,0:0:0:0:
78,308,30167,1,0,0:0:0:0:
381,190,30315,6,0,B|446:205|447:187|501:200,1,120.000004577637,0|0,2:0|2:0,2:0:0:0:
234,36,30611,2,0,B|174:31|174:31|113:46,1,120.000004577637,0|0,2:0|2:0,2:0:0:0:
467,280,30908,6,0,P|474:345|475:378,1,92.0000017547608
182,121,31204,2,0,P|175:186|174:219,1,92.0000017547608
501,295,31500,5,0,0:0:0:0:
440,55,31648,1,0,0:0:0:0:
391,234,31796,1,0,0:0:0:0:
342,55,31944,1,0,0:0:0:0:
281,295,32093,6,0,L|289:202,1,92.0000017547608
469,128,32389,2,0,L|478:220,1,92.0000017547608
245,42,32685,5,0,0:0:0:0:
391,234,32833,1,0,0:0:0:0:
182,121,32981,1,0,0:0:0:0:
281,295,33129,1,0,0:0:0:0:
235,291,33203,1,0,0:0:0:0:
189,287,33277,5,0,0:0:0:0:
182,121,33426,1,0,0:0:0:0:
391,234,33574,2,0,P|437:241|483:242,1,92.0000017547608
152,207,33870,5,0,0:0:0:0:
371,321,34018,1,0,0:0:0:0:
182,121,34166,1,0,0:0:0:0:
225,369,34314,1,0,0:0:0:0:
269,94,34462,5,0,0:0:0:0:
152,207,34611,1,0,0:0:0:0:
391,234,34759,2,0,L|483:242,1,92.0000017547608
225,369,35055,5,0,0:0:0:0:
269,94,35203,1,0,0:0:0:0:
152,207,35351,1,0,0:0:0:0:
371,321,35499,1,0,0:0:0:0:
107,118,35647,6,0,P|70:149|54:191,1,92.0000017547608
196,298,35944,2,0,P|233:267|249:225,1,92.0000017547608
269,94,36240,5,0,0:0:0:0:
98,277,36388,1,0,0:0:0:0:
320,167,36536,1,0,0:0:0:0:
107,118,36684,1,0,0:0:0:0:
196,298,36832,6,0,L|204:205,1,92.0000017547608
399,113,37129,2,0,L|407:205,1,92.0000017547608
107,118,37425,5,0,0:0:0:0:
320,167,37573,1,0,0:0:0:0:
98,277,37721,1,0,0:0:0:0:
269,94,37869,1,0,0:0:0:0:
56,193,38017,6,0,L|148:201,2,92.0000017547608
191,109,38462,1,0,0:0:0:0:
234,245,38610,2,0,P|239:294|235:338,1,92.0000017547608
107,118,38906,2,0,P|102:69|106:25,1,92.0000017547608
269,94,39202,5,0,0:0:0:0:
98,277,39350,1,0,0:0:0:0:
26,38,39499,2,0,L|117:46,1,92.0000017547608
269,94,39795,6,0,P|315:93|360:85,2,90.0000034332277
26,38,40387,6,0,P|41:80|14:182,1,150
0,199,40683,1,0,0:0:0:0:
191,71,40832,1,0,0:0:0:0:
319,262,40980,2,0,L|327:163,1,100,0|0,0:3|0:3,0:3:0:0:
112,26,41276,2,0,L|120:125,1,100,0|0,0:3|0:3,0:3:0:0:
319,262,41572,6,0,P|369:267|417:253,1,100,0|0,0:3|0:3,0:3:0:0:
260,113,41868,1,0,0:0:0:0:
380,341,42017,1,0,0:0:0:0:
340,83,42165,6,0,P|302:38|264:26,1,100
160,104,42387,2,0,L|259:112,1,100
339,184,42609,2,0,L|289:188,1,50
8,196,42757,6,0,L|163:209,1,150
186,212,43053,1,0,0:0:0:0:
340,83,43201,1,0,0:0:0:0:
262,372,43350,2,0,L|270:273,1,100,0|0,0:3|0:3,0:3:0:0:
141,46,43646,2,0,P|181:78|204:121,1,100,0|0,0:3|0:3,0:3:0:0:
96,329,43942,6,0,L|104:230,1,100
340,83,44238,2,0,L|348:182,1,100
110,144,44535,5,0,0:0:0:0:
431,82,44683,1,0,0:0:0:0:
463,117,44757,1,0,0:0:0:0:
481,161,44831,1,0,0:0:0:0:
482,209,44905,1,0,0:0:0:0:
451,274,44979,1,0,0:0:0:0:
390,313,45053,1,0,0:0:0:0:
319,314,45127,6,0,B|248:284|238:334|166:303,1,150
104,229,45423,1,0,0:0:0:0:
348,182,45571,1,0,0:0:0:0:
0,276,45720,2,0,L|9:171,1,100
339,82,46016,2,0,L|347:181,1,100
97,56,46312,6,0,P|143:39|193:42,1,100
435,131,46608,1,0,0:0:0:0:
162,147,46756,1,0,0:0:0:0:
433,35,46904,5,0,0:0:0:0:
331,260,47053,1,0,0:0:0:0:
301,16,47201,1,0,0:0:0:0:
330,273,47349,1,0,0:0:0:0:
159,47,47497,6,0,L|162:147,1,100
464,215,47793,2,0,L|461:315,1,100
161,146,48089,5,0,0:0:0:0:
393,358,48238,1,0,0:0:0:0:
147,140,48386,1,0,0:0:0:0:
464,215,48534,1,0,0:0:0:0:
82,242,48682,5,0,0:0:0:0:
45,203,48756,1,0,0:0:0:0:
28,153,48830,1,0,0:0:0:0:
35,100,48904,1,0,0:0:0:0:
63,56,48978,1,0,0:0:0:0:
83,39,49052,1,0,0:0:0:0:
107,27,49126,1,0,0:0:0:0:
133,21,49200,1,0,0:0:0:0:
208,27,49274,5,0,0:0:0:0:
213,33,49719,1,0,0:0:0:0:
256,134,49867,5,0,0:0:0:0:
217,232,50015,1,0,0:0:0:0:
269,112,50163,2,0,L|350:104,1,80
172,156,50459,5,0,0:0:0:0:
364,227,50607,1,0,0:0:0:0:
156,304,50756,2,0,L|76:297,1,80
411,156,51052,5,0,0:0:0:0:
298,356,51200,1,0,0:0:0:0:
172,156,51348,1,0,0:0:0:0:
364,227,51496,2,0,L|442:233,1,80
156,304,51792,5,0,0:0:0:0:
172,156,51941,1,0,0:0:0:0:
298,356,52089,1,0,0:0:0:0:
364,227,52237,5,0,0:0:0:0:
156,304,52385,1,0,0:0:0:0:
298,356,52533,1,0,0:0:0:0:
172,156,52681,1,0,0:0:0:0:
62,366,52829,6,0,L|69:285,1,80
256,90,53125,2,0,L|262:169,1,80
80,191,53422,5,0,0:0:0:0:
364,227,53570,1,0,0:0:0:0:
156,304,53718,1,0,0:0:0:0:
256,90,53866,1,0,0:0:0:0:
376,253,54014,2,0,L|383:342,1,80
262,169,54310,1,0,0:0:0:0:
261,149,54384,1,0,0:0:0:0:
259,129,54458,1,0,0:0:0:0:
257,109,54532,1,0,0:0:0:0:
256,90,54606,5,0,0:0:0:0:
211,238,54755,1,0,0:0:0:0:
368,125,54903,1,0,0:0:0:0:
168,141,55051,1,0,0:0:0:0:
376,253,55199,2,0,P|418:261|457:260,1,80
168,141,55495,2,0,P|129:139|88:147,1,80
368,125,55792,5,0,0:0:0:0:
211,238,55940,2,0,L|131:244,1,80
400,110,56236,1,0,0:0:0:0:
168,141,56384,2,0,B|128:148|128:148|88:147,1,80
353,52,56680,1,0,0:0:0:0:
416,186,56828,1,0,0:0:0:0:
168,141,56977,6,0,B|208:134|208:134|247:134,1,80
474,271,57273,2,0,B|434:264|434:264|394:264,1,80
99,193,57569,2,0,P|82:146|86:117,1,80
428,340,57865,1,0,0:0:0:0:
336,142,58013,1,0,0:0:0:0:
252,338,58161,5,0,0:0:0:0:
474,271,58310,1,0,0:0:0:0:
211,238,58458,1,0,0:0:0:0:
476,136,58606,1,0,0:0:0:0:
166,141,58754,5,0,0:0:0:0:
166,141,59346,2,0,P|201:140|229:147,2,53.3333333333333
86,168,59643,1,0,0:0:0:0:
67,182,60087,1,0,0:0:0:0:
50,195,60383,1,0,0:0:0:0:
51,207,60457,1,0,0:0:0:0:
53,223,60531,1,0,0:0:0:0:
100,46,61124,5,0,0:0:0:0:
265,208,61717,5,0,0:0:0:0:
318,209,61815,1,0,0:0:0:0:
371,211,61914,1,0,0:0:0:0:
424,213,62013,1,0,0:0:0:0:
453,293,62457,1,0,0:0:0:0:
384,353,62753,1,0,0:0:0:0:
353,352,62827,1,0,0:0:0:0:
322,352,62901,1,0,0:0:0:0:
183,136,63494,6,0,B|191:179|191:179|184:215|184:215|191:258,2,120
150,52,64086,5,0,0:0:0:0:
202,47,64184,1,0,0:0:0:0:
247,74,64283,1,0,0:0:0:0:
269,121,64382,1,0,0:0:0:0:
274,219,64827,1,0,0:0:0:0:
104,150,65123,1,0,0:0:0:0:
143,142,65197,1,0,0:0:0:0:
182,135,65271,1,0,0:0:0:0:
67,255,65864,5,0,0:0:0:0:
199,208,66308,1,0,0:0:0:0:
173,357,66456,5,0,0:0:0:0:
104,150,66604,1,0,0:0:0:0:
86,332,66752,5,0,0:0:0:0:
194,111,66900,1,0,0:0:0:0:
333,349,67049,5,0,0:0:0:0:
117,60,67197,1,0,0:0:0:0:
86,332,67345,5,0,0:0:0:0:
117,29,67493,1,0,0:0:0:0:
188,285,67641,6,0,L|270:288,2,80
86,332,68085,1,0,0:0:0:0:
124,224,68234,5,0,0:0:0:0:
124,208,68382,1,0,0:0:0:0:
124,191,68530,1,0,0:0:0:0:
124,173,68678,1,0,0:0:0:0:
391,246,68826,5,0,0:0:0:0:
268,170,68974,1,0,0:0:0:0:
124,173,69122,1,0,0:0:0:0:
377,285,69270,5,0,0:0:0:0:
268,170,69418,1,0,0:0:0:0:
114,132,69566,1,0,0:0:0:0:
351,324,69715,5,0,0:0:0:0:
268,170,69863,1,0,0:0:0:0:
114,86,70011,1,0,0:0:0:0:
312,356,70159,5,0,0:0:0:0:
268,170,70307,1,0,0:0:0:0:
128,36,70455,1,0,0:0:0:0:
244,285,70603,6,0,P|313:274|360:255,1,120.000004577637
161,208,70900,2,0,P|92:219|45:238,1,120.000004577637
438,206,71196,6,0,L|446:115,1,92.0000017547608
169,299,71492,2,0,L|160:207,1,92.0000017547608
438,206,71788,5,0,0:0:0:0:
160,207,71937,1,0,0:0:0:0:
458,228,72085,1,0,0:0:0:0:
140,185,72233,1,0,0:0:0:0:
478,250,72381,6,0,L|384:246,1,92.0000017547608
118,162,72677,2,0,L|212:158,1,92.0000017547608
473,141,72973,5,0,0:0:0:0:
286,249,73122,1,0,0:0:0:0:
136,81,73270,1,0,0:0:0:0:
273,340,73418,1,0,0:0:0:0:
280,294,73492,1,0,0:0:0:0:
286,249,73566,5,0,0:0:0:0:
315,21,73714,1,0,0:0:0:0:
118,162,73862,2,0,L|122:256,1,92.0000017547608
443,83,74158,5,0,0:0:0:0:
286,249,74306,1,0,0:0:0:0:
315,21,74455,1,0,0:0:0:0:
425,224,74603,1,0,0:0:0:0:
218,126,74751,5,0,0:0:0:0:
425,224,74899,1,0,0:0:0:0:
181,331,75047,2,0,L|273:340,1,92.0000017547608,0|0,3:0|3:0,3:0:0:0:
425,224,75343,5,0,0:0:0:0:
218,126,75491,1,0,0:0:0:0:
181,331,75640,1,0,0:0:0:0:
336,133,75788,1,0,0:0:0:0:
111,79,75936,6,0,P|103:124|111:169,1,92.0000017547608
425,314,76232,2,0,P|432:268|424:223,1,92.0000017547608
111,169,76528,5,0,0:0:0:0:
324,268,76676,1,0,0:0:0:0:
218,126,76824,1,0,0:0:0:0:
181,331,76973,1,0,0:0:0:0:
226,34,77121,6,0,L|217:129,1,92.0000017547608
56,293,77417,2,0,L|64:388,1,92.0000017547608
111,79,77713,5,0,0:0:0:0:
181,331,77861,1,0,0:0:0:0:
217,125,78009,1,0,0:0:0:0:
56,293,78158,1,0,0:0:0:0:
332,129,78306,6,0,P|376:121|428:124,2,92.0000017547608
139,209,78750,1,0,0:0:0:0:
371,319,78898,2,0,L|379:222,1,92.0000017547608
208,33,79194,2,0,L|216:124,1,92.0000017547608
476,272,79491,5,0,0:0:0:0:
139,209,79639,1,0,0:0:0:0:
423,123,79787,2,0,B|470:129|470:129|514:128,1,92.0000017547608
476,272,80083,6,0,P|432:270|385:279,2,90.0000034332277
80,358,80676,6,0,P|124:360|235:332,1,150
308,305,80972,1,0,0:0:0:0:
139,209,81120,1,0,0:0:0:0:
333,316,81268,2,0,L|432:324,1,100,0|0,3:0|3:0,3:0:0:0:
182,123,81564,2,0,L|82:131,1,100,0|0,3:0|3:0,3:0:0:0:
363,151,81861,6,0,P|372:105|352:57,1,100
219,271,82157,1,0,0:0:0:0:
296,110,82305,1,0,0:0:0:0:
333,316,82453,6,0,L|326:216,1,100
211,370,82675,2,0,B|220:325|220:325|218:270,1,100
220,87,82897,2,0,L|215:140,1,50
335,345,83045,6,0,P|415:375|440:326,1,150
423,257,83342,1,0,0:0:0:0:
211,370,83490,1,0,0:0:0:0:
215,136,83638,2,0,P|212:88|198:35,1,100
336,289,83934,2,0,P|339:241|353:188,1,100
44,97,84230,6,0,L|146:105,1,100
451,182,84527,2,0,L|348:190,1,100
95,212,84823,5,0,0:0:0:0:
435,280,84971,1,0,0:0:0:0:
392,283,85045,1,0,0:0:0:0:
349,286,85119,1,0,0:0:0:0:
283,255,85193,1,0,0:0:0:0:
259,186,85267,1,0,0:0:0:0:
291,121,85341,1,0,0:0:0:0:
360,97,85415,6,0,L|210:107,1,150
106,113,85712,1,0,0:0:0:0:
351,190,85860,1,0,0:0:0:0:
86,311,86008,2,0,L|94:212,1,100
202,7,86304,2,0,L|210:106,1,100
7,121,86600,6,0,P|56:124|105:112,1,100
307,33,86897,1,0,0:0:0:0:
105,112,87045,1,0,0:0:0:0:
254,203,87193,5,0,0:0:0:0:
49,44,87341,1,0,0:0:0:0:
86,311,87489,1,0,0:0:0:0:
228,103,87637,1,0,0:0:0:0:
48,210,87785,6,0,L|146:218,1,100
427,123,88082,2,0,L|328:131,1,100
105,112,88378,5,0,0:0:0:0:
355,228,88526,1,0,0:0:0:0:
159,21,88674,1,0,0:0:0:0:
86,311,88822,1,0,0:0:0:0:
327,131,88970,5,0,0:0:0:0:
147,218,89118,1,0,0:0:0:0:
355,228,89266,1,0,0:0:0:0:
228,103,89415,1,0,0:0:0:0:
211,316,89563,5,0,0:0:0:0:
355,228,89711,1,0,0:0:0:0:
415,116,89859,1,0,2:0:0:0:
411,20,90007,1,0,2:0:0:0:
492,230,90155,6,0,L|500:349,2,120
411,20,90748,1,0,0:0:0:0:
419,139,90896,1,0,0:0:0:0:
492,230,91044,1,0,0:0:0:0:
500,349,91192,1,0,0:0:0:0:
218,211,91340,6,0,P|257:223|336:208,2,120
416,139,91933,1,0,0:0:0:0:
333,209,92081,1,0,0:0:0:0:
218,211,92229,1,0,0:0:0:0:
139,132,92377,1,0,0:0:0:0:
265,384,92525,6,0,P|277:335|277:258,2,120
121,217,93118,5,0,0:0:0:0:
279,110,93340,1,0,0:0:0:0:
428,229,93562,1,0,0:0:0:0:
25,270,93710,6,0,P|15:231|37:148,2,120
279,110,94303,1,0,0:0:0:0:
121,217,94525,1,0,0:0:0:0:
291,299,94747,1,0,0:0:0:0:
155,367,94895,6,0,L|159:280,1,80
282,189,95117,2,0,L|278:102,1,80
150,139,95339,2,0,P|178:139|194:137,1,40
355,74,95487,1,0,0:0:0:0:
278,109,95636,1,0,0:0:0:0:
282,189,95784,1,0,0:0:0:0:
205,224,95932,1,0,0:0:0:0:
415,129,96080,6,0,L|496:126,1,80
357,280,96302,2,0,L|276:277,1,80
268,70,96524,2,0,P|276:92|278:111,1,40
270,290,96672,5,0,0:0:0:0:
282,189,96821,1,0,0:0:0:0:
195,132,96969,1,0,0:0:0:0:
183,31,97118,1,0,0:0:0:0:
432,254,97265,5,0,0:0:0:0:
67,223,97487,1,0,0:0:0:0:
415,129,97709,1,0,0:0:0:0:
209,333,97857,2,0,B|127:313|124:365|45:343,1,160
350,363,98302,1,0,0:0:0:0:
67,223,98450,5,0,0:0:0:0:
40,149,98524,1,0,0:0:0:0:
63,74,98598,1,0,0:0:0:0:
127,28,98672,1,0,0:0:0:0:
206,31,98746,1,0,0:0:0:0:
240,51,98820,1,0,0:0:0:0:
266,81,98894,1,0,0:0:0:0:
282,118,98968,1,0,0:0:0:0:
284,157,99042,2,0,L|275:238,2,60.0000022888184
205,161,99487,6,0,P|185:200|203:274,1,120.000004577637
332,299,99931,1,0,0:0:0:0:
332,299,100079,1,0,0:0:0:0:
424,182,100227,1,0,0:0:0:0:
326,81,100523,1,0,0:0:0:0:
440,295,100820,1,0,0:0:0:0:
440,295,101412,5,0,0:0:0:0:
424,182,101560,1,0,0:0:0:0:
332,299,101708,1,0,0:0:0:0:
484,232,101857,6,0,P|500:200|471:121,1,120.000004577637
399,108,102301,1,0,0:0:0:0:
399,108,102449,1,0,0:0:0:0:
332,299,102597,1,0,0:0:0:0:
424,182,102893,1,0,0:0:0:0:
260,264,103190,5,0,0:0:0:0:
260,264,103782,5,0,0:0:0:0:
256,174,103930,1,0,0:0:0:0:
252,84,104078,1,0,0:0:0:0:
68,181,104226,6,0,P|127:174|173:137,1,120.000004577637
92,90,104671,1,0,0:0:0:0:
92,90,104819,1,0,0:0:0:0:
256,174,104967,1,0,0:0:0:0:
128,300,105263,1,0,0:0:0:0:
173,137,105560,1,0,0:0:0:0:
342,212,106152,5,0,0:0:0:0:
256,174,106300,1,0,0:0:0:0:
173,137,106448,1,0,0:0:0:0:
266,265,106596,6,0,P|317:301|372:303,1,120.000004577637
444,231,107041,1,0,0:0:0:0:
444,231,107189,1,0,0:0:0:0:
372,101,107337,2,0,L|369:21,1,60.0000022888184
459,68,107633,1,0,0:0:0:0:
287,140,107781,1,0,0:0:0:0:
123,63,107929,5,0,0:0:0:0:
342,212,108226,1,0,0:0:0:0:
342,212,108374,1,0,0:0:0:0:
256,34,108522,5,0,0:0:0:0:
123,63,108670,2,0,L|77:65,2,30.0000011444092
287,140,108966,1,0,0:0:0:0:
28,201,109114,5,0,0:0:0:0:
256,192,109188,12,0,112669,0:0:0:0:
342,212,115039,5,0,0:0:0:0:
283,316,115335,1,0,0:0:0:0:
167,347,115632,1,0,0:0:0:0:
63,287,115928,1,0,0:0:0:0:
32,171,116224,5,0,0:0:0:0:
167,347,116372,1,0,0:0:0:0:
342,212,116520,1,0,0:0:0:0:
92,67,117409,5,0,0:0:0:0:
167,347,117557,1,0,0:0:0:0:
311,97,117705,1,0,0:0:0:0:
311,97,118594,5,0,0:0:0:0:
292,208,118742,1,0,0:0:0:0:
217,290,118890,1,0,0:0:0:0:
404,136,119038,5,0,0:0:0:0:
292,208,119186,1,0,0:0:0:0:
235,331,119334,1,0,0:0:0:0:
379,104,119483,5,0,0:0:0:0:
292,208,119631,1,0,0:0:0:0:
165,248,119779,1,0,0:0:0:0:
393,227,119927,5,0,0:0:0:0:
452,224,120001,1,0,0:0:0:0:
512,221,120075,1,0,0:0:0:0:
235,331,120223,1,0,0:0:0:0:
183,47,120371,1,0,0:0:0:0:
375,324,120520,5,0,0:0:0:0:
391,276,120594,1,0,0:0:0:0:
393,227,120668,1,0,0:0:0:0:
377,179,120742,1,0,0:0:0:0:
361,132,120816,1,0,0:0:0:0:
361,83,120890,1,0,0:0:0:0:
374,35,120964,5,0,0:0:0:0:
229,204,121112,1,0,0:0:0:0:
15,186,121260,2,0,L|106:192,1,92.0000017547608
374,35,121556,5,0,0:0:0:0:
229,204,121704,1,0,0:0:0:0:
382,14,121853,1,0,0:0:0:0:
304,252,122001,1,0,0:0:0:0:
99,0,122149,6,0,P|92:49|102:90,1,92.0000017547608
390,175,122445,2,0,P|351:144|310:132,1,92.0000017547608
59,244,122741,5,0,0:0:0:0:
304,252,122889,1,0,0:0:0:0:
101,89,123038,1,0,0:0:0:0:
229,204,123186,1,0,0:0:0:0:
403,75,123334,5,0,0:0:0:0:
189,327,123482,1,0,0:0:0:0:
171,17,123630,2,0,L|176:115,1,92.0000017547608
189,327,123926,5,0,0:0:0:0:
390,175,124074,1,0,0:0:0:0:
59,244,124223,1,0,0:0:0:0:
304,252,124371,1,0,0:0:0:0:
285,51,124519,5,0,0:0:0:0:
189,327,124667,1,0,0:0:0:0:
39,65,124815,2,0,L|49:158,1,92.0000017547608,0|0,0:0|0:1,0:0:0:0:
304,252,125111,5,0,0:0:0:0:
154,6,125259,5,0,0:0:0:0:
159,59,125333,1,0,0:0:0:0:
165,112,125407,1,0,0:0:0:0:
171,166,125481,1,0,0:0:0:0:
176,219,125555,1,0,0:0:0:0:
182,272,125629,1,0,0:0:0:0:
188,326,125703,5,0,0:0:0:0:
435,221,125852,1,0,0:0:0:0:
154,341,126000,2,0,L|62:349,1,92.0000017547608,0|0,3:0|3:0,3:0:0:0:
348,133,126296,5,0,0:0:0:0:
287,350,126444,1,0,0:0:0:0:
171,166,126592,1,0,0:0:0:0:
435,221,126741,1,0,0:0:0:0:
154,341,126889,6,0,P|106:349|62:349,1,92.0000017547608,0|0,3:0|3:0,3:0:0:0:
262,174,127185,2,0,P|216:173|171:166,1,92.0000017547608,0|0,3:0|3:0,3:0:0:0:
471,104,127481,5,0,0:0:0:0:
287,350,127629,1,0,0:0:0:0:
262,174,127777,1,0,0:0:0:0:
337,259,127925,1,0,0:0:0:0:
97,242,128074,6,0,P|85:186|84:151,2,92.0000017547608
232,271,128518,1,0,0:0:0:0:
186,63,128666,2,0,L|176:156,1,92.0000017547608,0|0,3:0|3:0,3:0:0:0:
337,259,128962,2,0,L|328:167,1,92.0000017547608,0|0,3:0|3:0,3:0:0:0:
96,61,129259,5,0,0:0:0:0:
125,69,129333,1,0,0:0:0:0:
155,70,129407,1,0,0:0:0:0:
185,62,129481,1,0,0:0:0:0:
234,41,129555,5,0,0:0:0:0:
265,32,129629,1,0,0:0:0:0:
300,33,129703,1,0,0:0:0:0:
331,42,129777,1,0,0:0:0:0:
376,86,129851,5,0,0:0:0:0:
385,120,129925,1,0,0:0:0:0:
384,158,129999,1,0,0:0:0:0:
374,192,130073,1,0,0:0:0:0:
306,223,130147,5,0,0:0:0:0:
295,263,130221,1,0,0:0:0:0:
296,309,130295,1,0,0:0:0:0:
308,350,130369,1,0,0:0:0:0:
381,383,130444,6,0,L|229:368,1,150
156,358,130740,1,0,0:0:0:0:
433,285,130888,1,0,0:0:0:0:
112,259,131036,2,0,L|211:267,1,100
473,183,131332,2,0,L|373:191,1,100
43,207,131628,6,0,P|25:258|36:301,1,100
144,79,131925,1,0,0:0:0:0:
36,301,132073,1,0,0:0:0:0:
49,16,132221,6,0,L|53:118,1,100
201,173,132443,2,0,L|197:275,1,100
36,301,132665,2,0,L|36:251,1,50
201,173,132813,6,0,P|251:157|335:203,1,150
367,293,133110,1,0,0:0:0:0:
414,60,133258,1,0,0:0:0:0:
263,351,133406,2,0,L|254:251,1,100
306,3,133702,2,0,L|297:102,1,100
120,218,133998,6,0,P|110:164|125:115,1,100
206,69,134295,1,0,0:0:0:0:
11,161,134443,1,0,0:0:0:0:
333,200,134591,5,0,0:0:0:0:
206,69,134739,1,0,0:0:0:0:
216,117,134813,1,0,0:0:0:0:
204,165,134887,1,0,0:0:0:0:
188,225,134961,1,0,0:0:0:0:
199,286,135035,1,0,0:0:0:0:
236,336,135109,1,0,0:0:0:0:
291,365,135183,6,0,L|440:378,1,150
512,290,135480,1,0,0:0:0:0:
158,354,135628,1,0,0:0:0:0:
432,192,135776,2,0,L|328:200,1,100
13,277,136072,2,0,L|117:285,1,100
512,290,136368,6,0,L|361:277,1,150,2|0,0:0|0:0,0:0:0:0:
272,267,136665,1,0,0:0:0:0:
512,176,136813,5,0,0:0:0:0:
309,350,136961,1,0,0:0:0:0:
80,210,137109,1,0,0:0:0:0:
272,267,137257,1,0,0:0:0:0:
24,286,137405,1,0,0:0:0:0:
365,278,137553,6,0,L|463:287,1,100
242,130,137849,2,0,L|143:139,1,100
309,350,138146,5,0,0:0:0:0:
331,74,138294,1,0,0:0:0:0:
365,278,138442,1,0,0:0:0:0:
242,130,138590,1,0,0:0:0:0:
166,294,138738,5,0,0:0:0:0:
342,172,138886,1,0,0:0:0:0:
63,73,139034,2,0,L|52:181,1,100
439,203,139331,5,0,0:0:0:0:
166,294,139479,1,0,0:0:0:0:
308,349,139627,2,0,L|408:358,1,100,0|0,3:0|3:0,3:0:0:0:
321,77,139923,6,0,B|420:103|412:27|514:56,1,200
248,39,140367,1,0,0:0:0:0:
471,136,140516,1,0,0:0:0:0:
486,214,140664,1,0,0:0:0:0:
334,272,140812,1,0,0:0:0:0:
349,194,140960,1,0,0:0:0:0:
358,184,141034,1,0,0:0:0:0:
367,174,141108,5,0,0:0:0:0:
259,161,141256,1,0,0:0:0:0:
172,294,141404,1,0,0:0:0:0:
64,281,141552,1,0,0:0:0:0:
193,69,141701,5,0,0:0:0:0:
301,56,141849,1,0,0:0:0:0:
135,165,141997,1,0,0:0:0:0:
27,152,142145,1,0,0:0:0:0:
376,145,142293,6,0,B|360:244|360:244|381:347,1,200
464,249,142737,1,0,0:0:0:0:
259,161,142886,1,0,0:0:0:0:
282,255,143034,1,0,0:0:0:0:
464,249,143182,1,0,0:0:0:0:
487,155,143330,1,0,0:0:0:0:
209,322,143478,5,0,0:0:0:0:
259,161,143626,1,0,0:0:0:0:
282,255,143774,1,0,0:0:0:0:
171,123,143922,1,0,0:0:0:0:
349,186,144070,5,0,0:0:0:0:
282,255,144219,1,0,0:0:0:0:
171,123,144367,1,0,0:0:0:0:
259,161,144515,1,0,0:0:0:0:
181,347,144663,6,0,L|384:362,1,200
478,370,145107,1,0,0:0:0:0:
282,255,145255,1,0,0:0:0:0:
396,203,145404,1,0,0:0:0:0:
181,347,145552,1,0,0:0:0:0:
67,295,145701,1,0,0:0:0:0:
282,255,145848,5,0,0:0:0:0:
269,111,145996,1,0,0:0:0:0:
181,347,146144,1,0,0:0:0:0:
168,203,146292,1,0,0:0:0:0:
422,287,146440,5,0,0:0:0:0:
269,111,146589,1,0,0:0:0:0:
282,255,146737,1,0,0:0:0:0:
401,54,146885,1,0,0:0:0:0:
168,203,147033,6,0,B|18:216|18:216|62:188,1,200
150,128,147477,1,0,0:0:0:0:
96,304,147625,5,0,0:0:0:0:
53,51,147773,1,0,0:0:0:0:
226,364,147922,1,0,0:0:0:0:
269,111,148070,1,0,0:0:0:0:
352,340,148218,5,0,0:0:0:0:
150,128,148366,1,0,0:0:0:0:
435,60,148514,1,0,0:0:0:0:
