osu file format v14

[General]
AudioFilename: audio.mp3
AudioLeadIn: 0
PreviewTime: 29834
Countdown: 0
SampleSet: None
StackLeniency: 0.7
Mode: 0
LetterboxInBreaks: 0
WidescreenStoryboard: 1

[Editor]
Bookmarks: 27242,27982
DistanceSpacing: 1.2
BeatDivisor: 4
GridSize: 8
TimelineZoom: 3.099999

[Metadata]
Title:Make a Move (Sped Up Ver.)
TitleUnicode:Make a Move (Sped Up Ver.)
Artist:Icon For Hire
ArtistUnicode:Icon For Hire
Creator:carc1nogen
Version:Heart Attack
Source:
Tags:
BeatmapID:1780039
BeatmapSetID:851538

[Difficulty]
HPDrainRate:5.2
CircleSize:4
OverallDifficulty:8.5
ApproachRate:9.2
SliderMultiplier:1.80000000596047
SliderTickRate:1

[Events]
//Background and Video events
0,0,"hatsune-miku-rain-manga-vocaloid.jpg",0,0
//Break Periods
//Storyboard Layer 0 (Background)
//Storyboard Layer 1 (Fail)
//Storyboard Layer 2 (Pass)
//Storyboard Layer 3 (Foreground)
//Storyboard Sound Samples

[TimingPoints]
3395,296.237780191567,4,3,22,35,1,0
9319,-138.888888888889,4,3,22,52,0,0
18207,-100,4,3,22,52,0,0
18799,-111.111111111111,4,3,22,62,0,0
25909,-200,4,3,22,32,0,0
27242,-100,4,3,22,32,0,0
28279,-200,4,3,22,72,0,0
30648,-86.9565217391304,4,3,22,82,0,1
39536,-100,4,3,22,82,0,0
40128,-86.9565217391304,4,3,22,82,0,1
48719,-86.9565217391304,4,3,22,82,0,0

[Colours]
Combo1 : 255,47,47
Combo2 : 182,108,255
Combo3 : 189,236,79
Combo4 : 136,255,255
Combo5 : 255,169,83
Combo6 : 126,190,190

[HitObjects]
178,125,9319,6,0,L|178:217,1,64.8000017966082
303,345,9615,6,0,L|303:253,1,64.8000017966082
118,299,9912,6,0,L|179:277,1,64.8000017966082
366,173,10208,6,0,L|306:197,1,64.8000017966082
454,109,10504,1,0,0:0:0:0:
411,297,10652,1,0,0:0:0:0:
290,127,10800,1,0,0:0:0:0:
333,342,10949,1,0,0:0:0:0:
475,218,11097,6,0,P|442:207|391:218,1,64.8000017966082
278,325,11393,2,0,P|301:298|310:247,1,64.8000017966082
417,124,11689,6,0,L|349:118,1,64.8000017966082
202,202,11985,2,0,L|270:196,1,64.8000017966082
404,265,12282,1,0,0:0:0:0:
240,81,12430,1,0,0:0:0:0:
132,282,12578,2,0,L|206:273,1,64.8000017966082
344,202,12874,5,0,0:0:0:0:
206,383,13022,1,0,0:0:0:0:
181,145,13170,1,0,0:0:0:0:
283,308,13318,1,0,0:0:0:0:
141,345,13467,2,0,P|130:314|133:282,1,64.8000017966082
274,103,13763,2,0,P|284:133|281:165,1,64.8000017966082
261,342,14059,5,0,0:0:0:0:
120,280,14207,1,0,0:0:0:0:
331,246,14355,1,0,0:0:0:0:
187,78,14503,1,0,0:0:0:0:
201,274,14652,5,0,0:0:0:0:
335,129,14800,1,0,0:0:0:0:
110,141,14948,1,0,0:0:0:0:
143,338,15096,1,0,0:0:0:0:
262,187,15244,5,0,0:0:0:0:
61,225,15392,1,0,0:0:0:0:
228,299,15540,1,0,0:0:0:0:
178,118,15688,1,0,0:0:0:0:
80,344,15836,5,0,0:0:0:0:
80,344,15985,2,0,L|149:339,1,64.8000017966082
313,332,16281,5,0,0:0:0:0:
303,167,16429,1,0,0:0:0:0:
434,222,16577,1,0,0:0:0:0:
303,167,16725,1,0,0:0:0:0:
434,222,16873,1,0,0:0:0:0:
294,301,17021,6,0,L|372:293,1,64.8000017966082
438,352,17318,1,0,0:0:0:0:
355,222,17466,1,0,0:0:0:0:
191,256,17614,2,0,P|193:191|210:144,1,97.2000026949123
202,160,17910,5,0,0:0:0:0:
475,159,18058,1,0,0:0:0:0:
281,118,18206,2,0,L|372:135,1,64.8000017966082
441,236,18429,2,0,L|344:231,1,90.0000002980235
351,231,18651,1,0,0:0:0:0:
116,343,18799,6,0,P|160:313|160:273,1,80.9999977962974
90,153,19095,1,0,0:0:0:0:
314,152,19243,1,0,0:0:0:0:
314,351,19391,2,0,P|276:338|259:303,1,80.9999977962974
396,186,19688,2,0,P|383:223|348:240,1,80.9999977962974
137,263,19984,2,0,L|223:248,1,80.9999977962974
339,127,20280,2,0,L|253:112,1,80.9999977962974
112,118,20576,2,0,P|141:144|193:166,1,80.9999977962974
337,238,20873,5,0,0:0:0:0:
193,243,21021,1,0,0:0:0:0:
403,327,21169,2,0,L|317:322,1,80.9999977962974
144,312,21465,1,0,0:0:0:0:
271,176,21613,1,0,0:0:0:0:
121,223,21761,2,0,L|207:235,1,80.9999977962974
375,255,22057,5,0,0:0:0:0:
299,67,22206,1,0,0:0:0:0:
283,340,22354,1,0,0:0:0:0:
396,144,22502,1,0,0:0:0:0:
205,268,22650,1,0,0:0:0:0:
220,58,22798,1,0,0:0:0:0:
309,197,22946,2,0,L|224:184,1,80.9999977962974
67,341,23242,2,0,P|114:328|131:288,1,80.9999977962974
178,133,23539,5,0,0:0:0:0:
206,330,23687,1,0,0:0:0:0:
76,239,23835,2,0,L|160:223,1,80.9999977962974
365,160,24131,5,0,0:0:0:0:
322,330,24279,1,0,0:0:0:0:
438,226,24427,1,0,0:0:0:0:
269,182,24575,1,0,0:0:0:0:
150,314,24724,6,0,P|196:326|234:319,1,80.9999977962974
340,247,25020,1,0,0:0:0:0:
99,105,25168,1,0,0:0:0:0:
319,68,25316,2,0,P|273:56|235:63,1,80.9999977962974
382,244,25760,5,0,0:0:0:0:
393,255,25909,1,0,0:0:0:0:
393,255,26057,1,0,0:0:0:0:
393,255,26205,2,0,L|330:261,1,45.0000001490117
122,372,26501,2,0,L|169:367,1,45.0000001490117
443,341,26797,2,0,L|389:347,1,45.0000001490117
230,229,27242,2,0,B|163:225|115:261|201:369|234:291|276:308|308:316|308:316|304:281|289:245|366:213|275:120|233:162|236:240,1,450.000001490117
109,318,28278,5,0,0:0:0:0:
365,122,28427,1,0,0:0:0:0:
136,142,28575,1,0,0:0:0:0:
380,270,28723,5,0,0:0:0:0:
98,240,28871,1,0,0:0:0:0:
266,65,29019,5,0,0:0:0:0:
289,306,29167,1,0,0:0:0:0:
180,68,29315,1,0,0:0:0:0:
407,179,29463,5,0,0:0:0:0:
201,298,29612,1,0,0:0:0:0:
340,108,29760,1,0,0:0:0:0:
298,313,29908,5,0,0:0:0:0:
210,131,30056,1,0,0:0:0:0:
458,229,30204,1,0,0:0:0:0:
177,222,30352,1,0,0:0:0:0:
436,310,30500,1,0,0:0:0:0:
466,124,30648,6,0,P|405:91|349:95,1,103.500002316833
265,248,30945,2,0,P|319:285|382:274,1,103.500002316833
341,175,31241,5,0,0:0:0:0:
135,100,31389,1,0,0:0:0:0:
354,33,31537,1,0,0:0:0:0:
195,327,31685,1,0,0:0:0:0:
383,344,31833,6,0,L|277:332,1,103.500002316833
141,251,32130,2,0,L|247:239,1,103.500002316833
457,135,32426,5,0,0:0:0:0:
287,309,32574,1,0,0:0:0:0:
456,240,32722,1,0,0:0:0:0:
244,165,32870,1,0,0:0:0:0:
244,165,32944,1,0,0:0:0:0:
244,165,33018,2,0,L|353:174,1,103.500002316833
468,321,33315,2,0,L|359:330,1,103.500002316833
190,342,33611,5,0,0:0:0:0:
361,197,33759,1,0,0:0:0:0:
163,53,33907,1,0,0:0:0:0:
118,361,34055,1,0,0:0:0:0:
85,108,34203,5,0,0:0:0:0:
218,349,34351,1,0,0:0:0:0:
271,68,34499,2,0,P|263:145|275:199,1,103.500002316833
421,100,34796,5,0,0:0:0:0:
182,136,34944,1,0,0:0:0:0:
397,191,35092,1,0,0:0:0:0:
143,64,35240,1,0,0:0:0:0:
75,218,35388,2,0,P|75:287|114:322,1,103.500002316833
278,202,35684,2,0,P|278:133|239:98,1,103.500002316833
170,182,35981,5,0,0:0:0:0:
385,219,36129,1,0,0:0:0:0:
256,60,36277,1,0,0:0:0:0:
113,273,36425,1,0,0:0:0:0:
325,268,36573,6,0,L|210:253,1,103.500002316833
78,158,36869,2,0,L|193:143,1,103.500002316833
429,60,37166,5,0,0:0:0:0:
375,210,37314,1,0,0:0:0:0:
257,95,37462,2,0,L|361:117,1,103.500002316833
465,194,37758,5,0,0:0:0:0:
235,330,37906,1,0,0:0:0:0:
91,132,38054,1,0,0:0:0:0:
389,73,38202,1,0,0:0:0:0:
138,275,38351,5,0,0:0:0:0:
312,37,38499,1,0,0:0:0:0:
340,311,38647,1,0,0:0:0:0:
168,67,38795,1,0,0:0:0:0:
216,330,38943,5,0,0:0:0:0:
81,107,39091,1,0,0:0:0:0:
389,48,39239,1,0,0:0:0:0:
228,242,39387,1,0,0:0:0:0:
419,224,39536,6,0,P|362:207|335:170,1,90.0000002980235
356,122,39758,2,0,P|301:173|245:167,1,135.000000447035
136,350,40128,6,0,L|341:322,1,207.000004633666
430,231,40572,1,0,0:0:0:0:
387,119,40720,2,0,L|180:91,1,207.000004633666
80,156,41165,1,0,0:0:0:0:
125,265,41313,2,0,L|332:293,1,207.000004633666
427,231,41757,1,0,0:0:0:0:
315,180,41905,6,0,P|309:121|264:91,1,103.500002316833
106,180,42202,2,0,P|112:239|157:269,1,103.500002316833
278,352,42498,2,0,P|298:241|346:157,1,207.000004633666
431,336,42942,1,0,0:0:0:0:
466,106,43090,2,0,P|373:41|280:16,1,207.000004633666
314,156,43535,1,0,0:0:0:0:
48,130,43683,2,0,P|134:202|225:235,1,207.000004633666
412,268,44127,1,0,0:0:0:0:
273,63,44275,5,0,0:0:0:0:
323,251,44423,1,0,0:0:0:0:
323,251,44497,1,0,0:0:0:0:
323,251,44572,1,0,0:0:0:0:
152,147,44720,1,0,0:0:0:0:
152,147,44794,1,0,0:0:0:0:
152,147,44868,2,0,P|255:101|351:94,1,207.000004633666
228,236,45312,1,0,0:0:0:0:
447,275,45460,2,0,P|344:321|248:328,1,207.000004633666
340,139,45905,1,0,0:0:0:0:
104,172,46053,2,0,P|134:67|228:25,1,207.000004633666
213,238,46497,1,0,0:0:0:0:
425,319,46645,5,0,0:0:0:0:
335,111,46793,1,0,0:0:0:0:
268,338,46941,1,0,0:0:0:0:
103,248,47090,2,0,P|152:147|238:132,1,207.000004633666
373,185,47534,1,0,0:0:0:0:
157,61,47682,5,0,0:0:0:0:
189,327,47830,1,0,0:0:0:0:
345,85,47978,1,0,0:0:0:0:
93,149,48126,1,0,0:0:0:0:
346,316,48275,1,0,0:0:0:0:
259,69,48423,5,0,0:0:0:0:
105,335,48571,1,0,0:0:0:0:
423,181,48719,1,0,0:0:0:0:
