osu file format v14

[General]
AudioFilename: audio.mp3
AudioLeadIn: 0
PreviewTime: 29834
Countdown: 0
SampleSet: None
StackLeniency: 0.7
Mode: 0
LetterboxInBreaks: 0
WidescreenStoryboard: 1

[Editor]
Bookmarks: 27242,27982
DistanceSpacing: 1.2
BeatDivisor: 4
GridSize: 8
TimelineZoom: 3.099999

[Metadata]
Title:Make a Move (Sped Up Ver.)
TitleUnicode:Make a Move (Sped Up Ver.)
Artist:Icon For Hire
ArtistUnicode:Icon For Hire
Creator:carc1nogen
Version:Expert
Source:
Tags:
BeatmapID:1780711
BeatmapSetID:851538

[Difficulty]
HPDrainRate:5.2
CircleSize:4
OverallDifficulty:8
ApproachRate:9
SliderMultiplier:1.80000000596047
SliderTickRate:1

[Events]
//Background and Video events
0,0,"hatsune-miku-rain-manga-vocaloid.jpg",0,0
//Break Periods
//Storyboard Layer 0 (Background)
//Storyboard Layer 1 (Fail)
//Storyboard Layer 2 (Pass)
//Storyboard Layer 3 (Foreground)
//Storyboard Sound Samples

[TimingPoints]
3395,296.237780191567,4,3,22,35,1,0
9319,-138.888888888889,4,3,22,52,0,0
18207,-100,4,3,22,52,0,0
18799,-111.111111111111,4,3,22,62,0,0
25909,-200,4,3,22,32,0,0
27242,-100,4,3,22,32,0,0
28279,-200,4,3,22,72,0,0
30648,-86.9565217391304,4,3,22,82,0,1
39536,-100,4,3,22,82,0,0
40128,-86.9565217391304,4,3,22,82,0,1
48719,-86.9565217391304,4,3,22,82,0,0

[Colours]
Combo1 : 255,47,47
Combo2 : 182,108,255
Combo3 : 189,236,79
Combo4 : 136,255,255
Combo5 : 255,169,83
Combo6 : 126,190,190

[HitObjects]
347,109,9319,6,0,L|369:181,1,64.8000017966082
315,294,9615,2,0,L|293:222,1,64.8000017966082
163,184,9912,2,0,L|239:174,1,64.8000017966082
267,79,10208,2,0,L|191:89,1,64.8000017966082
111,115,10504,1,0,0:0:0:0:
207,256,10652,1,0,0:0:0:0:
313,153,10800,2,0,P|280:181|280:215,1,64.8000017966082
329,285,11097,2,0,P|362:257|362:223,1,64.8000017966082
200,139,11393,1,0,0:0:0:0:
200,298,11541,1,0,0:0:0:0:
88,184,11689,2,0,P|113:227|155:228,1,64.8000017966082
265,233,11985,1,0,0:0:0:0:
239,63,12134,1,0,0:0:0:0:
381,164,12282,1,0,0:0:0:0:
373,313,12430,2,0,P|345:289|343:236,1,64.8000017966082
468,210,12726,1,0,0:0:0:0:
365,49,12874,2,0,P|324:39|294:52,1,64.8000017966082
236,152,13170,2,0,P|277:162|307:149,1,64.8000017966082
223,54,13467,2,0,P|182:44|152:57,1,64.8000017966082
87,137,13763,1,0,0:0:0:0:
141,280,13911,1,0,0:0:0:0:
39,234,14059,2,0,L|118:207,1,64.8000017966082
316,150,14355,1,0,0:0:0:0:
274,334,14503,1,0,0:0:0:0:
182,142,14652,1,0,0:0:0:0:
377,241,14800,1,0,0:0:0:0:
179,290,14948,1,0,0:0:0:0:
241,89,15096,1,0,0:0:0:0:
423,151,15244,1,0,0:0:0:0:
228,215,15392,1,0,0:0:0:0:
324,35,15540,1,0,0:0:0:0:
136,130,15688,1,0,0:0:0:0:
211,308,15836,2,0,L|297:300,1,64.8000017966082
441,210,16133,1,0,0:0:0:0:
374,337,16281,1,0,0:0:0:0:
334,182,16429,2,0,P|285:200|257:201,1,64.8000017966082
151,285,16725,2,0,P|200:303|228:304,1,64.8000017966082
391,264,17021,2,0,P|339:266|311:284,1,64.8000017966082
264,357,17318,1,0,0:0:0:0:
265,142,17466,1,0,0:0:0:0:
185,210,17614,2,0,P|241:235|281:222,1,97.2000026949123
306,214,17910,2,0,P|352:197|374:203,1,64.8000017966082
460,286,18206,1,0,0:0:0:0:
461,142,18355,2,0,P|392:95|331:92,1,129.600003593216
347,90,18651,1,0,0:0:0:0:
159,135,18799,2,0,P|156:190|175:228,1,80.9999977962974
243,354,19095,1,0,0:0:0:0:
246,168,19243,1,0,0:0:0:0:
330,322,19391,2,0,P|304:285|268:264,1,80.9999977962974
154,273,19688,1,0,0:0:0:0:
335,195,19836,1,0,0:0:0:0:
421,298,19984,2,0,P|450:264|450:228,1,80.9999977962974
359,48,20280,2,0,P|347:91|363:123,1,80.9999977962974
481,132,20576,1,0,0:0:0:0:
342,275,20724,1,0,0:0:0:0:
168,177,20873,2,0,L|258:163,1,80.9999977962974
425,207,21169,2,0,L|335:194,1,80.9999977962974
300,43,21465,2,0,L|314:136,1,80.9999977962974
268,310,21761,2,0,L|282:217,1,80.9999977962974
230,136,22057,1,0,0:0:0:0:
184,228,22206,1,0,0:0:0:0:
408,270,22354,5,0,0:0:0:0:
405,100,22502,1,0,0:0:0:0:
253,18,22650,1,0,0:0:0:0:
258,211,22798,1,0,0:0:0:0:
98,66,22946,2,0,L|196:87,1,80.9999977962974
328,116,23242,1,0,0:0:0:0:
335,281,23391,1,0,0:0:0:0:
99,211,23539,5,0,0:0:0:0:
201,107,23687,1,0,0:0:0:0:
298,202,23835,2,0,L|386:192,1,80.9999977962974
199,10,24131,5,0,0:0:0:0:
95,112,24279,1,0,0:0:0:0:
190,209,24427,2,0,L|180:297,1,80.9999977962974
364,332,24724,6,0,P|360:279|350:236,1,80.9999977962974
307,72,25020,1,0,0:0:0:0:
229,259,25168,2,0,B|281:170|163:113|216:23,1,242.999993388892
231,234,28279,5,0,0:0:0:0:
231,149,28427,1,0,0:0:0:0:
305,192,28575,1,0,0:0:0:0:
153,193,28723,5,0,0:0:0:0:
305,102,28871,1,0,0:0:0:0:
308,279,29019,1,0,0:0:0:0:
190,306,29167,5,0,0:0:0:0:
190,77,29315,1,0,0:0:0:0:
387,192,29463,1,0,0:0:0:0:
263,358,29612,5,0,0:0:0:0:
223,160,29760,1,0,0:0:0:0:
104,346,29908,1,0,0:0:0:0:
61,194,30056,2,0,L|114:175,1,45.0000001490117
299,94,30352,2,0,L|246:75,1,45.0000001490117
103,85,30648,2,0,P|170:144|206:203,1,155.250003475249
204,199,30945,1,0,0:0:0:0:
398,317,31241,2,0,L|281:341,1,103.500002316833
125,302,31537,2,0,L|242:278,1,103.500002316833
365,247,31833,2,0,P|363:142|348:92,1,155.250003475249
348,94,32130,1,0,0:0:0:0:
150,253,32426,5,0,0:0:0:0:
234,152,32574,1,0,0:0:0:0:
270,313,32722,2,0,P|258:262|214:225,1,103.500002316833
124,145,33018,5,0,0:0:0:0:
263,53,33166,1,0,0:0:0:0:
326,236,33315,2,0,L|428:224,1,103.500002316833
472,61,33611,1,0,0:0:0:0:
326,105,33759,1,0,0:0:0:0:
512,159,33907,2,0,L|408:143,1,103.500002316833
215,114,34203,5,0,0:0:0:0:
377,253,34351,1,0,0:0:0:0:
216,350,34499,2,0,P|213:248|241:195,1,155.250003475249
235,202,34796,5,0,0:0:0:0:
376,125,34944,1,0,0:0:0:0:
224,58,35092,1,0,0:0:0:0:
132,183,35240,1,0,0:0:0:0:
240,334,35388,6,0,L|125:328,1,103.500002316833
290,268,35684,2,0,L|405:262,1,103.500002316833
330,115,35981,5,0,0:0:0:0:
191,232,36129,1,0,0:0:0:0:
338,358,36277,1,0,0:0:0:0:
332,197,36425,1,0,0:0:0:0:
205,313,36573,2,0,L|318:282,1,103.500002316833
435,143,36869,2,0,L|322:112,1,103.500002316833
148,172,37166,5,0,0:0:0:0:
346,262,37314,1,0,0:0:0:0:
220,205,37462,1,0,0:0:0:0:
424,290,37610,1,0,0:0:0:0:
249,348,37758,2,0,P|282:230|332:152,1,207.000004633666
413,128,38202,5,0,0:0:0:0:
210,117,38351,1,0,0:0:0:0:
160,318,38499,1,0,0:0:0:0:
358,338,38647,1,0,0:0:0:0:
304,136,38795,1,0,0:0:0:0:
148,225,38943,2,0,P|209:242|241:269,1,103.500002316833
366,242,39239,2,0,P|305:225|273:198,1,103.500002316833
49,157,39536,6,0,P|114:149|181:118,1,135.000000447035
188,47,39832,2,0,P|249:94|249:139,1,90.0000002980235
155,300,40128,6,0,L|262:289,1,103.500002316833
393,276,40424,1,0,0:0:0:0:
307,168,40572,1,0,0:0:0:0:
132,160,40720,6,0,L|237:141,1,103.500002316833
367,117,41016,1,0,0:0:0:0:
314,244,41164,1,0,0:0:0:0:
390,357,41313,6,0,L|282:341,1,103.500002316833
124,312,41609,1,0,0:0:0:0:
236,266,41757,1,0,0:0:0:0:
413,158,41905,6,0,P|348:107|276:122,1,155.250003475249
206,126,42202,2,0,P|235:182|281:195,1,103.500002316833
410,35,42498,6,0,L|296:30,1,103.500002316833
161,22,42794,1,0,0:0:0:0:
120,178,42942,1,0,0:0:0:0:
219,293,43090,6,0,L|322:288,1,103.500002316833
441,223,43387,1,0,0:0:0:0:
90,191,43535,1,0,0:0:0:0:
340,361,43683,6,0,P|393:309|387:258,1,103.500002316833
373,99,43979,1,0,0:0:0:0:
267,241,44127,1,0,0:0:0:0:
151,68,44275,5,0,0:0:0:0:
263,155,44423,1,0,0:0:0:0:
211,155,44497,1,0,0:0:0:0:
160,155,44571,1,0,0:0:0:0:
310,324,44720,1,0,0:0:0:0:
350,291,44794,1,0,0:0:0:0:
373,252,44868,2,0,P|394:192|391:147,1,103.500002316833
316,87,45164,5,0,0:0:0:0:
242,279,45312,1,0,0:0:0:0:
82,253,45460,2,0,P|158:240|191:217,1,103.500002316833
238,101,45757,1,0,0:0:0:0:
324,174,45905,1,0,0:0:0:0:
200,17,46053,2,0,P|167:18|191:93,1,103.500002316833
250,199,46349,1,0,0:0:0:0:
91,137,46497,1,0,0:0:0:0:
99,260,46645,5,0,0:0:0:0:
221,80,46793,1,0,0:0:0:0:
379,231,46941,1,0,0:0:0:0:
268,377,47090,2,0,P|210:221|229:196,1,207.000004633666
371,77,47534,1,0,0:0:0:0:
297,226,47682,1,0,0:0:0:0:
216,98,47830,5,0,0:0:0:0:
408,181,47978,1,0,0:0:0:0:
231,315,48126,1,0,0:0:0:0:
316,134,48275,5,0,0:0:0:0:
435,310,48423,2,0,L|331:290,1,103.500002316833
176,248,48719,1,0,0:0:0:0:
