osu file format v14

[General]
AudioFilename: audio.mp3
AudioLeadIn: 0
PreviewTime: 29908
Countdown: 0
SampleSet: Soft
StackLeniency: 0.7
Mode: 3
LetterboxInBreaks: 0
SpecialStyle: 0
WidescreenStoryboard: 0

[Editor]
DistanceSpacing: 1.2
BeatDivisor: 4
GridSize: 16
TimelineZoom: 1

[Metadata]
Title:Make a Move (Sped Up & Cut Ver.)
TitleUnicode:Make a Move (Sped Up & Cut Ver.)
Artist:Icon For Hire
ArtistUnicode:Icon For Hire
Creator:MocaLoca
Version:2000s emo-rock type song
Source:
Tags:nightcore speed version and english emo hard rock pop scripted steve wilson adam kronshagen ariel bloomer shawn jump pairoxd linlime kibitz
BeatmapID:4167558
BeatmapSetID:2004024

[Difficulty]
HPDrainRate:8.5
CircleSize:4
OverallDifficulty:8.5
ApproachRate:5
SliderMultiplier:1.4
SliderTickRate:1

[Events]
//Background and Video events
0,0,"SHE IS PLAYING TRIUMPH AND REGRET.jpg",0,0
//Break Periods
//Storyboard Layer 0 (Background)
//Storyboard Layer 1 (Fail)
//Storyboard Layer 2 (Pass)
//Storyboard Layer 3 (Foreground)
//Storyboard Layer 4 (Overlay)
//Storyboard Sound Samples

[TimingPoints]
3395,296.237780191567,4,2,1,50,1,0

[HitObjects]
64,192,4431,5,0,0:0:0:0:
448,192,4431,1,0,0:0:0:0:
448,192,4728,1,0,0:0:0:0:
448,192,4876,1,0,0:0:0:0:
448,192,5024,1,0,0:0:0:0:
448,192,5172,1,0,0:0:0:0:
64,192,5172,1,0,0:0:0:0:
448,192,5468,1,0,0:0:0:0:
64,192,5468,1,0,0:0:0:0:
448,192,5764,1,0,0:0:0:0:
64,192,5838,1,0,0:0:0:0:
448,192,5913,1,0,0:0:0:0:
64,192,5987,1,0,0:0:0:0:
448,192,6061,1,0,0:0:0:0:
64,192,6135,1,0,0:0:0:0:
448,192,6209,1,0,0:0:0:0:
64,192,6283,1,0,0:0:0:0:
320,192,6357,1,0,0:0:0:0:
320,192,6505,1,0,0:0:0:0:
192,192,6801,1,0,0:0:0:0:
64,192,6949,1,0,0:0:0:0:
64,192,7097,1,0,0:0:0:0:
64,192,7246,1,0,0:0:0:0:
64,192,7394,1,0,0:0:0:0:
64,192,7542,1,0,0:0:0:0:
448,192,7542,1,0,0:0:0:0:
448,192,7838,1,0,0:0:0:0:
64,192,7838,1,0,0:0:0:0:
64,192,8134,1,0,0:0:0:0:
448,192,8134,1,0,0:0:0:0:
320,192,8431,1,0,0:0:0:0:
320,192,8727,1,0,0:0:0:0:
320,192,9023,1,0,0:0:0:0:
64,192,9319,1,0,0:0:0:0:
448,192,9319,1,0,0:0:0:0:
64,192,9467,1,0,0:0:0:0:
192,192,9615,1,0,0:0:0:0:
320,192,9615,1,0,0:0:0:0:
320,192,9764,1,0,0:0:0:0:
448,192,9764,1,0,0:0:0:0:
192,192,9912,1,0,0:0:0:0:
64,192,9912,1,0,0:0:0:0:
64,192,10060,1,0,0:0:0:0:
448,192,10060,1,0,0:0:0:0:
192,192,10208,1,0,0:0:0:0:
320,192,10208,1,0,0:0:0:0:
320,192,10356,1,0,0:0:0:0:
192,192,10504,1,0,0:0:0:0:
64,192,10504,1,0,0:0:0:0:
64,192,10652,1,0,0:0:0:0:
320,192,10652,1,0,0:0:0:0:
192,192,10800,1,0,0:0:0:0:
448,192,10800,1,0,0:0:0:0:
320,192,10949,1,0,0:0:0:0:
448,192,10949,1,0,0:0:0:0:
192,192,11097,1,0,0:0:0:0:
64,192,11097,1,0,0:0:0:0:
64,192,11245,1,0,0:0:0:0:
320,192,11393,1,0,0:0:0:0:
448,192,11393,1,0,0:0:0:0:
448,192,11541,1,0,0:0:0:0:
192,192,11689,1,0,0:0:0:0:
320,192,11689,1,0,0:0:0:0:
320,192,11837,1,0,0:0:0:0:
64,192,11837,1,0,0:0:0:0:
192,192,11985,1,0,0:0:0:0:
448,192,11985,1,0,0:0:0:0:
320,192,12134,1,0,0:0:0:0:
448,192,12134,1,0,0:0:0:0:
192,192,12282,1,0,0:0:0:0:
64,192,12282,1,0,0:0:0:0:
64,192,12430,1,0,0:0:0:0:
448,192,12430,1,0,0:0:0:0:
192,192,12578,1,0,0:0:0:0:
320,192,12578,1,0,0:0:0:0:
320,192,12726,1,0,0:0:0:0:
192,192,12874,1,0,0:0:0:0:
64,192,12874,1,0,0:0:0:0:
64,192,13022,1,0,0:0:0:0:
448,192,13022,1,0,0:0:0:0:
320,192,13170,1,0,0:0:0:0:
192,192,13170,1,0,0:0:0:0:
192,192,13318,1,0,0:0:0:0:
448,192,13318,1,0,0:0:0:0:
320,192,13467,1,0,0:0:0:0:
64,192,13467,1,0,0:0:0:0:
64,192,13615,1,0,0:0:0:0:
192,192,13763,1,0,0:0:0:0:
448,192,13763,1,0,0:0:0:0:
320,192,13837,1,0,0:0:0:0:
192,192,13911,1,0,0:0:0:0:
320,192,13985,1,0,0:0:0:0:
64,192,14059,1,0,0:0:0:0:
448,192,14059,1,0,0:0:0:0:
64,192,14207,1,0,0:0:0:0:
320,192,14207,1,0,0:0:0:0:
192,192,14355,1,0,0:0:0:0:
448,192,14355,1,0,0:0:0:0:
320,192,14503,1,0,0:0:0:0:
448,192,14503,1,0,0:0:0:0:
192,192,14652,1,0,0:0:0:0:
64,192,14652,1,0,0:0:0:0:
64,192,14800,1,0,0:0:0:0:
448,192,14800,1,0,0:0:0:0:
320,192,14948,1,0,0:0:0:0:
192,192,14948,1,0,0:0:0:0:
192,192,15096,1,0,0:0:0:0:
448,192,15096,1,0,0:0:0:0:
320,192,15244,1,0,0:0:0:0:
64,192,15244,1,0,0:0:0:0:
192,192,15392,1,0,0:0:0:0:
320,192,15392,1,0,0:0:0:0:
64,192,15540,1,0,0:0:0:0:
448,192,15540,1,0,0:0:0:0:
320,192,15688,1,0,0:0:0:0:
64,192,15688,1,0,0:0:0:0:
192,192,15836,1,0,0:0:0:0:
448,192,15836,1,0,0:0:0:0:
320,192,15985,1,0,0:0:0:0:
448,192,15985,1,0,0:0:0:0:
192,192,16133,1,0,0:0:0:0:
64,192,16133,1,0,0:0:0:0:
192,192,16281,1,0,0:0:0:0:
320,192,16281,1,0,0:0:0:0:
448,192,16429,1,0,0:0:0:0:
64,192,16429,1,0,0:0:0:0:
192,192,16577,1,0,0:0:0:0:
448,192,16577,1,0,0:0:0:0:
320,192,16725,1,0,0:0:0:0:
64,192,16725,1,0,0:0:0:0:
192,192,16873,1,0,0:0:0:0:
320,192,16873,1,0,0:0:0:0:
64,192,17021,1,0,0:0:0:0:
448,192,17021,1,0,0:0:0:0:
320,192,17170,1,0,0:0:0:0:
64,192,17170,1,0,0:0:0:0:
192,192,17318,1,0,0:0:0:0:
448,192,17318,1,0,0:0:0:0:
320,192,17466,1,0,0:0:0:0:
448,192,17466,1,0,0:0:0:0:
192,192,17614,1,0,0:0:0:0:
64,192,17614,1,0,0:0:0:0:
192,192,17762,1,0,0:0:0:0:
320,192,17910,1,0,0:0:0:0:
448,192,17910,1,0,0:0:0:0:
320,192,18058,1,0,0:0:0:0:
192,192,18058,1,0,0:0:0:0:
64,192,18206,1,0,0:0:0:0:
448,192,18206,1,0,0:0:0:0:
448,192,18429,1,0,0:0:0:0:
64,192,18429,1,0,0:0:0:0:
448,192,18651,1,0,0:0:0:0:
64,192,18651,1,0,0:0:0:0:
320,192,18799,1,0,0:0:0:0:
192,192,18799,1,0,0:0:0:0:
64,192,18799,1,0,0:0:0:0:
192,192,18947,1,0,0:0:0:0:
448,192,18947,1,0,0:0:0:0:
320,192,19095,1,0,0:0:0:0:
64,192,19095,1,0,0:0:0:0:
320,192,19243,1,0,0:0:0:0:
192,192,19391,1,0,0:0:0:0:
64,192,19391,1,0,0:0:0:0:
448,192,19391,1,0,0:0:0:0:
320,192,19539,1,0,0:0:0:0:
64,192,19539,1,0,0:0:0:0:
192,192,19688,1,0,0:0:0:0:
448,192,19688,1,0,0:0:0:0:
320,192,19836,1,0,0:0:0:0:
448,192,19836,1,0,0:0:0:0:
192,192,19984,1,0,0:0:0:0:
64,192,19984,1,0,0:0:0:0:
64,192,20132,1,0,0:0:0:0:
448,192,20132,1,0,0:0:0:0:
320,192,20280,1,0,0:0:0:0:
192,192,20280,1,0,0:0:0:0:
320,192,20428,1,0,0:0:0:0:
64,192,20576,1,0,0:0:0:0:
192,192,20576,1,0,0:0:0:0:
448,192,20576,1,0,0:0:0:0:
64,192,20724,1,0,0:0:0:0:
320,192,20873,1,0,0:0:0:0:
448,192,20873,1,0,0:0:0:0:
320,192,21021,1,0,0:0:0:0:
192,192,21021,1,0,0:0:0:0:
64,192,21169,1,0,0:0:0:0:
448,192,21169,1,0,0:0:0:0:
64,192,21317,1,0,0:0:0:0:
192,192,21465,1,0,0:0:0:0:
320,192,21465,1,0,0:0:0:0:
320,192,21613,1,0,0:0:0:0:
448,192,21613,1,0,0:0:0:0:
448,192,21761,1,0,0:0:0:0:
192,192,21761,1,0,0:0:0:0:
64,192,21761,1,0,0:0:0:0:
192,192,21909,1,0,0:0:0:0:
320,192,22057,1,0,0:0:0:0:
448,192,22057,1,0,0:0:0:0:
448,192,22206,1,0,0:0:0:0:
64,192,22206,1,0,0:0:0:0:
320,192,22354,1,0,0:0:0:0:
192,192,22354,1,0,0:0:0:0:
192,192,22502,1,0,0:0:0:0:
448,192,22502,1,0,0:0:0:0:
320,192,22650,1,0,0:0:0:0:
64,192,22650,1,0,0:0:0:0:
192,192,22798,1,0,0:0:0:0:
320,192,22798,1,0,0:0:0:0:
64,192,22946,1,0,0:0:0:0:
192,192,22946,1,0,0:0:0:0:
448,192,22946,1,0,0:0:0:0:
64,192,23094,1,0,0:0:0:0:
320,192,23242,1,0,0:0:0:0:
448,192,23242,1,0,0:0:0:0:
448,192,23391,1,0,0:0:0:0:
320,192,23539,1,0,0:0:0:0:
192,192,23539,1,0,0:0:0:0:
192,192,23687,1,0,0:0:0:0:
64,192,23687,1,0,0:0:0:0:
320,192,23835,1,0,0:0:0:0:
448,192,23835,1,0,0:0:0:0:
448,192,23983,1,0,0:0:0:0:
192,192,24131,1,0,0:0:0:0:
64,192,24131,1,0,0:0:0:0:
320,192,24131,1,0,0:0:0:0:
64,192,24279,1,0,0:0:0:0:
448,192,24279,1,0,0:0:0:0:
320,192,24427,1,0,0:0:0:0:
192,192,24427,1,0,0:0:0:0:
192,192,24576,1,0,0:0:0:0:
448,192,24576,1,0,0:0:0:0:
320,192,24724,1,0,0:0:0:0:
64,192,24724,1,0,0:0:0:0:
64,192,24872,1,0,0:0:0:0:
320,192,25020,1,0,0:0:0:0:
448,192,25020,1,0,0:0:0:0:
448,192,25168,1,0,0:0:0:0:
64,192,25168,1,0,0:0:0:0:
320,192,25316,1,0,0:0:0:0:
192,192,25316,1,0,0:0:0:0:
64,192,25316,1,0,0:0:0:0:
320,192,25464,1,0,0:0:0:0:
192,192,25612,1,0,0:0:0:0:
64,192,25612,1,0,0:0:0:0:
64,192,25760,1,0,0:0:0:0:
448,192,25760,1,0,0:0:0:0:
320,192,25909,1,0,0:0:0:0:
192,192,25909,1,0,0:0:0:0:
320,192,26057,1,0,0:0:0:0:
192,192,26057,1,0,0:0:0:0:
448,192,26205,1,0,0:0:0:0:
320,192,26353,1,0,0:0:0:0:
192,192,26353,1,0,0:0:0:0:
192,192,26501,1,0,0:0:0:0:
320,192,26501,1,0,0:0:0:0:
320,192,26649,1,0,0:0:0:0:
192,192,26649,1,0,0:0:0:0:
64,192,26797,1,0,0:0:0:0:
192,192,26945,1,0,0:0:0:0:
320,192,26945,1,0,0:0:0:0:
192,192,27094,1,0,0:0:0:0:
320,192,27094,1,0,0:0:0:0:
320,192,27242,1,0,0:0:0:0:
192,192,27242,1,0,0:0:0:0:
448,192,27390,1,0,0:0:0:0:
192,192,27686,1,0,0:0:0:0:
448,192,28278,1,0,0:0:0:0:
192,192,28278,1,0,0:0:0:0:
64,192,28278,1,0,0:0:0:0:
192,192,28427,1,0,0:0:0:0:
64,192,28427,1,0,0:0:0:0:
192,192,28575,1,0,0:0:0:0:
64,192,28575,1,0,0:0:0:0:
192,192,28723,1,0,0:0:0:0:
64,192,28723,1,0,0:0:0:0:
448,192,28723,1,0,0:0:0:0:
448,192,28871,1,0,0:0:0:0:
64,192,28871,1,0,0:0:0:0:
448,192,29019,1,0,0:0:0:0:
64,192,29019,1,0,0:0:0:0:
448,192,29167,1,0,0:0:0:0:
320,192,29167,1,0,0:0:0:0:
64,192,29167,1,0,0:0:0:0:
448,192,29315,1,0,0:0:0:0:
320,192,29315,1,0,0:0:0:0:
320,192,29463,1,0,0:0:0:0:
448,192,29463,1,0,0:0:0:0:
320,192,29612,1,0,0:0:0:0:
192,192,29612,1,0,0:0:0:0:
448,192,29612,1,0,0:0:0:0:
320,192,29760,1,0,0:0:0:0:
192,192,29760,1,0,0:0:0:0:
192,192,29908,1,0,0:0:0:0:
320,192,29908,1,0,0:0:0:0:
320,192,30056,1,0,0:0:0:0:
192,192,30056,1,0,0:0:0:0:
64,192,30056,1,0,0:0:0:0:
64,192,30204,1,0,0:0:0:0:
448,192,30352,1,0,0:0:0:0:
64,192,30500,1,0,0:0:0:0:
192,192,30648,1,0,0:0:0:0:
64,192,30648,1,0,0:0:0:0:
320,192,30648,1,0,0:0:0:0:
448,192,30648,1,0,0:0:0:0:
192,192,30796,1,0,0:0:0:0:
448,192,30796,1,0,0:0:0:0:
320,192,30945,1,0,0:0:0:0:
448,192,30945,1,0,0:0:0:0:
64,192,30945,1,0,0:0:0:0:
320,192,31093,1,0,0:0:0:0:
192,192,31093,1,0,0:0:0:0:
192,192,31241,1,0,0:0:0:0:
64,192,31241,1,0,0:0:0:0:
448,192,31241,1,0,0:0:0:0:
320,192,31241,1,0,0:0:0:0:
448,192,31389,1,0,0:0:0:0:
64,192,31389,1,0,0:0:0:0:
192,192,31389,1,0,0:0:0:0:
320,192,31537,1,0,0:0:0:0:
64,192,31537,1,0,0:0:0:0:
448,192,31537,1,0,0:0:0:0:
320,192,31685,1,0,0:0:0:0:
192,192,31685,1,0,0:0:0:0:
448,192,31685,1,0,0:0:0:0:
64,192,31685,1,0,0:0:0:0:
192,192,31833,1,0,0:0:0:0:
320,192,31833,1,0,0:0:0:0:
448,192,31833,1,0,0:0:0:0:
192,192,31981,1,0,0:0:0:0:
64,192,31981,1,0,0:0:0:0:
64,192,32130,1,0,0:0:0:0:
320,192,32130,1,0,0:0:0:0:
448,192,32130,1,0,0:0:0:0:
320,192,32278,1,0,0:0:0:0:
192,192,32278,1,0,0:0:0:0:
192,192,32426,1,0,0:0:0:0:
64,192,32426,1,0,0:0:0:0:
320,192,32426,1,0,0:0:0:0:
448,192,32426,1,0,0:0:0:0:
448,192,32574,1,0,0:0:0:0:
192,192,32574,1,0,0:0:0:0:
64,192,32574,1,0,0:0:0:0:
320,192,32722,1,0,0:0:0:0:
448,192,32722,1,0,0:0:0:0:
64,192,32722,1,0,0:0:0:0:
192,192,32870,1,0,0:0:0:0:
64,192,32870,1,0,0:0:0:0:
448,192,32944,1,0,0:0:0:0:
320,192,32944,1,0,0:0:0:0:
192,192,33018,1,0,0:0:0:0:
64,192,33018,1,0,0:0:0:0:
192,192,33166,1,0,0:0:0:0:
320,192,33166,1,0,0:0:0:0:
448,192,33166,1,0,0:0:0:0:
320,192,33315,1,0,0:0:0:0:
448,192,33315,1,0,0:0:0:0:
64,192,33315,1,0,0:0:0:0:
192,192,33463,1,0,0:0:0:0:
64,192,33463,1,0,0:0:0:0:
192,192,33611,1,0,0:0:0:0:
320,192,33611,1,0,0:0:0:0:
448,192,33611,1,0,0:0:0:0:
64,192,33611,1,0,0:0:0:0:
320,192,33759,1,0,0:0:0:0:
448,192,33759,1,0,0:0:0:0:
192,192,33759,1,0,0:0:0:0:
320,192,33907,1,0,0:0:0:0:
448,192,33907,1,0,0:0:0:0:
64,192,33907,1,0,0:0:0:0:
192,192,34055,1,0,0:0:0:0:
64,192,34055,1,0,0:0:0:0:
448,192,34055,1,0,0:0:0:0:
320,192,34055,1,0,0:0:0:0:
64,192,34203,1,0,0:0:0:0:
192,192,34203,1,0,0:0:0:0:
320,192,34203,1,0,0:0:0:0:
192,192,34351,1,0,0:0:0:0:
448,192,34351,1,0,0:0:0:0:
64,192,34351,1,0,0:0:0:0:
320,192,34499,1,0,0:0:0:0:
448,192,34499,1,0,0:0:0:0:
64,192,34499,1,0,0:0:0:0:
320,192,34648,1,0,0:0:0:0:
192,192,34648,1,0,0:0:0:0:
192,192,34796,1,0,0:0:0:0:
64,192,34796,1,0,0:0:0:0:
320,192,34796,1,0,0:0:0:0:
448,192,34796,1,0,0:0:0:0:
448,192,34944,1,0,0:0:0:0:
192,192,34944,1,0,0:0:0:0:
64,192,34944,1,0,0:0:0:0:
320,192,35092,1,0,0:0:0:0:
448,192,35092,1,0,0:0:0:0:
64,192,35092,1,0,0:0:0:0:
192,192,35240,1,0,0:0:0:0:
320,192,35240,1,0,0:0:0:0:
448,192,35240,1,0,0:0:0:0:
320,192,35388,1,0,0:0:0:0:
192,192,35388,1,0,0:0:0:0:
64,192,35388,1,0,0:0:0:0:
64,192,35536,1,0,0:0:0:0:
448,192,35536,1,0,0:0:0:0:
192,192,35684,1,0,0:0:0:0:
320,192,35684,1,0,0:0:0:0:
448,192,35684,1,0,0:0:0:0:
320,192,35833,1,0,0:0:0:0:
64,192,35833,1,0,0:0:0:0:
192,192,35981,1,0,0:0:0:0:
64,192,35981,1,0,0:0:0:0:
448,192,35981,1,0,0:0:0:0:
320,192,35981,1,0,0:0:0:0:
192,192,36129,1,0,0:0:0:0:
448,192,36129,1,0,0:0:0:0:
64,192,36129,1,0,0:0:0:0:
320,192,36277,1,0,0:0:0:0:
448,192,36277,1,0,0:0:0:0:
192,192,36277,1,0,0:0:0:0:
64,192,36425,1,0,0:0:0:0:
320,192,36425,1,0,0:0:0:0:
448,192,36425,1,0,0:0:0:0:
192,192,36425,1,0,0:0:0:0:
320,192,36573,1,0,0:0:0:0:
448,192,36573,1,0,0:0:0:0:
64,192,36573,1,0,0:0:0:0:
192,192,36721,1,0,0:0:0:0:
64,192,36721,1,0,0:0:0:0:
192,192,36869,1,0,0:0:0:0:
320,192,36869,1,0,0:0:0:0:
448,192,36869,1,0,0:0:0:0:
448,192,37017,1,0,0:0:0:0:
64,192,37017,1,0,0:0:0:0:
320,192,37166,1,0,0:0:0:0:
192,192,37166,1,0,0:0:0:0:
64,192,37166,1,0,0:0:0:0:
448,192,37166,1,0,0:0:0:0:
192,192,37314,1,0,0:0:0:0:
64,192,37314,1,0,0:0:0:0:
320,192,37314,1,0,0:0:0:0:
192,192,37462,1,0,0:0:0:0:
320,192,37462,1,0,0:0:0:0:
448,192,37462,1,0,0:0:0:0:
448,192,37610,1,0,0:0:0:0:
64,192,37610,1,0,0:0:0:0:
192,192,37758,1,0,0:0:0:0:
320,192,37758,1,0,0:0:0:0:
64,192,37758,1,0,0:0:0:0:
320,192,37906,1,0,0:0:0:0:
448,192,37906,1,0,0:0:0:0:
192,192,38054,1,0,0:0:0:0:
64,192,38054,1,0,0:0:0:0:
64,192,38202,1,0,0:0:0:0:
448,192,38202,1,0,0:0:0:0:
192,192,38351,1,0,0:0:0:0:
320,192,38351,1,0,0:0:0:0:
448,192,38351,1,0,0:0:0:0:
64,192,38351,1,0,0:0:0:0:
192,192,38499,1,0,0:0:0:0:
320,192,38499,1,0,0:0:0:0:
448,192,38647,1,0,0:0:0:0:
64,192,38647,1,0,0:0:0:0:
320,192,38795,1,0,0:0:0:0:
448,192,38795,1,0,0:0:0:0:
320,192,38943,1,0,0:0:0:0:
192,192,38943,1,0,0:0:0:0:
64,192,38943,1,0,0:0:0:0:
64,192,39091,1,0,0:0:0:0:
448,192,39091,1,0,0:0:0:0:
192,192,39239,1,0,0:0:0:0:
320,192,39239,1,0,0:0:0:0:
320,192,39387,1,0,0:0:0:0:
64,192,39387,1,0,0:0:0:0:
192,192,39536,1,0,0:0:0:0:
64,192,39536,1,0,0:0:0:0:
320,192,39536,1,0,0:0:0:0:
448,192,39536,1,0,0:0:0:0:
192,192,39758,1,0,0:0:0:0:
320,192,39758,1,0,0:0:0:0:
448,192,39758,1,0,0:0:0:0:
192,192,39980,1,0,0:0:0:0:
320,192,39980,1,0,0:0:0:0:
448,192,39980,1,0,0:0:0:0:
192,192,40128,1,0,0:0:0:0:
64,192,40128,1,0,0:0:0:0:
320,192,40128,1,0,0:0:0:0:
448,192,40128,1,0,0:0:0:0:
448,192,40276,1,0,0:0:0:0:
64,192,40276,1,0,0:0:0:0:
320,192,40424,1,0,0:0:0:0:
192,192,40424,1,0,0:0:0:0:
64,192,40424,1,0,0:0:0:0:
448,192,40424,1,0,0:0:0:0:
320,192,40572,1,0,0:0:0:0:
192,192,40572,1,0,0:0:0:0:
320,192,40720,1,0,0:0:0:0:
448,192,40720,1,0,0:0:0:0:
64,192,40720,1,0,0:0:0:0:
192,192,40869,1,0,0:0:0:0:
64,192,40869,1,0,0:0:0:0:
192,192,41017,1,0,0:0:0:0:
320,192,41017,1,0,0:0:0:0:
448,192,41017,1,0,0:0:0:0:
64,192,41017,1,0,0:0:0:0:
320,192,41165,1,0,0:0:0:0:
448,192,41165,1,0,0:0:0:0:
320,192,41313,1,0,0:0:0:0:
192,192,41313,1,0,0:0:0:0:
64,192,41313,1,0,0:0:0:0:
64,192,41461,1,0,0:0:0:0:
448,192,41461,1,0,0:0:0:0:
320,192,41609,1,0,0:0:0:0:
192,192,41609,1,0,0:0:0:0:
64,192,41609,1,0,0:0:0:0:
448,192,41609,1,0,0:0:0:0:
320,192,41757,1,0,0:0:0:0:
192,192,41757,1,0,0:0:0:0:
320,192,41905,1,0,0:0:0:0:
448,192,41905,1,0,0:0:0:0:
64,192,41905,1,0,0:0:0:0:
192,192,42054,1,0,0:0:0:0:
64,192,42054,1,0,0:0:0:0:
448,192,42054,1,0,0:0:0:0:
320,192,42202,1,0,0:0:0:0:
64,192,42202,1,0,0:0:0:0:
192,192,42202,1,0,0:0:0:0:
448,192,42202,1,0,0:0:0:0:
320,192,42350,1,0,0:0:0:0:
448,192,42350,1,0,0:0:0:0:
192,192,42350,1,0,0:0:0:0:
320,192,42498,1,0,0:0:0:0:
192,192,42498,1,0,0:0:0:0:
64,192,42498,1,0,0:0:0:0:
64,192,42646,1,0,0:0:0:0:
448,192,42646,1,0,0:0:0:0:
320,192,42794,1,0,0:0:0:0:
192,192,42794,1,0,0:0:0:0:
64,192,42794,1,0,0:0:0:0:
448,192,42794,1,0,0:0:0:0:
192,192,42942,1,0,0:0:0:0:
320,192,42942,1,0,0:0:0:0:
320,192,43090,1,0,0:0:0:0:
448,192,43090,1,0,0:0:0:0:
64,192,43090,1,0,0:0:0:0:
192,192,43238,1,0,0:0:0:0:
64,192,43238,1,0,0:0:0:0:
192,192,43387,1,0,0:0:0:0:
320,192,43387,1,0,0:0:0:0:
448,192,43387,1,0,0:0:0:0:
64,192,43387,1,0,0:0:0:0:
320,192,43535,1,0,0:0:0:0:
448,192,43535,1,0,0:0:0:0:
320,192,43683,1,0,0:0:0:0:
192,192,43683,1,0,0:0:0:0:
64,192,43683,1,0,0:0:0:0:
64,192,43831,1,0,0:0:0:0:
448,192,43831,1,0,0:0:0:0:
320,192,43979,1,0,0:0:0:0:
192,192,43979,1,0,0:0:0:0:
64,192,43979,1,0,0:0:0:0:
448,192,43979,1,0,0:0:0:0:
320,192,44127,1,0,0:0:0:0:
192,192,44127,1,0,0:0:0:0:
448,192,44127,1,0,0:0:0:0:
320,192,44275,1,0,0:0:0:0:
192,192,44275,1,0,0:0:0:0:
64,192,44275,1,0,0:0:0:0:
64,192,44423,1,0,0:0:0:0:
448,192,44423,1,0,0:0:0:0:
320,192,44497,1,0,0:0:0:0:
192,192,44497,1,0,0:0:0:0:
64,192,44572,1,0,0:0:0:0:
448,192,44572,1,0,0:0:0:0:
320,192,44720,1,0,0:0:0:0:
448,192,44720,1,0,0:0:0:0:
192,192,44794,1,0,0:0:0:0:
64,192,44794,1,0,0:0:0:0:
320,192,44868,1,0,0:0:0:0:
448,192,44868,1,0,0:0:0:0:
64,192,45016,1,0,0:0:0:0:
320,192,45016,1,0,0:0:0:0:
192,192,45164,1,0,0:0:0:0:
64,192,45164,1,0,0:0:0:0:
320,192,45164,1,0,0:0:0:0:
448,192,45164,1,0,0:0:0:0:
192,192,45312,1,0,0:0:0:0:
448,192,45312,1,0,0:0:0:0:
320,192,45460,1,0,0:0:0:0:
448,192,45460,1,0,0:0:0:0:
64,192,45460,1,0,0:0:0:0:
320,192,45608,1,0,0:0:0:0:
192,192,45608,1,0,0:0:0:0:
192,192,45757,1,0,0:0:0:0:
64,192,45757,1,0,0:0:0:0:
320,192,45757,1,0,0:0:0:0:
448,192,45757,1,0,0:0:0:0:
448,192,45905,1,0,0:0:0:0:
64,192,45905,1,0,0:0:0:0:
320,192,46053,1,0,0:0:0:0:
192,192,46053,1,0,0:0:0:0:
64,192,46053,1,0,0:0:0:0:
192,192,46201,1,0,0:0:0:0:
448,192,46201,1,0,0:0:0:0:
320,192,46349,1,0,0:0:0:0:
448,192,46349,1,0,0:0:0:0:
192,192,46349,1,0,0:0:0:0:
64,192,46349,1,0,0:0:0:0:
320,192,46497,1,0,0:0:0:0:
64,192,46497,1,0,0:0:0:0:
448,192,46497,1,0,0:0:0:0:
320,192,46645,1,0,0:0:0:0:
192,192,46645,1,0,0:0:0:0:
64,192,46645,1,0,0:0:0:0:
192,192,46793,1,0,0:0:0:0:
64,192,46793,1,0,0:0:0:0:
448,192,46793,1,0,0:0:0:0:
320,192,46941,1,0,0:0:0:0:
448,192,46941,1,0,0:0:0:0:
192,192,46941,1,0,0:0:0:0:
64,192,46941,1,0,0:0:0:0:
320,192,47090,1,0,0:0:0:0:
448,192,47090,1,0,0:0:0:0:
192,192,47090,1,0,0:0:0:0:
320,192,47238,1,0,0:0:0:0:
448,192,47238,1,0,0:0:0:0:
64,192,47238,1,0,0:0:0:0:
192,192,47386,1,0,0:0:0:0:
64,192,47386,1,0,0:0:0:0:
192,192,47534,1,0,0:0:0:0:
320,192,47534,1,0,0:0:0:0:
448,192,47534,1,0,0:0:0:0:
64,192,47534,1,0,0:0:0:0:
320,192,47682,1,0,0:0:0:0:
448,192,47682,1,0,0:0:0:0:
448,192,47830,1,0,0:0:0:0:
192,192,47830,1,0,0:0:0:0:
64,192,47830,1,0,0:0:0:0:
320,192,47830,1,0,0:0:0:0:
192,192,47978,1,0,0:0:0:0:
320,192,47978,1,0,0:0:0:0:
64,192,47978,1,0,0:0:0:0:
448,192,47978,1,0,0:0:0:0:
448,192,48126,1,0,0:0:0:0:
320,192,48126,1,0,0:0:0:0:
192,192,48126,1,0,0:0:0:0:
64,192,48126,1,0,0:0:0:0:
448,192,48275,1,0,0:0:0:0:
192,192,48275,1,0,0:0:0:0:
64,192,48275,1,0,0:0:0:0:
64,192,48423,1,0,0:0:0:0:
448,192,48423,1,0,0:0:0:0:
320,192,48423,1,0,0:0:0:0:
320,192,48571,1,0,0:0:0:0:
192,192,48571,1,0,0:0:0:0:
64,192,48571,1,0,0:0:0:0:
192,192,48719,1,0,0:0:0:0:
64,192,48719,1,0,0:0:0:0:
320,192,48719,1,0,0:0:0:0:
448,192,48719,1,0,0:0:0:0:
