osu file format v14

[General]
AudioFilename: please.mp3
AudioLeadIn: 0
PreviewTime: 147720
Countdown: 0
SampleSet: Soft
StackLeniency: 0.7
Mode: 0
LetterboxInBreaks: 0
WidescreenStoryboard: 1

[Editor]
Bookmarks: 12720,24286,38745,50310,61876,73443,87900,99467,111033,122419,144286,148623,160190,167419,171756
DistanceSpacing: 1.2
BeatDivisor: 4
GridSize: 4
TimelineZoom: 1.300001

[Metadata]
Title:Make A Move
TitleUnicode:Make A Move
Artist:Icon For Hire
ArtistUnicode:Icon For Hire
Creator:wajinshu
Version:Normal
Source:
Tags:Shmiklak FCL Maakkeli mkl scripted rock punk pop alternative
BeatmapID:1082600
BeatmapSetID:506483

[Difficulty]
HPDrainRate:4
CircleSize:3.5
OverallDifficulty:4
ApproachRate:5
SliderMultiplier:1.3
SliderTickRate:1

[Events]
//Background and Video events
0,0,"V6tKIOwgj0s.jpg",0,0
//Break Periods
2,73443,80917
2,122618,130074
2,137257,141640
//Storyboard Layer 0 (Background)
//Storyboard Layer 1 (Fail)
//Storyboard Layer 2 (Pass)
//Storyboard Layer 3 (Foreground)
//Storyboard Sound Samples

[TimingPoints]
1154,361.44578313253,4,2,1,60,1,0
12720,-105.263157894737,4,3,1,60,0,0
15611,-105.263157894737,4,3,2,60,0,0
15702,-105.263157894737,4,3,1,60,0,0
24286,-100,4,3,1,60,0,0
32961,-100,4,3,1,30,0,0
35852,-100,4,2,1,60,0,0
38744,-100,4,2,1,60,0,1
44527,-100,4,2,2,60,0,1
44617,-100,4,2,1,60,0,1
49587,-100,4,2,1,60,0,0
50310,-100,4,2,1,60,0,1
61153,-100,4,2,1,60,0,0
61876,-105.263157894737,4,3,1,60,0,0
72720,-100,4,3,1,60,0,0
82117,-100,4,2,1,60,0,0
87900,-100,4,2,1,60,0,1
93684,-100,4,2,2,60,0,1
93774,-100,4,2,1,60,0,1
98744,-100,4,2,1,60,0,0
99467,-100,4,2,1,60,0,1
110310,-100,4,2,1,60,0,0
111033,-100,4,3,1,60,0,0
122419,-100,4,3,1,60,0,0
131274,-100,4,3,1,60,0,0
135250,-100,4,3,1,50,0,0
136334,-100,4,3,1,40,0,0
137057,-100,4,3,1,30,0,0
142840,-100,4,3,1,60,0,0
145551,-100,4,3,1,60,0,0
148081,-100,4,2,1,60,0,0
148623,-100,4,2,1,60,0,1
154407,-100,4,2,2,60,0,1
154497,-100,4,2,1,60,0,1
157298,-100,4,3,1,60,0,1
158744,-100,4,2,1,60,0,1
159467,-100,4,2,1,60,0,0
160190,-100,4,2,1,60,0,1
171033,-100,4,2,1,60,0,0
171756,-100,4,2,1,60,0,0
182238,-100,4,2,1,60,0,0

[Colours]
Combo1 : 87,87,87
Combo2 : 0,64,64
Combo3 : 0,74,166
Combo4 : 158,10,32

[HitObjects]
346,269,12720,6,0,P|377:277|468:269,2,123.499996702194,2|2|2,0:0|0:0|3:0,0:0:0:0:
209,210,13805,1,2,0:0:0:0:
267,74,14166,2,0,P|236:66|145:74,2,123.499996702194,2|2|2,0:0|0:0|3:0,0:0:0:0:
399,144,15250,1,2,0:0:0:0:
270,216,15611,6,0,P|239:210|198:210,2,61.7499983510972,2|0|2,0:2|0:0|0:0,0:0:0:0:
170,326,16334,2,0,L|33:329,1,123.499996702194,2|2,3:0|0:0,0:0:0:0:
96,188,17057,2,0,B|105:125|105:125|90:51,1,123.499996702194,2|2,0:0|0:0,0:0:0:0:
241,53,17781,1,2,3:0:0:0:
317,179,18142,1,2,0:0:0:0:
370,316,18503,6,0,B|307:325|307:325|233:310,2,123.499996702194,2|2|2,0:0|0:0|3:0,0:0:0:0:
504,252,19588,1,2,0:0:0:0:
375,178,19949,2,0,L|238:180,1,123.499996702194,2|2,0:0|0:0,0:0:0:0:
103,172,20672,2,0,B|90:110|90:110|110:46,1,123.499996702194,2|2,3:0|0:0,0:0:0:0:
252,18,21395,5,2,0:0:0:0:
392,65,21757,1,2,0:0:0:0:
380,212,22118,1,2,3:0:0:0:
234,246,22479,1,2,0:0:0:0:
274,104,22840,2,0,L|414:115,1,123.499996702194,2|2,0:0|0:0,0:0:0:0:
470,127,23382,1,0,0:0:0:0:
464,201,23563,2,0,P|472:248|443:298,2,92.6249975266457,4|4|4,3:0|3:0|3:0,0:0:0:0:
394,236,24286,6,0,L|248:233,1,130,4|2,0:0|0:2,0:0:0:0:
159,349,25009,2,0,L|13:346,1,130,8|2,0:0|0:2,0:0:0:0:
16,269,25551,1,0,0:0:0:0:
67,210,25732,2,0,L|58:142,2,65,0|0|2,3:0|3:0|0:2,0:0:0:0:
213,265,26455,1,8,0:0:0:0:
274,121,26816,1,2,0:2:0:0:
382,8,27178,6,0,L|377:139,1,130,0|2,0:0|0:2,0:0:0:0:
368,219,27720,1,0,0:0:0:0:
368,219,27900,2,0,B|425:208|425:208|498:218,1,130,8|2,0:0|0:2,0:0:0:0:
422,355,28623,2,0,L|495:355,2,65,0|0|2,3:0|3:0|0:2,0:0:0:0:
350,321,29166,1,0,0:0:0:0:
350,321,29346,2,0,B|291:309|291:309|215:325,1,130,8|2,0:0|0:2,0:0:0:0:
69,351,30069,6,0,P|38:353|0:350,2,65,0|0|2,0:0|0:0|0:2,0:0:0:0:
162,225,30792,2,0,P|167:172|152:93,1,130,8|2,0:0|0:2,0:0:0:0:
109,32,31334,1,0,0:0:0:0:
109,32,31515,2,0,P|175:22|226:64,1,130,0|2,0:0|0:2,0:0:0:0:
292,197,32238,2,0,L|431:191,1,130,8|2,0:0|0:2,0:0:0:0:
256,192,32961,12,0,34587,0:0:0:0:
189,108,35852,6,0,B|225:94|225:94|339:113,1,130,8|0,0:0|0:0,0:0:0:0:
379,153,36394,2,0,B|393:189|393:189|381:297,1,130,8|0,0:0|0:0,0:0:0:0:
322,329,36937,2,0,B|286:343|286:343|192:335,1,130,8|0,0:0|0:0,0:0:0:0:
132,288,37479,2,0,B|118:252|118:252|130:140,1,130,8|0,0:0|0:0,0:0:0:0:
157,88,38021,1,8,0:0:0:0:
157,88,38744,6,0,P|209:83|248:83,1,65,4|0,0:0|0:0,0:0:0:0:
287,124,39105,1,4,0:0:0:0:
432,66,39467,2,0,L|420:205,1,130,8|0,0:0|0:0,0:0:0:0:
378,262,40009,1,8,0:0:0:0:
378,262,40190,2,0,P|337:264|295:260,1,65,4|0,0:0|0:0,0:0:0:0:
246,222,40551,1,4,0:0:0:0:
91,206,40913,2,0,P|76:264|98:333,1,130,8|0,0:0|0:0,0:0:0:0:
168,357,41455,1,8,0:0:0:0:
238,336,41635,6,0,P|287:332|311:335,2,65,4|0|0,0:0|0:0|0:0,0:0:0:0:
155,203,42358,2,0,P|106:207|82:204,2,65,8|0|0,0:0|0:0|0:0,0:0:0:0:
217,156,42900,1,8,0:0:0:0:
284,116,43081,2,0,B|336:105|336:105|426:115,1,130,4|0,0:0|0:0,0:0:0:0:
468,259,43804,2,0,P|505:208|505:142,1,130,8|0,0:0|0:0,0:0:0:0:
398,28,44527,6,0,L|327:21,1,65,6|0,0:0|0:0,0:0:0:0:
267,63,44888,1,4,0:0:0:0:
114,26,45250,2,0,P|114:106|108:162,1,130,8|0,0:0|0:0,0:0:0:0:
67,222,45792,1,8,0:0:0:0:
67,222,45973,2,0,P|113:215|147:221,1,65,4|0,0:0|0:0,0:0:0:0:
202,244,46334,1,4,0:0:0:0:
352,285,46696,2,0,L|346:213,2,65,8|0|0,0:0|0:0|0:0,0:0:0:0:
270,151,47419,6,0,P|325:117|393:128,1,130,2|2,3:0|3:0,0:0:0:0:
270,228,48141,2,0,P|215:207|199:126,1,130,2|2,3:0|3:0,0:0:0:0:
341,196,48864,2,0,P|340:262|289:303,1,130,2|2,3:0|3:0,0:0:0:0:
148,246,49587,2,0,L|155:347,2,97.5,0|0|0,1:0|1:0|1:0,0:0:0:0:
92,190,50310,6,0,B|135:169|135:169|216:179,1,130,4|8,0:0|0:0,0:0:0:0:
349,261,51033,2,0,B|306:282|306:282|225:272,1,130,0|8,0:0|0:0,0:0:0:0:
351,180,51756,2,0,B|394:159|394:159|475:169,1,130,0|8,0:0|0:0,0:0:0:0:
349,261,52479,2,0,P|292:235|275:153,1,130,0|8,0:0|0:0,0:0:0:0:
419,236,53202,6,0,P|420:286|359:336,1,130,0|8,0:0|0:0,0:0:0:0:
353,179,53925,2,0,P|399:151|473:168,1,130,0|8,0:0|0:0,0:0:0:0:
349,261,54647,2,0,P|276:263|212:262,1,130,0|8,0:0|0:0,0:0:0:0:
66,230,55370,2,0,P|73:308|67:339,2,97.5,4|8|0,3:0|3:0|3:0,0:0:0:0:
46,154,56093,6,0,L|181:132,1,130,4|8,0:0|0:0,0:0:0:0:
315,199,56816,2,0,L|185:222,1,130,0|8,0:0|0:0,0:0:0:0:
70,326,57539,2,0,L|201:302,1,130,0|8,0:0|0:0,0:0:0:0:
315,199,58262,2,0,B|325:132|325:132|308:72,1,130,0|8,0:0|0:0,0:0:0:0:
184,176,58985,6,0,B|176:237|176:237|196:302,1,130,0|8,0:0|0:0,0:0:0:0:
344,353,59708,2,0,L|359:277,1,65,0|0,0:0|0:0,0:0:0:0:
421,245,60069,2,0,L|434:171,1,65,8|0,0:0|0:0,0:0:0:0:
399,109,60431,2,0,B|344:116|344:116|265:107,2,130,0|0|8,3:0|3:0|1:2,0:0:0:0:
399,109,61876,6,0,L|402:255,2,123.499996702194,4|10|0,3:0|0:2|0:0,0:0:0:0:
280,18,62961,1,10,0:2:0:0:
172,119,63322,2,0,L|173:244,1,123.499996702194,0|10,0:0|0:2,0:0:0:0:
214,304,63864,2,0,P|156:315|105:273,1,123.499996702194,0|0,0:0|0:0,0:0:0:0:
62,218,64407,1,10,0:2:0:0:
172,119,64768,6,0,P|170:75|166:50,2,61.7499983510972,0|0|10,0:0|0:0|0:2,0:0:0:0:
303,188,65491,2,0,P|301:144|297:119,2,61.7499983510972,0|0|10,0:0|0:0|0:2,0:0:0:0:
415,284,66214,2,0,P|413:240|409:215,2,61.7499983510972,0|0|10,0:0|0:0|0:2,0:0:0:0:
268,271,66937,1,0,0:0:0:0:
298,126,67298,1,10,0:2:0:0:
193,231,67660,6,0,P|187:297|229:346,2,123.499996702194,0|10|0,0:0|0:2|0:0,0:0:0:0:
339,254,68744,1,10,0:2:0:0:
244,139,69105,2,0,B|186:128|186:128|113:152,1,123.499996702194,0|10,0:0|0:2,0:0:0:0:
89,213,69647,2,0,P|57:181|68:98,1,123.499996702194,0|0,0:0|0:0,0:0:0:0:
108,49,70190,1,10,0:2:0:0:
252,18,70551,5,0,0:0:0:0:
392,65,70913,1,10,0:2:0:0:
255,122,71274,1,0,0:0:0:0:
387,188,71635,1,10,0:2:0:0:
271,281,71997,2,0,P|213:290|146:284,1,123.499996702194,0|8,0:0|0:0,0:0:0:0:
43,169,72720,5,8,3:2:0:0:
357,303,82117,6,0,B|295:289|295:289|213:310,1,130,4|8,0:0|0:0,0:0:0:0:
184,157,82840,2,0,B|246:171|246:171|328:150,1,130,8|8,0:0|0:0,0:0:0:0:
463,185,83563,2,0,B|444:226|444:226|441:318,1,130,8|0,0:0|0:0,0:0:0:0:
368,338,84105,2,0,B|324:345|324:345|235:330,1,130,8|2,0:0|3:0,0:0:0:0:
177,283,84647,1,2,3:0:0:0:
60,178,85009,6,0,P|105:139|195:139,1,130,2|0,3:0|0:0,0:0:0:0:
234,179,85551,2,0,P|290:198|373:164,1,130,2|0,3:0|0:0,0:0:0:0:
409,122,86093,1,2,3:0:0:0:
264,63,86455,2,0,P|268:25|264:-14,2,65,4|0|8,3:0|0:0|3:0,0:0:0:0:
198,105,86997,1,8,3:0:0:0:
125,133,87178,2,0,P|98:152|72:185,1,65,8|8,3:0|3:0,0:0:0:0:
12,219,87539,1,4,3:0:0:0:
135,314,87900,6,0,P|187:319|226:319,1,65,4|0,0:0|0:0,0:0:0:0:
265,276,88262,1,4,0:0:0:0:
412,326,88623,2,0,L|400:187,1,130,8|0,0:0|0:0,0:0:0:0:
378,122,89166,1,8,0:0:0:0:
378,122,89346,6,0,P|337:126|295:124,1,65,4|0,0:0|0:0,0:0:0:0:
235,125,89707,1,4,0:0:0:0:
91,178,90069,2,0,P|76:120|98:51,1,130,8|0,0:0|0:0,0:0:0:0:
168,27,90611,1,8,0:0:0:0:
242,50,90791,2,0,P|291:54|315:51,2,65,4|0|0,0:0|0:0|0:0,0:0:0:0:
155,181,91514,6,0,P|106:177|82:180,2,65,8|0|0,0:0|0:0|0:0,0:0:0:0:
217,228,92056,1,8,0:0:0:0:
284,268,92237,2,0,B|336:279|336:279|426:269,1,130,4|0,0:0|0:0,0:0:0:0:
468,125,92960,2,0,P|505:176|505:242,1,130,8|0,0:0|0:0,0:0:0:0:
398,356,93683,6,0,L|327:363,1,65,6|0,0:0|0:0,0:0:0:0:
266,321,94045,1,4,0:0:0:0:
114,358,94406,2,0,P|114:278|108:222,1,130,8|0,0:0|0:0,0:0:0:0:
65,163,94948,1,8,0:0:0:0:
65,163,95129,2,0,P|111:170|145:164,1,65,4|0,0:0|0:0,0:0:0:0:
202,140,95490,1,4,0:0:0:0:
352,99,95852,2,0,L|346:171,2,65,8|0|0,0:0|0:0|0:0,0:0:0:0:
270,233,96575,6,0,P|325:267|393:256,1,130,2|2,3:0|3:0,0:0:0:0:
270,156,97298,2,0,P|215:177|199:258,1,130,8|2,0:0|3:0,0:0:0:0:
341,188,98021,2,0,P|340:122|289:81,1,130,2|2,3:0|3:0,0:0:0:0:
148,138,98743,2,0,L|155:37,2,97.5,0|0|0,1:0|1:0|1:0,0:0:0:0:
92,194,99466,6,0,B|135:215|135:215|216:205,1,130,4|8,0:0|0:0,0:0:0:0:
349,123,100189,2,0,B|306:102|306:102|225:112,1,130,0|8,0:0|0:0,0:0:0:0:
351,204,100912,2,0,B|394:225|394:225|475:215,1,130,0|8,0:0|0:0,0:0:0:0:
349,123,101635,2,0,P|292:149|275:231,1,130,0|8,0:0|0:0,0:0:0:0:
419,148,102358,6,0,P|420:98|359:48,1,130,0|8,0:0|0:0,0:0:0:0:
353,205,103081,2,0,P|399:233|473:216,1,130,0|8,0:0|0:0,0:0:0:0:
349,123,103804,2,0,P|276:121|212:122,1,130,0|8,0:0|0:0,0:0:0:0:
66,154,104526,2,0,P|73:76|67:45,2,97.5,0|8|0,0:0|3:0|3:0,0:0:0:0:
46,230,105249,6,0,L|181:252,1,130,4|8,0:0|0:0,0:0:0:0:
315,185,105972,2,0,L|185:162,1,130,0|8,0:0|0:0,0:0:0:0:
70,58,106695,2,0,L|201:82,1,130,0|8,0:0|0:0,0:0:0:0:
315,185,107418,2,0,B|325:252|325:252|308:312,1,130,0|8,0:0|0:0,0:0:0:0:
184,208,108141,6,0,B|176:147|176:147|196:82,1,130,0|8,0:0|0:0,0:0:0:0:
344,31,108864,2,0,L|359:107,1,65,0|0,0:0|0:0,0:0:0:0:
421,139,109226,2,0,L|434:213,1,65,8|0,0:0|0:0,0:0:0:0:
399,275,109587,2,0,B|344:268|344:268|265:277,2,130,0|8|4,0:0|0:0|3:0,0:0:0:0:
399,275,111033,6,0,B|406:220|406:220|397:153,2,97.5,4|2|2,3:0|0:0|0:0,0:0:0:0:
345,331,111756,2,0,B|290:338|290:338|248:332,2,97.5,8|0|0,0:0|0:0|0:0,0:0:0:0:
399,275,112479,2,0,B|438:314|438:314|472:372,2,97.5,4|2|2,0:0|0:0|0:0,0:0:0:0:
328,241,113202,2,0,P|246:244|179:233,1,130,8|0,2:0|0:0,0:0:0:0:
106,111,113925,6,0,P|98:168|111:221,2,97.5,4|2|2,0:0|0:0|0:0,0:0:0:0:
114,33,114647,2,0,P|57:25|9:39,2,97.5,8|0|0,2:0|0:0|0:0,0:0:0:0:
184,67,115370,2,0,P|241:75|290:62,2,97.5,4|2|2,0:0|0:0|0:0,0:0:0:0:
114,33,116093,2,0,P|96:128|103:178,1,130,8|0,2:0|0:0,0:0:0:0:
253,181,116816,6,0,L|360:167,2,97.5,4|2|2,0:0|0:0|0:0,0:0:0:0:
239,258,117539,2,0,L|346:244,2,97.5,8|0|0,2:0|0:0|0:0,0:0:0:0:
205,328,118262,2,0,L|108:340,2,97.5,4|2|2,0:0|0:0|0:0,0:0:0:0:
239,258,118985,2,0,P|220:199|221:119,1,130,8|0,2:0|0:0,0:0:0:0:
365,76,119708,6,0,P|412:80|465:76,2,97.5,8|2|2,2:0|0:0|0:0,0:0:0:0:
289,61,120431,1,8,2:0:0:0:
137,26,120792,1,0,0:0:0:0:
105,178,121153,2,0,P|110:209|121:240,2,65,8|8|8,2:0|2:0|0:0,0:0:0:0:
260,163,121876,2,0,L|372:156,2,97.5,2|0|4,0:0|0:0|2:0,0:0:0:0:
232,128,131274,6,0,L|104:112,2,97.5,2|0|0,0:0|0:0|0:0,0:0:0:0:
308,144,131997,1,8,2:0:0:0:
460,176,132358,1,0,0:0:0:0:
344,280,132720,1,0,0:0:0:0:
392,132,133081,2,0,L|440:80,2,65,2|4|12,0:0|0:0|0:0,0:0:0:0:
348,196,133623,1,12,0:0:0:0:
276,228,133804,2,0,P|232:224|204:224,1,65,6|2,0:0|0:0,0:0:0:0:
256,192,134166,12,0,137057,0:0:0:0:
353,198,142840,6,0,L|361:272,1,65,4|4,0:0|0:0,0:0:0:0:
413,319,143202,1,4,0:0:0:0:
87,155,144286,2,0,L|80:90,1,65,4|4,0:0|0:0,0:0:0:0:
26,33,144648,1,4,0:0:0:0:
386,331,145732,6,0,P|408:271|381:214,1,130,8|2,0:2|0:0,0:0:0:0:
330,275,146274,2,0,P|270:302|201:265,1,130,8|2,0:2|0:0,0:0:0:0:
270,223,146816,2,0,L|270:93,1,130,8|2,0:2|0:0,0:0:0:0:
204,50,147358,1,4,3:0:0:0:
437,72,147900,1,4,0:0:0:0:
437,72,148081,2,0,B|453:117|453:117|454:151|454:151|478:221,1,130,0|0,1:0|1:0,0:0:0:0:
419,256,148623,6,0,L|345:271,1,65,4|0,0:0|0:0,0:0:0:0:
295,217,148985,1,12,0:0:0:0:
169,308,149346,2,0,P|143:271|165:189,1,130,0|8,0:0|0:0,0:0:0:0:
302,126,150069,1,4,0:0:0:0:
422,26,150430,1,12,0:0:0:0:
267,49,150792,2,0,L|121:61,1,130,0|8,0:0|0:0,0:0:0:0:
62,78,151334,1,0,0:0:0:0:
109,140,151515,6,0,P|127:177|138:211,2,65,4|0|8,0:0|0:0|0:0,0:0:0:0:
244,217,152238,2,0,P|262:254|273:288,2,65,0|0|8,0:0|0:0|0:0,0:0:0:0:
200,66,152961,2,0,B|263:76|263:76|337:58,1,130,4|8,0:0|0:0,0:0:0:0:
473,5,153684,1,0,0:0:0:0:
506,157,154045,1,0,1:0:0:0:
412,281,154407,6,0,P|366:290|327:293,1,65,6|0,0:0|0:0,0:0:0:0:
277,258,154768,1,12,0:0:0:0:
219,113,155129,2,0,L|358:114,1,130,0|8,0:0|0:0,0:0:0:0:
462,220,155852,1,4,0:0:0:0:
425,67,156214,1,12,0:0:0:0:
276,113,156575,2,0,L|292:200,2,65,0|0|8,0:0|0:0|0:0,0:0:0:0:
129,166,157298,6,0,B|142:235|142:235|121:306,1,130,2|2,0:0|0:0,0:0:0:0:
54,152,158021,2,0,P|83:103|163:96,1,130,2|2,0:0|0:0,0:0:0:0:
259,203,158744,2,0,L|253:59,1,130,2|2,3:0|3:0,0:0:0:0:
364,182,159467,2,0,L|356:70,2,97.5,4|4|0,3:0|3:0|1:0,0:0:0:0:
368,259,160190,6,0,P|413:243|438:161,1,130,4|8,0:0|0:0,0:0:0:0:
418,15,160913,2,0,P|355:3|277:31,1,130,0|8,0:0|0:0,0:0:0:0:
206,150,161635,2,0,L|206:293,1,130,0|8,0:0|0:0,0:0:0:0:
129,143,162358,2,0,P|143:102|190:74,2,97.5,0|0|0,0:0|0:0|0:0,0:0:0:0:
108,218,163081,6,0,P|71:196|59:109,1,130,0|8,0:0|0:0,0:0:0:0:
206,150,163804,2,0,B|278:148|348:167,1,130,0|8,0:0|0:0,0:0:0:0:
373,315,164527,2,0,B|301:317|231:298,1,130,0|8,0:0|0:0,0:0:0:0:
118,209,165250,2,0,P|98:252|106:299,2,97.5,0|8|0,0:0|3:0|3:0,0:0:0:0:
168,149,165973,6,0,B|125:131|125:131|39:144,1,130,4|8,0:0|0:0,0:0:0:0:
175,61,166696,2,0,B|218:79|218:79|300:66,1,130,0|8,0:0|0:0,0:0:0:0:
410,176,167419,2,0,B|367:158|367:158|281:171,1,130,0|8,0:0|0:0,0:0:0:0:
175,282,168141,2,0,B|218:264|218:264|304:277,1,130,0|8,0:0|0:0,0:0:0:0:
456,263,168864,6,0,P|477:302|446:383,1,130,0|8,0:0|0:0,0:0:0:0:
371,244,169587,2,0,P|390:207|414:186,1,65,0|0,0:0|0:0,0:0:0:0:
483,174,169949,2,0,P|464:137|440:116,1,65,8|0,0:0|0:0,0:0:0:0:
380,80,170310,2,0,B|328:64|328:64|246:78,1,130,0|8,0:0|0:0,0:0:0:0:
148,192,171033,2,0,P|97:202|28:186,2,97.5,4|0|8,3:0|0:0|3:0,0:0:0:0:
220,163,171756,6,0,P|281:160|364:157,1,130,4|0,0:0|0:0,0:0:0:0:
472,253,172479,2,0,P|443:189|448:117,1,130,8|0,0:0|0:0,0:0:0:0:
341,248,173202,2,0,P|276:250|211:253,1,130,0|0,0:0|0:0,0:0:0:0:
112,132,173925,2,0,P|90:85|97:31,2,97.5,8|0|0,0:0|0:0|0:0,0:0:0:0:
179,171,174647,6,0,P|243:168|308:165,1,130,0|0,0:0|0:0,0:0:0:0:
459,122,175370,2,0,B|472:177|472:177|454:252,1,130,8|0,0:0|0:0,0:0:0:0:
304,291,176093,2,0,B|291:236|291:236|309:161,1,130,0|0,0:0|0:0,0:0:0:0:
417,53,176816,2,0,P|468:60|515:47,2,97.5,8|0|0,0:0|0:0|0:0,0:0:0:0:
342,29,177539,6,0,L|195:33,1,130,4|0,0:0|0:0,0:0:0:0:
188,186,178262,2,0,P|144:168|68:208,1,130,8|0,0:0|0:0,0:0:0:0:
199,291,178985,2,0,L|335:285,1,130,0|0,0:0|0:0,0:0:0:0:
463,205,179708,2,0,L|469:138,2,65,8|0|0,0:0|0:0|0:0,0:0:0:0:
365,82,180431,6,0,P|414:31|489:27,1,130,0|0,0:0|0:0,0:0:0:0:
389,155,181153,2,0,L|314:164,1,65,8|8,0:0|3:0,0:0:0:0:
255,125,181515,2,0,L|172:123,1,65,8|8,0:0|3:0,0:0:0:0:
112,112,181876,2,0,P|118:164|118:194,2,65,4|8|8,3:0|3:0|0:0,0:0:0:0:
