osu file format v14

[General]
AudioFilename: please.mp3
AudioLeadIn: 0
PreviewTime: 147720
Countdown: 0
SampleSet: Soft
StackLeniency: 0.7
Mode: 0
LetterboxInBreaks: 0
WidescreenStoryboard: 1

[Editor]
Bookmarks: 12720,24286,38021,38745,61876,73443,85009,87900,111033,121153,134166,142840,148623
DistanceSpacing: 1.1
BeatDivisor: 4
GridSize: 4
TimelineZoom: 1.600002

[Metadata]
Title:Make A Move
TitleUnicode:Make A Move
Artist:Icon For Hire
ArtistUnicode:Icon For Hire
Creator:wajinshu
Version:Hard
Source:
Tags:Shmiklak FCL Maakkeli mkl scripted rock punk pop alternative
BeatmapID:1077369
BeatmapSetID:506483

[Difficulty]
HPDrainRate:5
CircleSize:4
OverallDifficulty:7
ApproachRate:8
SliderMultiplier:1.4
SliderTickRate:1

[Events]
//Background and Video events
0,0,"V6tKIOwgj0s.jpg",0,0
//Break Periods
2,73443,81367
2,122619,130524
2,137257,142089
//Storyboard Layer 0 (Background)
//Storyboard Layer 1 (Fail)
//Storyboard Layer 2 (Pass)
//Storyboard Layer 3 (Foreground)
//Storyboard Sound Samples

[TimingPoints]
1154,361.44578313253,4,2,1,100,1,0
12720,-111.111111111111,4,3,1,60,0,0
15611,-111.111111111111,4,3,2,60,0,0
15702,-111.111111111111,4,3,1,60,0,0
24286,-100,4,3,1,60,0,0
32961,-100,4,3,1,30,0,0
35852,-100,4,2,1,60,0,0
38744,-100,4,2,1,60,0,1
44527,-100,4,2,2,60,0,1
44617,-100,4,2,1,60,0,1
49587,-100,4,2,1,60,0,0
50310,-100,4,2,1,60,0,1
61153,-100,4,2,1,60,0,0
61876,-100,4,3,1,60,0,0
64045,-100,4,3,1,60,0,0
72720,-100,4,3,1,60,0,0
82117,-100,4,2,1,60,0,0
85009,-100,4,2,1,60,0,0
85551,-100,4,2,1,60,0,0
86093,-100,4,2,1,60,0,0
87900,-100,4,2,1,60,0,1
93684,-100,4,2,2,60,0,1
93774,-100,4,2,1,60,0,1
98744,-100,4,2,1,60,0,0
99467,-100,4,2,1,60,0,1
110310,-100,4,2,1,60,0,0
111033,-100,4,3,1,60,0,0
131274,-100,4,3,1,60,0,0
135250,-100,4,3,1,50,0,0
136334,-100,4,3,1,40,0,0
137057,-100,4,3,1,30,0,0
142840,-100,4,3,1,100,0,0
145732,-100,4,3,1,60,0,0
148081,-100,4,2,1,60,0,0
148623,-100,4,2,1,60,0,1
154407,-100,4,2,2,60,0,1
154497,-100,4,2,1,60,0,1
157298,-100,4,3,1,60,0,1
158744,-100,4,2,1,60,0,1
159467,-100,4,2,1,60,0,0
160190,-100,4,2,1,60,0,1
171033,-100,4,2,1,60,0,0
171756,-100,4,2,1,60,0,0
182238,-100,4,2,1,60,0,0

[Colours]
Combo1 : 87,87,87
Combo2 : 0,64,64
Combo3 : 0,74,166
Combo4 : 158,10,32

[HitObjects]
420,81,12720,6,0,L|427:155,1,62.9999980773926,2|0,0:0|0:0,0:0:0:0:
372,221,13081,2,0,L|377:303,1,62.9999980773926,2|0,0:0|0:0,0:0:0:0:
320,361,13443,2,0,P|368:379|405:376,2,62.9999980773926,2|0|2,3:0|0:0|0:0,0:0:0:0:
252,295,13985,1,0,0:0:0:0:
168,249,14166,6,0,P|121:247|83:250,1,62.9999980773926,2|0,0:0|0:0,0:0:0:0:
104,342,14527,2,0,P|135:342|166:340,1,62.9999980773926,2|0,0:0|0:0,0:0:0:0:
252,295,14888,2,0,L|248:156,1,125.999996154785,2|2,3:0|0:0,0:0:0:0:
252,131,15611,6,0,L|340:121,1,62.9999980773926,2|0,0:2|0:0,0:0:0:0:
360,40,15973,2,0,L|297:47,1,62.9999980773926,2|0,0:0|0:0,0:0:0:0:
205,69,16334,2,0,P|205:26|216:-5,2,62.9999980773926,2|0|2,3:0|0:0|0:0,0:0:0:0:
254,149,16876,1,0,0:0:0:0:
314,221,17057,6,0,P|314:262|309:287,1,62.9999980773926,2|0,0:0|0:0,0:0:0:0:
216,301,17419,2,0,P|216:260|221:235,1,62.9999980773926,2|0,0:0|0:0,0:0:0:0:
254,149,17780,2,0,P|307:124|380:160,1,125.999996154785,2|2,3:0|0:0,0:0:0:0:
420,223,18322,1,0,0:0:0:0:
359,295,18503,6,0,L|286:302,1,62.9999980773926,2|0,0:0|0:0,0:0:0:0:
207,268,18864,2,0,L|134:275,1,62.9999980773926,2|0,0:0|0:0,0:0:0:0:
49,278,19226,2,0,P|62:324|81:346,2,62.9999980773926,2|0|2,3:0|0:0|0:0,0:0:0:0:
72,186,19768,1,0,0:0:0:0:
155,141,19949,6,0,P|216:139|240:142,1,62.9999980773926,2|0,0:0|0:0,0:0:0:0:
301,184,20310,2,0,P|362:186|386:183,1,62.9999980773926,2|0,0:0|0:0,0:0:0:0:
446,138,20672,2,0,L|441:270,1,125.999996154785,2|2,3:0|0:0,0:0:0:0:
422,296,21394,6,0,P|365:296|344:294,1,62.9999980773926,2|0,0:0|0:0,0:0:0:0:
284,236,21756,2,0,P|252:234|221:235,1,62.9999980773926,2|0,0:0|0:0,0:0:0:0:
127,248,22117,2,0,P|131:210|125:169,1,62.9999980773926,2|0,3:0|0:0,0:0:0:0:
68,112,22479,1,2,0:0:0:0:
8,185,22660,1,0,0:0:0:0:
40,273,22840,6,0,P|60:313|142:338,1,125.999996154785,2|2,0:0|0:0,0:0:0:0:
224,314,23382,1,0,0:0:0:0:
318,319,23563,2,0,P|365:338|423:328,2,94.499997116089,4|4|4,3:0|3:0|3:0,0:0:0:0:
379,234,24286,6,0,P|383:127|377:77,1,140,4|2,0:0|0:2,0:0:0:0:
305,41,24828,1,0,0:0:0:0:
220,76,25009,2,0,L|141:83,1,70,8|0,0:0|0:0,0:0:0:0:
99,157,25370,2,0,L|178:164,1,70,2|0,0:2|0:0,0:0:0:0:
93,237,25732,6,0,P|39:211|24:133,1,140,0|2,3:0|0:2,0:0:0:0:
58,53,26274,1,0,0:0:0:0:
141,90,26455,2,0,L|283:98,1,140,8|2,0:0|0:2,0:0:0:0:
357,48,26997,1,0,0:0:0:0:
421,131,27178,6,0,P|428:168|426:204,1,70,0|0,0:0|0:0,0:0:0:0:
351,251,27539,2,0,P|343:216|343:182,1,70,2|0,0:2|0:0,0:0:0:0:
421,278,27900,2,0,P|383:320|301:307,1,140,8|2,0:0|0:2,0:0:0:0:
226,264,28443,1,0,0:0:0:0:
132,311,28623,6,0,P|123:268|126:236,1,70,0|0,3:0|3:0,0:0:0:0:
176,166,28985,2,0,P|185:123|182:91,1,70,2|0,0:2|0:0,0:0:0:0:
120,30,29346,2,0,P|185:6|252:38,1,140,8|2,0:0|0:2,0:0:0:0:
298,107,29888,1,0,0:0:0:0:
400,137,30069,6,0,P|441:143|486:133,1,70,0|0,0:0|0:0,0:0:0:0:
437,52,30431,2,0,P|396:46|351:56,1,70,2|0,0:2|0:0,0:0:0:0:
298,107,30792,2,0,P|293:150|298:187,2,70,8|0|2,0:0|0:0|0:2,0:0:0:0:
368,50,31334,1,0,0:0:0:0:
390,152,31515,6,0,L|386:298,1,140,0|2,0:0|0:2,0:0:0:0:
309,341,32057,1,0,0:0:0:0:
223,309,32238,2,0,B|147:300|157:342|72:316,1,140,8|2,0:0|0:2,0:0:0:0:
20,256,32780,1,0,0:0:0:0:
84,192,32961,5,2,0:2:0:0:
256,192,33051,12,0,35129,0:0:0:0:
295,183,35852,6,0,L|363:169,1,70,8|0,0:0|0:0,0:0:0:0:
440,218,36214,1,0,0:0:0:0:
384,298,36394,2,0,L|308:313,1,70,8|0,0:0|0:0,0:0:0:0:
225,331,36756,1,0,0:0:0:0:
148,269,36937,2,0,P|144:234|132:201,1,70,8|0,0:0|0:0,0:0:0:0:
177,122,37298,5,0,0:0:0:0:
258,177,37479,2,0,P|310:163|349:163,1,70,8|0,0:0|0:0,0:0:0:0:
413,187,37841,1,0,0:0:0:0:
476,261,38021,1,8,0:0:0:0:
137,62,38744,6,0,P|144:104|137:146,1,70,4|0,0:0|0:0,0:0:0:0:
61,188,39105,2,0,P|55:153|60:118,1,70,4|0,0:0|0:0,0:0:0:0:
137,62,39467,2,0,P|188:55|221:59,1,70,8|0,0:0|0:0,0:0:0:0:
299,88,39828,1,0,0:0:0:0:
388,128,40009,1,8,0:0:0:0:
363,223,40190,6,0,L|282:223,1,70,4|0,0:0|0:0,0:0:0:0:
332,312,40551,2,0,L|421:312,1,70,4|0,0:0|0:0,0:0:0:0:
488,260,40913,2,0,P|492:220|488:184,1,70,8|0,0:0|0:0,0:0:0:0:
444,104,41274,1,0,0:0:0:0:
348,112,41455,1,8,0:0:0:0:
348,112,41545,1,8,0:0:0:0:
348,112,41635,6,0,B|264:96|272:132|188:112,1,140,4|0,0:0|0:0,0:0:0:0:
112,92,42178,1,0,0:0:0:0:
112,188,42358,2,0,P|116:232|116:268,1,70,8|0,0:0|0:0,0:0:0:0:
160,344,42720,1,0,0:0:0:0:
256,344,42900,1,8,0:0:0:0:
292,252,43081,6,0,P|292:217|296:182,1,70,4|0,0:0|0:0,0:0:0:0:
364,112,43443,2,0,P|363:77|359:42,1,70,0|0,0:0|0:0,0:0:0:0:
264,16,43804,2,0,L|176:24,1,70,8|0,0:0|0:0,0:0:0:0:
124,92,44166,2,0,L|212:100,1,70,0|0,0:0|0:0,0:0:0:0:
272,156,44527,6,0,P|264:208|272:248,1,70,6|0,0:0|0:0,0:0:0:0:
188,284,44888,2,0,P|189:249|181:215,1,70,4|0,0:0|0:0,0:0:0:0:
92,256,45250,2,0,P|84:308|92:348,1,70,8|0,0:0|0:0,0:0:0:0:
172,372,45611,1,0,0:0:0:0:
268,352,45792,1,8,0:0:0:0:
348,296,45973,6,0,P|412:292|444:296,1,70,4|0,0:0|0:0,0:0:0:0:
368,208,46334,2,0,P|304:212|272:208,1,70,4|0,0:0|0:0,0:0:0:0:
324,116,46696,1,8,0:0:0:0:
420,116,46876,1,0,0:0:0:0:
448,212,47057,2,0,P|448:264|452:296,1,70,0|0,0:0|0:0,0:0:0:0:
356,308,47419,6,0,L|272:332,1,70,2|0,3:0|0:0,0:0:0:0:
192,328,47780,2,0,L|108:304,1,70,2|0,3:0|0:0,0:0:0:0:
120,212,48141,2,0,L|204:236,1,70,2|0,3:0|0:0,0:0:0:0:
284,232,48503,2,0,L|368:208,1,70,2|0,3:0|0:0,0:0:0:0:
376,116,48864,6,0,P|343:122|292:140,1,70,2|0,3:0|0:0,0:0:0:0:
212,136,49226,2,0,P|168:127|128:112,1,70,2|0,3:0|0:0,0:0:0:0:
72,52,49587,2,0,P|46:104|60:164,2,105,0|0|0,1:0|1:0|1:0,0:0:0:0:
164,24,50310,6,0,P|208:24|244:28,1,70,4|0,0:0|0:0,0:0:0:0:
312,88,50672,2,0,P|346:90|381:90,1,70,8|0,0:0|0:0,0:0:0:0:
480,72,51033,2,0,P|477:106|477:141,1,70,0|0,0:0|0:0,0:0:0:0:
404,208,51394,2,0,P|406:242|406:277,1,70,8|0,0:0|0:0,0:0:0:0:
352,360,51756,6,0,P|316:320|324:224,1,140,0|8,0:0|0:0,0:0:0:0:
405,277,52298,1,0,0:0:0:0:
484,336,52479,2,0,B|496:300|496:300|495:248,1,70,0|0,0:0|0:0,0:0:0:0:
502,170,52840,2,0,L|497:87,1,70,8|0,0:0|0:0,0:0:0:0:
410,55,53202,6,0,B|374:51|374:51|340:55,1,70,0|0,0:0|0:0,0:0:0:0:
324,152,53563,2,0,B|328:188|328:188|324:222,1,70,8|0,0:0|0:0,0:0:0:0:
236,264,53925,2,0,B|232:230|232:230|236:194,1,70,0|0,0:0|0:0,0:0:0:0:
156,140,54286,2,0,B|160:176|160:176|156:210,1,70,8|0,0:0|0:0,0:0:0:0:
76,156,54647,6,0,P|88:92|168:60,1,140,0|8,0:0|0:0,0:0:0:0:
244,88,55190,1,0,0:0:0:0:
328,136,55370,1,4,3:0:0:0:
409,81,55551,2,0,L|423:46,2,35,8|8|8,3:0|3:0|0:0,0:0:0:0:
460,172,55913,1,0,3:0:0:0:
460,172,56003,1,8,0:0:0:0:
460,172,56093,6,0,B|456:208|459:259,1,70,4|0,0:0|0:0,0:0:0:0:
368,284,56455,2,0,P|324:280|276:292,1,70,8|0,0:0|0:0,0:0:0:0:
248,368,56816,2,0,P|292:372|340:360,1,70,0|0,0:0|0:0,0:0:0:0:
368,284,57178,2,0,P|372:240|360:192,1,70,8|0,0:0|0:0,0:0:0:0:
308,136,57539,6,0,B|264:124|264:124|152:136,1,140,0|8,0:0|0:0,0:0:0:0:
76,156,58081,1,0,0:0:0:0:
144,224,58262,2,0,L|228:216,1,70,0|0,0:0|0:0,0:0:0:0:
264,304,58623,2,0,L|194:310,1,70,8|0,0:0|0:0,0:0:0:0:
97,291,58985,6,0,P|71:253|65:219,1,70,0|0,0:0|0:0,0:0:0:0:
110,142,59346,2,0,P|136:104|142:70,1,70,8|0,0:0|0:0,0:0:0:0:
46,70,59708,1,0,0:0:0:0:
19,164,59888,1,0,0:0:0:0:
70,247,60069,1,8,0:0:0:0:
166,227,60250,1,0,0:0:0:0:
261,248,60431,6,0,L|258:308,2,35,0|0|8,3:0|3:0|3:0,0:0:0:0:
339,201,60792,2,0,L|340:166,2,35,0|0|0,3:0|3:0|3:0,0:0:0:0:
403,265,61153,1,8,1:2:0:0:
129,83,61876,6,0,P|173:80|211:87,1,70,4|0,3:0|0:0,0:0:0:0:
173,171,62238,2,0,P|138:175|103:171,1,70,10|0,0:2|0:0,0:0:0:0:
30,117,62599,2,0,P|14:156|15:194,1,70,0|0,0:0|0:0,0:0:0:0:
52,266,62961,2,0,P|86:261|121:265,1,70,10|0,0:2|0:0,0:0:0:0:
191,323,63322,5,0,0:0:0:0:
281,332,63503,1,0,0:0:0:0:
249,246,63684,1,10,0:2:0:0:
340,254,63864,1,0,0:0:0:0:
426,281,64045,2,0,L|479:226,1,70,0|0,0:0|0:0,0:0:0:0:
420,155,64407,2,0,P|383:135|334:135,1,70,10|0,0:2|0:0,0:0:0:0:
349,40,64768,6,0,P|386:60|435:60,1,70,0|0,0:0|0:0,0:0:0:0:
499,33,65129,1,10,0:2:0:0:
493,126,65310,1,0,0:0:0:0:
461,211,65491,2,0,P|452:273|454:299,1,70,0|0,0:0|0:0,0:0:0:0:
481,366,65852,1,10,0:2:0:0:
392,349,66033,1,0,0:0:0:0:
343,271,66214,6,0,P|315:299|302:347,1,70,0|0,0:0|0:0,0:0:0:0:
392,349,66575,1,10,0:2:0:0:
426,264,66756,1,0,0:0:0:0:
376,187,66937,2,0,P|348:159|335:111,1,70,0|0,0:0|0:0,0:0:0:0:
341,40,67298,1,10,0:2:0:0:
421,82,67479,1,0,0:0:0:0:
421,82,67569,1,0,0:0:0:0:
421,82,67660,6,0,P|451:113|462:152,1,70,0|0,0:0|0:0,0:0:0:0:
449,228,68021,2,0,L|440:304,1,70,10|0,0:2|0:0,0:0:0:0:
353,323,68382,2,0,L|362:247,1,70,0|0,0:0|0:0,0:0:0:0:
273,280,68744,2,0,P|230:284|181:273,1,70,10|0,0:2|0:0,0:0:0:0:
112,274,69105,6,0,P|125:225|116:187,1,70,0|0,0:0|0:0,0:0:0:0:
76,127,69467,2,0,P|51:78|47:44,1,70,10|0,0:2|0:0,0:0:0:0:
139,59,69828,2,0,B|173:70|173:70|228:65,1,70,0|0,0:0|0:0,0:0:0:0:
295,43,70190,2,0,B|329:32|329:32|384:37,1,70,10|0,0:2|0:0,0:0:0:0:
379,124,70551,6,0,P|387:167|384:210,1,70,0|0,0:0|0:0,0:0:0:0:
366,282,70913,2,0,P|336:314|300:337,1,70,10|0,0:2|0:0,0:0:0:0:
224,332,71274,2,0,P|196:310|173:284,1,70,0|0,0:0|0:0,0:0:0:0:
152,196,71636,2,0,P|152:161|159:126,1,70,10|0,0:2|0:0,0:0:0:0:
220,59,71997,6,0,P|254:54|289:57,1,70,0|0,0:0|0:0,0:0:0:0:
379,71,72358,1,8,0:0:0:0:
321,141,72539,1,0,0:0:0:0:
289,57,72720,1,8,3:2:0:0:
15,140,82117,6,0,P|50:132|85:130,1,70,4|0,0:0|0:0,0:0:0:0:
115,224,82479,2,0,P|150:232|185:234,1,70,8|0,0:0|0:0,0:0:0:0:
197,135,82840,2,0,P|232:127|267:125,1,70,8|0,0:0|0:0,0:0:0:0:
304,215,83202,2,0,P|339:223|374:225,1,70,8|0,0:0|0:0,0:0:0:0:
373,128,83563,6,0,P|408:120|443:118,1,70,8|0,0:0|0:0,0:0:0:0:
464,214,83925,1,0,0:0:0:0:
409,296,84105,2,0,L|343:337,1,70,8|2,0:0|3:0,0:0:0:0:
256,332,84467,1,2,3:0:0:0:
195,264,84647,1,2,3:0:0:0:
244,187,84828,1,2,3:0:0:0:
326,148,85009,6,0,P|393:149|411:146,2,70,2|2|0,3:0|3:0|0:0,0:0:0:0:
271,74,85551,2,0,P|204:75|186:72,2,70,2|2|0,3:0|3:0|0:0,0:0:0:0:
353,35,86093,2,0,P|420:36|438:33,1,70,2|2,3:0|3:0,0:0:0:0:
509,82,86455,6,0,P|514:131|505:164,1,70,4|0,3:0|0:0,0:0:0:0:
448,227,86816,1,8,3:0:0:0:
350,233,86997,1,8,3:0:0:0:
350,233,87178,2,0,P|315:234|280:241,1,70,8|8,3:0|3:0,0:0:0:0:
300,338,87539,2,0,P|251:346|205:345,1,70,4|8,3:0|3:0,0:0:0:0:
136,322,87900,6,0,P|143:287|141:252,1,70,4|0,0:0|0:0,0:0:0:0:
60,196,88262,2,0,P|55:230|59:264,1,70,4|0,0:0|0:0,0:0:0:0:
136,321,88623,2,0,P|171:328|206:327,1,70,8|0,0:0|0:0,0:0:0:0:
299,296,88984,1,0,0:0:0:0:
388,256,89165,1,8,0:0:0:0:
363,161,89346,6,0,L|293:161,1,70,4|0,0:0|0:0,0:0:0:0:
332,72,89707,2,0,L|402:72,1,70,4|0,0:0|0:0,0:0:0:0:
487,123,90069,2,0,P|491:158|489:193,1,70,8|0,0:0|0:0,0:0:0:0:
444,280,90430,1,0,0:0:0:0:
348,272,90611,1,8,0:0:0:0:
348,272,90701,1,8,0:0:0:0:
348,272,90791,6,0,B|281:287|290:248|209:267,1,140,4|0,0:0|0:0,0:0:0:0:
116,296,91334,1,0,0:0:0:0:
111,196,91515,2,0,P|115:161|116:126,1,70,8|0,0:0|0:0,0:0:0:0:
160,40,91876,1,0,0:0:0:0:
256,40,92056,1,8,0:0:0:0:
292,132,92238,6,0,P|291:166|295:201,1,70,4|0,0:0|0:0,0:0:0:0:
364,272,92599,2,0,P|363:306|359:341,1,70,0|0,0:0|0:0,0:0:0:0:
264,368,92960,2,0,L|194:361,1,70,8|0,0:0|0:0,0:0:0:0:
124,292,93322,2,0,L|193:285,1,70,0|0,0:0|0:0,0:0:0:0:
272,228,93683,6,0,P|264:193|265:159,1,70,6|0,0:0|0:0,0:0:0:0:
188,100,94045,2,4,P|189:134|181:168,1,70,4|0,0:0|0:0,0:0:0:0:
92,128,94406,2,0,P|84:93|85:59,1,70,8|0,0:0|0:0,0:0:0:0:
172,12,94767,1,0,0:0:0:0:
268,32,94948,1,8,0:0:0:0:
347,87,95129,6,0,P|382:92|417:91,1,70,4|0,0:0|0:0,0:0:0:0:
368,176,95491,2,0,P|333:171|298:172,1,70,4|0,0:0|0:0,0:0:0:0:
324,268,95852,1,8,0:0:0:0:
420,268,96032,1,0,0:0:0:0:
448,172,96213,2,0,P|447:137|449:102,1,70,0|0,0:0|0:0,0:0:0:0:
356,76,96575,6,0,L|288:56,1,70,2|0,3:0|0:0,0:0:0:0:
190,56,96937,2,0,L|122:75,1,70,2|0,3:0|0:0,0:0:0:0:
117,172,97298,2,0,L|184:152,1,70,8|0,0:0|0:0,0:0:0:0:
282,152,97660,2,0,L|349:171,1,70,2|0,3:0|0:0,0:0:0:0:
372,266,98021,6,0,P|339:260|288:242,1,70,2|0,3:0|0:0,0:0:0:0:
208,246,98383,2,0,P|164:255|124:270,1,70,2|0,3:0|0:0,0:0:0:0:
71,331,98743,2,0,P|48:286|50:228,2,105,0|0|0,1:0|1:0|1:0,0:0:0:0:
163,359,99466,6,0,P|198:360|233:357,1,70,4|0,0:0|0:0,0:0:0:0:
311,296,99828,2,0,P|346:293|381:294,1,70,8|0,0:0|0:0,0:0:0:0:
480,312,100189,2,0,P|476:277|477:242,1,70,0|0,0:0|0:0,0:0:0:0:
404,176,100551,2,0,P|406:141|405:106,1,70,8|0,0:0|0:0,0:0:0:0:
352,23,100912,6,0,P|310:78|316:146,1,140,0|8,0:0|0:0,0:0:0:0:
405,107,101454,1,0,0:0:0:0:
484,48,101635,2,0,B|496:84|496:84|495:142,1,70,0|0,0:0|0:0,0:0:0:0:
473,212,101997,2,0,L|473:297,1,70,8|0,0:0|0:0,0:0:0:0:
387,330,102358,6,0,B|351:334|351:334|317:330,1,70,0|0,0:0|0:0,0:0:0:0:
324,232,102719,2,0,B|328:196|328:196|324:162,1,70,8|0,0:0|0:0,0:0:0:0:
236,120,103081,2,0,B|232:154|232:154|236:190,1,70,0|0,0:0|0:0,0:0:0:0:
156,244,103442,2,0,B|160:208|160:208|156:174,1,70,8|0,0:0|0:0,0:0:0:0:
75,228,103804,6,0,P|89:294|149:325,1,140,0|8,0:0|0:0,0:0:0:0:
244,296,104346,1,0,0:0:0:0:
328,248,104526,1,0,0:0:0:0:
414,294,104708,2,0,L|426:333,2,35,8|8|8,3:0|3:0|0:0,0:0:0:0:
460,212,105069,1,0,3:0:0:0:
460,212,105159,1,8,0:0:0:0:
460,212,105250,6,0,B|456:176|458:142,1,70,4|0,0:0|0:0,0:0:0:0:
368,99,105611,2,0,P|333:104|298:99,1,70,8|0,0:0|0:0,0:0:0:0:
247,16,105973,2,0,P|282:11|317:16,1,70,0|0,0:0|0:0,0:0:0:0:
367,99,106334,2,0,P|372:134|367:169,1,70,8|0,0:0|0:0,0:0:0:0:
308,248,106696,6,0,B|264:260|264:260|170:249,1,140,0|8,0:0|0:0,0:0:0:0:
76,228,107238,1,0,0:0:0:0:
144,160,107419,2,0,L|213:166,1,70,0|0,0:0|0:0,0:0:0:0:
264,80,107780,2,0,L|194:74,1,70,8|0,0:0|0:0,0:0:0:0:
97,92,108141,6,0,P|75:120|65:153,1,70,0|0,0:0|0:0,0:0:0:0:
109,241,108503,2,0,P|131:269|141:302,1,70,8|0,0:0|0:0,0:0:0:0:
46,314,108864,1,0,0:0:0:0:
4,225,109044,1,0,0:0:0:0:
65,152,109226,2,0,P|111:152|145:146,1,70,8|0,0:0|0:0,0:0:0:0:
224,109,109587,6,0,P|273:95|315:97,1,70,0|0,0:0|0:0,0:0:0:0:
314,183,109949,2,0,P|332:238|354:264,1,70,8|0,0:0|0:0,0:0:0:0:
424,279,110310,1,4,3:0:0:0:
499,227,110491,1,8,3:0:0:0:
448,151,110672,1,4,3:0:0:0:
398,75,110852,1,8,3:0:0:0:
304,46,111033,6,0,P|254:43|183:53,2,105,4|2|2,3:0|0:0|0:0,0:0:0:0:
398,75,111756,2,0,P|391:129|405:224,1,140,8|0,0:0|0:0,0:0:0:0:
443,302,112298,1,0,0:0:0:0:
348,329,112479,6,0,B|290:337|290:337|228:325,1,105,4|2,0:0|0:0,0:0:0:0:
147,217,113021,1,2,0:0:0:0:
147,217,113202,2,0,P|159:159|150:94,2,105,8|0|0,2:0|0:0|3:0,0:0:0:0:
92,298,113925,6,0,P|64:267|52:186,2,105,4|2|2,0:0|0:0|0:0,0:0:0:0:
176,346,114647,2,0,L|312:339,1,105,8|0,2:0|0:0,0:0:0:0:
397,250,115190,1,0,0:0:0:0:
397,250,115280,1,0,0:0:0:0:
397,250,115370,6,0,P|386:311|404:378,2,105,4|2|2,0:0|0:0|0:0,0:0:0:0:
440,161,116093,2,0,P|386:170|316:160,1,105,8|0,2:0|0:0,0:0:0:0:
169,345,116816,6,0,P|178:287|163:225,2,105,4|2|2,0:0|0:0|0:0,0:0:0:0:
77,308,117539,2,0,P|68:250|83:188,1,105,8|0,2:0|0:0,0:0:0:0:
172,93,118081,1,0,0:0:0:0:
172,93,118262,6,0,L|300:85,2,105,4|2|2,0:0|0:0|0:0,0:0:0:0:
226,174,118985,2,0,L|338:166,1,105,8|0,2:0|0:0,0:0:0:0:
254,292,119527,1,0,0:0:0:0:
254,292,119708,6,0,L|134:300,2,105,8|2|2,2:0|0:0|0:0,0:0:0:0:
347,322,120431,2,0,L|516:314,1,140,8|0,2:0|0:0,0:0:0:0:
481,217,120973,1,0,0:0:0:0:
406,153,121153,6,0,L|421:114,2,35,8|8|8,2:0|2:0|2:0,0:0:0:0:
307,156,121515,2,0,L|292:117,2,35,8|8|8,0:0|0:0|0:0,0:0:0:0:
229,216,121876,2,0,L|143:217,1,70,2|2,0:0|0:0,0:0:0:0:
116,218,122147,2,0,P|129:257|128:306,1,70,0|0,0:0|0:0,0:0:0:0:
114,325,122419,1,4,2:0:0:0:
327,49,131274,6,0,P|273:43|200:49,2,105,2|0|0,0:0|0:0|0:0,0:0:0:0:
397,117,131997,1,8,2:0:0:0:
405,143,132358,1,0,0:0:0:0:
408,170,132720,1,0,0:0:0:0:
399,196,133081,6,0,P|335:192|296:192,1,70,2|4,0:0|0:0,0:0:0:0:
243,240,133443,1,12,0:0:0:0:
205,149,133623,1,12,0:0:0:0:
205,149,133714,1,12,0:0:0:0:
205,149,133804,2,0,L|116:140,1,70,6|2,0:0|0:0,0:0:0:0:
37,128,134166,5,4,1:0:0:0:
256,192,134256,12,0,137057,0:0:0:0:
287,51,142839,5,4,0:0:0:0:
315,145,143020,1,4,0:0:0:0:
345,238,143201,1,4,0:0:0:0:
212,53,144286,5,4,0:0:0:0:
184,147,144467,1,4,0:0:0:0:
154,240,144648,1,4,0:0:0:0:
441,327,145732,6,0,P|442:274|448:240,1,70,8|0,0:2|0:0,0:0:0:0:
475,171,146093,1,2,0:0:0:0:
391,118,146274,2,0,P|390:171|384:205,1,70,8|0,0:2|0:0,0:0:0:0:
349,270,146635,1,2,0:0:0:0:
269,211,146816,2,0,P|270:158|276:124,1,70,8|0,0:2|0:0,0:0:0:0:
311,58,147178,5,2,0:0:0:0:
404,84,147358,1,4,3:0:0:0:
404,84,147449,1,4,3:0:0:0:
404,84,147539,2,0,P|419:124|419:174,1,70,4|8,3:0|2:0,0:0:0:0:
358,226,147900,1,4,0:0:0:0:
266,261,148081,1,0,1:0:0:0:
266,261,148172,1,0,1:0:0:0:
266,261,148262,2,0,L|285:313,3,35,0|0|0|0,1:0|1:0|1:0|0:0,0:0:0:0:
279,342,148623,6,0,P|216:329|185:332,1,70,4|0,0:0|0:0,0:0:0:0:
112,324,148985,2,0,L|93:252,1,70,12|0,0:0|0:0,0:0:0:0:
29,182,149346,2,0,P|19:132|23:88,2,70,0|0|8,0:0|0:0|0:0,0:0:0:0:
114,134,149888,1,0,0:0:0:0:
156,42,150069,6,0,P|113:38|74:43,1,70,4|0,0:0|0:0,0:0:0:0:
114,134,150431,2,0,P|157:138|196:133,1,70,12|0,0:0|0:0,0:0:0:0:
279,114,150792,2,0,L|271:27,2,70,0|0|8,0:0|0:0|0:0,0:0:0:0:
369,152,151334,1,0,0:0:0:0:
459,190,151515,6,0,P|487:255|461:330,1,140,0|8,0:0|0:0,0:0:0:0:
390,377,152057,1,0,0:0:0:0:
311,318,152238,2,0,P|277:313|237:316,1,70,0|0,0:0|0:0,0:0:0:0:
145,335,152599,1,8,0:0:0:0:
141,236,152779,1,0,0:0:0:0:
221,178,152961,6,0,P|255:183|290:185,1,70
341,101,153322,2,0,P|375:96|410:94,1,70,8|0,0:0|0:0,0:0:0:0:
473,169,153684,1,0,0:0:0:0:
432,257,153864,1,0,1:0:0:0:
432,257,153955,1,0,1:0:0:0:
432,257,154045,2,0,L|388:281,3,35,0|0|0|0,1:0|1:0|1:0|1:0,0:0:0:0:
356,294,154406,6,0,L|273:285,1,70,6|0,0:0|0:0,0:0:0:0:
207,226,154768,2,0,L|124:217,1,70,12|0,0:0|0:0,0:0:0:0:
75,294,155129,2,0,L|161:308,1,70,0|0,0:0|0:0,0:0:0:0:
207,226,155491,1,8,0:0:0:0:
199,128,155672,1,0,0:0:0:0:
282,76,155852,6,0,P|323:68|375:68,1,70,4|0,0:0|0:0,0:0:0:0:
448,83,156214,2,0,P|440:124|440:176,1,70,12|0,0:0|0:0,0:0:0:0:
462,247,156575,1,0,0:0:0:0:
400,323,156756,1,0,0:0:0:0:
332,251,156937,2,0,P|277:255|232:255,1,70,8|0,0:0|0:0,0:0:0:0:
220,166,157298,6,0,P|275:162|320:162,2,70,2|0|2,0:0|0:0|0:0,0:0:0:0:
138,220,157840,1,0,0:0:0:0:
110,125,158021,2,0,P|113:55|111:42,1,70,2|0,0:0|0:0,0:0:0:0:
210,45,158382,2,0,P|280:48|293:46,1,70,2|0,0:0|0:0,0:0:0:0:
377,35,158744,5,2,3:0:0:0:
432,115,158925,1,0,0:0:0:0:
407,209,159105,2,0,P|406:278|401:299,1,70,2|0,3:0|0:0,0:0:0:0:
328,339,159467,2,0,L|283:323,3,35,4|4|4|4,3:0|3:0|3:0|3:0,0:0:0:0:
246,332,159828,2,0,L|201:316,3,35,0|0|0|0,1:0|1:0|1:0|1:0,0:0:0:0:
170,295,160190,6,0,P|174:248|171:213,1,70,4|0,0:0|0:0,0:0:0:0:
115,145,160551,2,0,P|111:98|114:63,1,70,8|0,0:0|0:0,0:0:0:0:
27,126,160913,2,0,P|28:160|24:195,1,70,0|0,0:0|0:0,0:0:0:0:
93,265,161274,2,0,P|91:299|95:334,1,70,8|0,0:0|0:0,0:0:0:0:
192,320,161635,6,0,P|267:312|341:313,1,140,0|8,0:0|0:0,0:0:0:0:
424,344,162178,1,0,0:0:0:0:
480,264,162359,2,0,B|492:228|492:228|492:191,1,70,0|0,0:0|0:0,0:0:0:0:
485,98,162720,2,0,P|448:105|413:134,1,70,8|0,0:0|0:0,0:0:0:0:
394,217,163081,6,0,B|361:203|361:203|316:203,1,70,0|0,0:0|0:0,0:0:0:0:
228,214,163443,2,0,B|193:214|193:214|160:200,1,70,8|0,0:0|0:0,0:0:0:0:
102,121,163804,2,0,B|69:107|69:107|24:107,1,70,0|0,0:0|0:0,0:0:0:0:
48,204,164166,2,0,B|34:237|34:237|34:282,1,70,8|0,0:0|0:0,0:0:0:0:
108,335,164527,6,0,P|181:349|258:317,1,140,0|8,0:0|0:0,0:0:0:0:
322,272,165070,1,0,0:0:0:0:
367,185,165250,1,0,0:0:0:0:
353,87,165431,2,0,L|385:65,2,35,8|8|8,3:0|3:0|0:0,0:0:0:0:
261,100,165793,1,0,3:0:0:0:
261,100,165883,1,8,0:0:0:0:
261,100,165973,6,0,B|174:101,1,70,4|0,0:0|0:0,0:0:0:0:
92,101,166334,2,0,L|110:195,1,70,8|0,0:0|0:0,0:0:0:0:
158,252,166696,2,0,P|217:249|253:250,1,70,0|0,0:0|0:0,0:0:0:0:
275,336,167057,2,0,P|216:336|180:334,1,70,8|0,0:0|0:0,0:0:0:0:
107,320,167419,6,0,B|82:277|82:277|75:166,1,140,0|8,0:0|0:0,0:0:0:0:
71,88,167961,1,0,0:0:0:0:
152,143,168142,2,0,P|202:141|236:135,1,70,0|0,0:0|0:0,0:0:0:0:
290,68,168503,2,0,P|324:63|359:63,1,70,8|0,0:0|0:0,0:0:0:0:
422,138,168864,6,0,P|451:97|462:57,1,70,0|0,0:0|0:0,0:0:0:0:
359,63,169226,2,0,P|337:90|323:122,1,70,8|0,0:0|0:0,0:0:0:0:
362,212,169588,1,0,0:0:0:0:
293,281,169768,1,0,0:0:0:0:
199,251,169949,2,0,P|137:242|102:246,1,70,8|0,0:0|0:0,0:0:0:0:
43,289,170310,6,0,L|37:204,1,70,0|0,0:0|0:0,0:0:0:0:
104,155,170672,2,0,L|107:66,1,70,8|0,0:0|0:0,0:0:0:0:
190,48,171033,1,4,3:0:0:0:
276,76,171214,1,8,3:0:0:0:
362,101,171394,2,0,L|366:199,1,70,4|8,3:0|3:0,0:0:0:0:
354,269,171756,6,0,P|282:262|197:267,1,140,4|0,0:0|0:0,0:0:0:0:
53,154,172479,2,0,P|58:200|54:227,2,70,8|0|0,0:0|0:0|0:0,0:0:0:0:
30,58,173021,1,0,0:0:0:0:
127,69,173202,2,0,P|212:70|289:63,1,140,0|0,0:0|0:0,0:0:0:0:
362,42,173744,1,0,0:0:0:0:
434,107,173925,2,0,P|448:160|420:227,2,105,8|0|0,0:0|0:0|0:0,0:0:0:0:
351,158,174647,6,0,P|339:201|396:295,1,140,0|0,0:0|0:0,0:0:0:0:
181,279,175370,2,0,P|195:229|193:195,2,70,8|0|0,0:0|0:0|0:0,0:0:0:0:
98,226,175912,1,0,0:0:0:0:
121,130,176093,2,0,L|284:126,1,140,0|0,0:0|0:0,0:0:0:0:
358,133,176635,1,0,0:0:0:0:
399,41,176816,2,0,P|335:34|283:68,2,105,8|0|0,0:0|0:0|0:0,0:0:0:0:
467,110,177539,6,0,L|469:272,1,140,4|0,0:0|0:0,0:0:0:0:
298,152,178262,2,0,L|298:60,2,70,8|0|0,0:0|0:0|0:0,0:0:0:0:
229,222,178804,1,0,0:0:0:0:
288,299,178985,2,0,P|343:329|408:296,1,140,0|0,0:0|0:0,0:0:0:0:
407,105,179708,2,0,P|452:92|498:91,2,70,8|0|0,0:0|0:0|0:0,0:0:0:0:
319,149,180250,1,0,0:0:0:0:
319,149,180431,6,0,P|256:157|147:148,1,140,0|0,0:0|0:0,0:0:0:0:
30,26,181153,2,0,L|50:106,1,70,8|8,0:0|3:0,0:0:0:0:
102,175,181515,2,0,L|122:255,1,70,8|8,0:0|3:0,0:0:0:0:
185,315,181876,1,4,3:0:0:0:
283,317,182057,1,8,3:0:0:0:
381,318,182238,5,8,0:0:0:0:
