osu file format v14

[General]
AudioFilename: please.mp3
AudioLeadIn: 0
PreviewTime: 147720
Countdown: 0
SampleSet: Soft
StackLeniency: 0.7
Mode: 0
LetterboxInBreaks: 0
WidescreenStoryboard: 1

[Editor]
Bookmarks: 12720,19949,24286,38745,50310,56816,61876,73443,87900,99467,111033,122419,144286,148623,155129,160190,167419,171756
DistanceSpacing: 1
BeatDivisor: 4
GridSize: 4
TimelineZoom: 1.300001

[Metadata]
Title:Make A Move
TitleUnicode:Make A Move
Artist:Icon For Hire
ArtistUnicode:Icon For Hire
Creator:wajinshu
Version:Easy
Source:
Tags:Shmiklak FCL Maakkeli mkl scripted rock punk pop alternative
BeatmapID:1083903
BeatmapSetID:506483

[Difficulty]
HPDrainRate:3
CircleSize:2.7
OverallDifficulty:3
ApproachRate:3
SliderMultiplier:1
SliderTickRate:1

[Events]
//Background and Video events
0,0,"V6tKIOwgj0s.jpg",0,0
//Break Periods
2,73443,80677
2,122419,129834
2,137257,141400
//Storyboard Layer 0 (Background)
//Storyboard Layer 1 (Fail)
//Storyboard Layer 2 (Pass)
//Storyboard Layer 3 (Foreground)
//Storyboard Sound Samples

[TimingPoints]
1154,361.44578313253,4,2,1,60,1,0
12720,-100,4,3,1,60,0,0
15611,-100,4,3,2,60,0,0
15702,-100,4,3,1,60,0,0
24286,-100,4,3,1,60,0,0
32961,-100,4,3,1,60,0,0
35852,-100,4,2,1,60,0,0
38744,-100,4,2,1,60,0,1
44527,-100,4,2,2,60,0,1
44617,-100,4,2,1,60,0,1
49587,-100,4,2,1,60,0,0
50310,-100,4,2,1,60,0,1
61153,-100,4,2,1,60,0,0
61876,-100,4,3,1,60,0,0
72720,-100,4,3,1,60,0,0
82117,-100,4,2,1,60,0,0
87900,-100,4,2,1,60,0,1
93684,-100,4,2,2,60,0,1
93774,-100,4,2,1,60,0,1
98744,-100,4,2,1,60,0,0
99467,-100,4,2,1,60,0,1
110310,-100,4,2,1,60,0,0
111033,-100,4,3,1,60,0,0
122419,-100,4,3,1,60,0,0
131274,-100,4,3,1,60,0,0
134166,-100,4,3,1,60,0,0
135250,-100,4,3,1,50,0,0
136334,-100,4,3,1,40,0,0
137057,-100,4,3,1,30,0,0
142840,-100,4,3,1,60,0,0
145551,-100,4,3,1,60,0,0
148081,-100,4,2,1,60,0,0
148623,-100,4,2,1,60,0,1
154407,-100,4,2,2,60,0,1
154497,-100,4,2,1,60,0,1
157298,-100,4,3,1,60,0,1
158744,-100,4,2,1,60,0,1
159467,-100,4,2,1,60,0,0
160190,-100,4,2,1,60,0,1
171033,-100,4,2,1,60,0,0
171756,-100,4,2,1,60,0,0
182238,-100,4,2,1,60,0,0

[Colours]
Combo1 : 87,87,87
Combo2 : 0,64,64
Combo3 : 0,74,166
Combo4 : 158,10,32

[HitObjects]
121,211,12720,6,0,B|223:179|223:242|325:210,1,200,2|2,0:0|3:0,0:0:0:0:
418,185,13804,1,2,0:0:0:0:
431,284,14166,2,0,P|426:332|409:384,2,100,2|2|2,0:0|0:0|3:0,0:0:0:0:
418,185,15250,1,2,0:0:0:0:
329,137,15611,6,0,P|282:131|228:138,1,100,2|2,0:2|0:0,0:0:0:0:
140,182,16334,2,0,P|93:188|39:181,1,100,2|2,3:0|0:0,0:0:0:0:
42,81,17057,2,0,P|91:74|140:81,2,100,2|2|2,0:0|0:0|3:0,0:0:0:0:
41,181,18141,1,2,0:0:0:0:
107,255,18503,6,0,B|141:297|141:297|223:314|302:289,1,200,2|2,0:0|3:0,0:0:0:0:
380,260,19587,1,2,0:0:0:0:
325,176,19949,2,0,P|281:170|225:174,1,100,2|2,0:0|0:0,0:0:0:0:
229,73,20672,2,0,P|273:79|329:75,1,100,2|2,3:0|0:0,0:0:0:0:
425,53,21394,6,0,L|445:173,2,100,2|2|2,0:0|0:0|3:0,0:0:0:0:
328,75,22479,1,2,0:0:0:0:
231,49,22840,2,0,B|115:21|143:81|27:49,1,200,2|4,0:0|3:0,0:0:0:0:
68,252,24286,6,0,P|60:200|40:148,2,100,4|2|8,0:0|0:2|0:0,0:0:0:0:
112,344,25370,1,2,0:2:0:0:
204,300,25732,2,0,P|248:288|308:288,1,100,0|2,3:0|0:2,0:0:0:0:
380,348,26455,2,0,P|429:347|478:335,1,100,8|2,0:0|0:2,0:0:0:0:
472,232,27178,6,0,P|496:144|428:60,1,200,0|8,0:0|0:0,0:0:0:0:
336,68,28262,1,2,0:2:0:0:
264,140,28623,2,0,P|300:164|360:168,2,100,0|2|8,3:0|0:2|0:0,0:0:0:0:
196,65,29708,1,2,0:2:0:0:
99,39,30069,6,0,B|105:252,1,200,0|8,0:0|0:0,0:0:0:0:
120,337,31153,1,2,0:2:0:0:
217,314,31515,2,0,P|208:262|215:209,1,100,0|2,0:0|0:2,0:0:0:0:
299,165,32238,2,0,P|308:217|301:270,1,100,8|2,0:0|0:2,0:0:0:0:
217,314,32961,6,0,B|150:269|66:305|66:305|114:241|114:177|74:105|74:105|176:144|188:64|304:64,1,600,2|0,0:2|0:0,0:0:0:0:
256,192,35852,12,4,38743,0:0:0:0:
188,304,40190,6,0,P|136:296|91:277,1,100,4|4,0:0|0:0,0:0:0:0:
36,196,40913,2,0,L|40:84,1,100,8|0,0:0|0:0,0:0:0:0:
124,44,41635,2,0,P|176:52|220:70,1,100,4|0,0:0|0:0,0:0:0:0:
300,128,42358,1,8,0:0:0:0:
228,196,42720,1,0,0:0:0:0:
296,272,43081,6,0,P|340:264|400:264,2,100,4|0|8,0:0|0:0|0:0,0:0:0:0:
204,316,44166,1,0,0:0:0:0:
116,272,44527,2,0,P|72:264|12:264,1,100,6|4,0:0|0:0,0:0:0:0:
8,164,45250,1,8,0:0:0:0:
100,128,45611,1,0,0:0:0:0:
180,188,45973,6,0,P|272:204|336:128,1,200,4|8,0:0|0:0,0:0:0:0:
240,112,47057,1,0,0:0:0:0:
140,100,47419,2,0,P|108:128|80:192,1,100,2|2,3:0|3:0,0:0:0:0:
120,272,48141,1,2,3:0:0:0:
212,308,48503,1,2,3:0:0:0:
288,372,48864,2,0,P|311:299|222:209,1,200,2|0,3:0|1:0,0:0:0:0:
58,121,50310,6,0,P|107:128|165:120,1,100,4|8,0:0|0:0,0:0:0:0:
232,57,51033,2,0,P|274:45|339:62,1,100,0|8,0:0|0:0,0:0:0:0:
282,143,51756,2,0,L|292:259,1,100,0|8,0:0|0:0,0:0:0:0:
354,319,52479,1,0,0:0:0:0:
449,290,52840,1,8,0:0:0:0:
480,194,53202,6,0,L|471:94,1,100,0|8,0:0|0:0,0:0:0:0:
371,98,53925,2,0,P|298:105|253:105,1,100,0|8,0:0|0:0,0:0:0:0:
171,105,54647,2,0,P|98:98|53:98,1,100,0|8,0:0|0:0,0:0:0:0:
14,180,55370,1,4,3:0:0:0:
76,258,55732,1,8,0:0:0:0:
166,299,56093,6,0,P|210:304|268:298,1,100,4|8,0:0|0:0,0:0:0:0:
315,211,56816,2,0,P|359:206|417:212,1,100,0|8,0:0|0:0,0:0:0:0:
418,311,57539,2,0,P|473:291|506:239,1,100,0|8,0:0|0:0,0:0:0:0:
507,160,58262,1,0,0:0:0:0:
421,107,58623,1,8,0:0:0:0:
321,93,58985,6,0,L|209:101,1,100,0|8,0:0|0:0,0:0:0:0:
125,130,59708,1,0,0:0:0:0:
39,183,60069,1,8,0:0:0:0:
121,239,60431,2,0,B|167:264|167:264|200:310,2,100,0|0|8,3:0|3:0|1:2,0:0:0:0:
288,129,61876,6,0,B|340:152|384:128|384:128|440:152|496:128,1,200,4|0,3:0|0:0,0:0:0:0:
440,40,62961,1,10,0:2:0:0:
340,48,63322,2,0,P|288:36|232:48,1,100,0|10,0:0|0:2,0:0:0:0:
156,96,64045,1,0,0:0:0:0:
68,144,64407,1,10,0:2:0:0:
116,232,64768,6,0,B|160:248|160:248|216:248,1,100,0|10,0:0|0:2,0:0:0:0:
256,156,65491,2,0,B|309:156|309:156|353:172,1,100,0|10,0:0|0:2,0:0:0:0:
380,268,66214,2,0,B|424:284|424:284|480:284,1,100,0|10,0:0|0:2,0:0:0:0:
448,188,66937,2,0,L|446:81,1,100,0|10,0:0|0:2,0:0:0:0:
352,53,67660,6,0,P|292:42|237:64,2,100,0|10|0,0:0|0:2|0:0,0:0:0:0:
303,140,68744,1,10,0:2:0:0:
247,223,69105,2,0,B|147:223|147:223|97:193,2,150,0|0|10,0:0|0:0|0:2,0:0:0:0:
346,232,70551,1,0,0:0:0:0:
446,252,70913,2,0,P|452:296|450:358,2,100,10|0|10,0:2|0:0|0:2,0:0:0:0:
411,160,71997,6,0,P|356:140|293:146,1,100,0|8,0:0|0:0,0:0:0:0:
223,180,72720,1,8,3:2:0:0:
164,325,82117,6,0,P|163:281|152:225,1,100,4|8,0:0|0:0,0:0:0:0:
70,168,82840,2,0,P|59:119|58:69,1,100,8|8,0:0|0:0,0:0:0:0:
158,64,83563,2,0,B|252:93|252:30|354:62,1,200,8|2,0:0|3:0,0:0:0:0:
447,97,84647,1,2,3:0:0:0:
256,192,85009,12,4,87900,0:0:0:0:
324,80,89346,6,0,P|376:88|421:107,1,100,4|4,0:0|0:0,0:0:0:0:
476,188,90069,2,0,L|472:300,1,100,8|0,0:0|0:0,0:0:0:0:
388,340,90791,2,0,P|336:332|292:314,1,100,4|0,0:0|0:0,0:0:0:0:
212,256,91514,1,8,0:0:0:0:
284,188,91876,1,0,0:0:0:0:
216,112,92238,6,0,P|172:120|112:120,2,100,4|0|8,0:0|0:0|0:0,0:0:0:0:
308,68,93322,1,0,0:0:0:0:
396,112,93683,2,4,P|440:120|500:120,1,100,6|4,0:0|0:0,0:0:0:0:
504,220,94406,1,8,0:0:0:0:
412,256,94767,1,0,0:0:0:0:
332,196,95129,6,0,P|240:180|176:256,1,200,4|8,0:0|0:0,0:0:0:0:
272,272,96213,1,0,0:0:0:0:
372,284,96575,2,0,P|404:256|432:192,1,100,2|2,3:0|3:0,0:0:0:0:
392,112,97297,1,8,0:0:0:0:
300,76,97659,1,2,3:0:0:0:
224,12,98021,2,0,P|201:85|295:175,1,200,2|0,3:0|1:0,0:0:0:0:
454,263,99466,6,0,P|405:256|347:264,1,100,4|8,0:0|0:0,0:0:0:0:
280,327,100189,2,0,P|225:340|171:320,1,100,0|8,0:0|0:0,0:0:0:0:
230,241,100912,2,0,L|220:125,1,100,0|8,0:0|0:0,0:0:0:0:
158,65,101635,1,0,0:0:0:0:
63,94,101996,1,8,0:0:0:0:
32,190,102358,6,0,L|40:289,1,100,0|8,0:0|0:0,0:0:0:0:
141,286,103081,2,0,P|222:280|259:279,1,100,0|8,0:0|0:0,0:0:0:0:
341,279,103804,2,0,P|422:285|459:286,1,100,0|8,0:0|0:0,0:0:0:0:
498,204,104526,1,0,0:0:0:0:
436,126,104888,1,8,0:0:0:0:
346,85,105249,6,0,P|302:80|244:86,1,100,4|8,0:0|0:0,0:0:0:0:
197,173,105972,2,0,P|153:178|95:172,1,100,0|8,0:0|0:0,0:0:0:0:
94,73,106695,2,0,P|39:93|6:145,1,100,0|8,0:0|0:0,0:0:0:0:
5,224,107418,1,0,0:0:0:0:
91,277,107779,1,8,0:0:0:0:
191,291,108141,6,0,L|303:283,1,100,0|8,0:0|0:0,0:0:0:0:
387,254,108864,1,0,0:0:0:0:
473,201,109225,1,8,0:0:0:0:
391,145,109587,2,0,B|345:120|345:120|312:74,2,100,0|8|4,0:0|0:0|3:0,0:0:0:0:
344,340,111033,6,0,B|276:364|208:304|208:304|144:368|60:332,1,300,4|0,3:0|0:0,0:0:0:0:
116,248,112479,2,0,P|208:152|300:260,1,300,4|0,0:0|0:0,0:0:0:0:
344,340,113925,6,0,B|404:316|496:336|496:336|472:288|512:172,1,300,4|0,0:0|0:0,0:0:0:0:
444,116,115370,2,0,B|268:64|324:188|144:120,1,300,4|0,0:0|0:0,0:0:0:0:
72,180,116816,6,0,B|64:240|76:304|76:304|152:292|152:292|208:324|264:292,1,300,4|0,0:0|0:0,0:0:0:0:
208,208,118262,2,0,B|256:220|308:208|308:208|404:236|404:236|460:220|512:236,1,300,4|0,0:0|0:0,0:0:0:0:
464,328,119708,6,0,B|364:340|364:340|316:324|316:324|268:340|268:340|152:328,1,300,8|0,2:0|0:0,0:0:0:0:
104,256,121153,2,0,P|76:296|76:360,2,100,8|8|2,2:0|0:0|0:0,0:0:0:0:
112,112,131274,6,0,L|224:104,1,100,2|4,0:0|0:0,0:0:0:0:
312,88,131997,1,8,2:0:0:0:
408,68,132358,1,0,0:0:0:0:
368,160,132720,2,0,P|360:212|372:272,1,100,0|2,0:0|0:0,0:0:0:0:
296,328,133443,2,0,P|244:320|184:332,1,100,12|6,0:0|0:0,0:0:0:0:
256,192,134166,12,0,137057,0:0:0:0:
48,80,142840,6,0,B|96:68|96:68|160:80,1,100,4|4,0:0|0:0,0:0:0:0:
352,296,144286,2,0,B|401:305|401:305|449:293,1,100,4|4,0:0|0:0,0:0:0:0:
256,192,145732,12,4,148623,0:0:0:0:
49,282,150069,6,0,P|93:282|153:270,1,100,4|12,0:0|0:0,0:0:0:0:
197,186,150792,2,0,P|237:168|288:134,1,100,0|8,0:0|0:0,0:0:0:0:
368,83,151515,2,0,P|401:117|435:173,1,100,4|8,0:0|0:0,0:0:0:0:
376,245,152238,1,0,0:0:0:0:
304,315,152599,1,8,0:0:0:0:
207,343,152961,6,0,P|163:344|103:331,2,100,4|8|0,0:0|0:0|0:0,0:0:0:0:
304,315,154045,1,0,1:0:0:0:
303,214,154407,2,0,L|286:111,1,100,6|12,0:0|0:0,0:0:0:0:
214,46,155129,1,0,0:0:0:0:
112,48,155491,1,8,0:0:0:0:
76,140,155852,6,0,B|53:192|77:236|77:236|53:292|77:348,1,200,4|0,0:0|0:0,0:0:0:0:
168,304,156937,1,8,0:0:0:0:
260,268,157298,2,0,P|316:264|376:272,1,100,2|2,0:0|0:0,0:0:0:0:
444,324,158021,1,2,0:0:0:0:
444,224,158382,1,2,0:0:0:0:
372,152,158744,2,0,B|296:152|296:152|244:168|244:168|160:168,1,200,2|4,3:0|3:0,0:0:0:0:
340,52,160190,6,0,P|392:52|440:76,1,100,4|8,0:0|0:0,0:0:0:0:
472,164,160913,2,0,B|464:216|464:216|476:272,1,100,0|8,0:0|0:0,0:0:0:0:
376,288,161635,2,0,B|385:241|385:241|377:189,1,100,0|8,0:0|0:0,0:0:0:0:
336,100,162358,1,0,0:0:0:0:
248,56,162720,1,8,0:0:0:0:
176,124,163081,6,0,B|166:170|166:170|174:222,1,100,0|8,0:0|0:0,0:0:0:0:
196,320,163804,2,0,P|144:312|92:328,1,100,0|8,0:0|0:0,0:0:0:0:
28,252,164527,2,0,L|28:136,1,100,0|8,0:0|0:0,0:0:0:0:
32,52,165250,1,0,0:0:0:0:
120,96,165611,1,8,0:0:0:0:
212,56,165973,6,0,P|256:42|314:55,1,100,4|8,0:0|0:0,0:0:0:0:
264,144,166696,2,0,P|256:184|268:248,1,100,0|8,0:0|0:0,0:0:0:0:
364,264,167419,2,0,P|372:313|362:361,1,100,0|8,0:0|0:0,0:0:0:0:
264,360,168141,1,0,0:0:0:0:
164,356,168503,1,8,0:0:0:0:
88,288,168864,6,0,P|76:216|80:180,1,100,0|8,0:0|0:0,0:0:0:0:
112,96,169587,1,0,0:0:0:0:
212,92,169949,1,8,0:0:0:0:
308,72,170310,2,0,P|344:80|420:64,2,100,0|8|4,0:0|0:0|3:0,0:0:0:0:
212,92,171394,1,4,3:0:0:0:
128,144,171756,6,0,L|140:256,1,100,4|0,0:0|0:0,0:0:0:0:
48,284,172479,2,0,L|37:184,1,100,8|0,0:0|0:0,0:0:0:0:
44,84,173202,2,0,P|108:40|216:92,1,200,0|8,0:0|0:0,0:0:0:0:
276,160,174286,1,0,0:0:0:0:
376,144,174647,6,0,P|428:136|484:136,1,100,0|0,0:0|0:0,0:0:0:0:
424,48,175370,2,0,P|374:47|324:39,1,100,8|0,0:0|0:0,0:0:0:0:
224,32,176093,2,0,B|184:124|256:140|216:228,1,200,0|8,0:0|0:0,0:0:0:0:
164,312,177178,1,0,0:0:0:0:
260,344,177539,6,0,L|380:356,1,100,4|0,0:0|0:0,0:0:0:0:
400,264,178262,2,0,L|499:254,1,100,8|0,0:0|0:0,0:0:0:0:
464,160,178985,2,0,B|420:172|367:149|367:149|316:176|256:156,1,200,0|8,0:0|0:0,0:0:0:0:
180,112,180069,1,0,0:0:0:0:
124,196,180431,6,0,P|72:208|16:192,1,100,0|0,0:0|0:0,0:0:0:0:
76,108,181153,1,8,0:0:0:0:
140,32,181515,1,8,0:0:0:0:
240,32,181876,1,4,3:0:0:0:
304,108,182238,5,8,0:0:0:0:
