osu file format v14

[General]
AudioFilename: audio.mp3
AudioLeadIn: 0
PreviewTime: -1
Countdown: 1
SampleSet: Normal
StackLeniency: 0.3
Mode: 0
LetterboxInBreaks: 0
WidescreenStoryboard: 0

[Editor]
Bookmarks: 22880,34447
DistanceSpacing: 0.8
BeatDivisor: 8
GridSize: 32
TimelineZoom: 1.5

[Metadata]
Title:Make A Move
TitleUnicode:Make A Move
Artist:Icon For Hire
ArtistUnicode:Icon For Hire
Creator:TTL
Version:Insane
Source:
Tags:
BeatmapID:1645639
BeatmapSetID:783690

[Difficulty]
HPDrainRate:6
CircleSize:3.8
OverallDifficulty:7
ApproachRate:9
SliderMultiplier:2
SliderTickRate:1

[Events]
//Background and Video events
//Break Periods
//Storyboard Layer 0 (Background)
//Storyboard Layer 1 (Fail)
//Storyboard Layer 2 (Pass)
//Storyboard Layer 3 (Foreground)
//Storyboard Sound Samples

[TimingPoints]
11314.5986813175,361.44578313253,4,1,0,100,1,0
34447,-50,4,1,0,100,0,0
37338,-66.6666666666667,4,1,0,100,0,1
46013,-100,4,1,0,100,0,0
48182,-133.333333333333,4,1,0,100,0,0
48904,-66.6666666666667,4,1,0,100,0,1

[HitObjects]
91,288,11314,5,0,0:0:0:0:
125,215,11495,1,0,0:0:0:0:
171,281,11676,1,0,0:0:0:0:
206,208,11856,1,0,0:0:0:0:
315,243,12037,5,0,0:0:0:0:
263,90,12218,1,0,0:0:0:0:
206,208,12398,1,0,0:0:0:0:
125,215,12579,1,0,0:0:0:0:
44,222,12760,2,0,L|32:91,1,100
28,42,13121,2,0,L|164:31,1,100
208,29,13483,5,0,0:0:0:0:
183,108,13663,1,0,0:0:0:0:
239,169,13844,1,0,0:0:0:0:
214,247,14025,1,0,0:0:0:0:
374,213,14206,5,0,0:0:0:0:
239,169,14386,1,0,0:0:0:0:
348,290,14567,5,0,0:0:0:0:
427,274,14748,1,0,0:0:0:0:
374,213,14929,1,0,0:0:0:0:
292,230,15109,1,0,0:0:0:0:
239,169,15290,2,0,L|122:192,1,100
62,205,15651,5,0,0:0:0:0:
168,326,15832,1,0,0:0:0:0:
193,247,16013,1,0,0:0:0:0:
140,188,16193,1,0,0:0:0:0:
217,171,16374,2,0,L|228:118,3,50
265,134,16736,2,0,L|276:81,2,50
317,73,17097,5,0,0:0:0:0:
423,194,17278,1,0,0:0:0:0:
397,270,17459,1,0,0:0:0:0:
344,209,17639,1,0,0:0:0:0:
318,285,17820,1,0,0:0:0:0:
265,224,18000,1,0,0:0:0:0:
317,72,18182,5,0,0:0:0:0:
160,103,18362,1,0,0:0:0:0:
423,193,18543,5,0,0:0:0:0:
265,224,18724,1,0,0:0:0:0:
397,58,18904,5,0,0:0:0:0:
450,330,19085,1,0,0:0:0:0:
344,209,19265,5,0,0:0:0:0:
82,117,19447,2,0,L|319:69,1,200
397,58,19989,5,0,0:0:0:0:
373,134,20170,1,0,0:0:0:0:
451,117,20350,1,0,0:0:0:0:
427,193,20531,1,0,0:0:0:0:
271,227,20712,5,0,0:0:0:0:
163,108,20892,1,0,0:0:0:0:
397,58,21073,5,0,0:0:0:0:
450,330,21254,1,0,0:0:0:0:
271,227,21435,1,0,0:0:0:0:
427,193,21796,5,0,0:0:0:0:
247,68,22157,2,0,P|322:60|397:58,2,150
168,77,22880,5,0,0:0:0:0:
91,101,23061,1,0,0:0:0:0:
209,211,23242,1,0,0:0:0:0:
226,132,23423,1,0,0:0:0:0:
107,24,23603,5,0,0:0:0:0:
0,207,23784,1,0,0:0:0:0:
76,182,23965,1,0,0:0:0:0:
91,101,24145,1,0,0:0:0:0:
168,77,24326,1,0,0:0:0:0:
209,211,24507,5,0,0:0:0:0:
305,109,24688,1,0,0:0:0:0:
481,275,25049,1,0,0:0:0:0:
14,125,25410,5,0,0:0:0:0:
168,77,25591,1,0,0:0:0:0:
132,234,25772,1,0,0:0:0:0:
363,166,26133,5,0,0:0:0:0:
481,275,26314,1,0,0:0:0:0:
327,322,26495,1,0,0:0:0:0:
168,77,26856,5,0,0:0:0:0:
235,119,27037,1,0,0:0:0:0:
165,156,27218,5,0,0:0:0:0:
32,72,27398,1,0,0:0:0:0:
98,113,27579,5,0,0:0:0:0:
168,77,27759,1,0,0:0:0:0:
235,119,27941,1,0,0:0:0:0:
132,234,28302,1,0,0:0:0:0:
418,264,28663,6,0,P|346:152|315:184,1,200
235,210,29386,1,0,0:0:0:0:
168,164,29567,1,0,0:0:0:0:
161,245,29748,1,0,0:0:0:0:
94,198,29929,1,0,0:0:0:0:
87,280,30109,1,0,0:0:0:0:
256,192,31555,12,0,33724,0:0:0:0:
125,281,34447,5,0,0:0:0:0:
181,132,34627,1,0,0:0:0:0:
282,255,34808,1,0,0:0:0:0:
105,237,34989,5,0,0:0:0:0:
228,136,35169,1,0,0:0:0:0:
254,293,35350,1,0,0:0:0:0:
109,190,35531,5,0,0:0:0:0:
267,164,35711,1,0,0:0:0:0:
210,313,35892,1,0,0:0:0:0:
137,151,36073,5,0,0:0:0:0:
286,207,36253,1,0,0:0:0:0:
163,308,36434,1,0,0:0:0:0:
181,132,36615,5,0,0:0:0:0:
269,50,37338,5,0,0:0:0:0:
181,132,37519,1,0,0:0:0:0:
408,201,37700,2,0,L|248:151,1,150.000005722046
149,123,38061,5,0,0:0:0:0:
233,37,38242,1,0,0:0:0:0:
117,7,38423,5,0,0:0:0:0:
183,239,38603,1,0,0:0:0:0:
351,66,38784,2,0,L|228:197,1,150.000005722046
163,260,39145,2,0,L|125:56,1,150.000005722046
117,7,39507,5,0,0:0:0:0:
345,77,39688,1,0,0:0:0:0:
135,112,39868,5,0,0:0:0:0:
187,366,40049,1,0,0:0:0:0:
221,340,40139,1,0,0:0:0:0:
244,316,40230,2,0,P|294:233|319:176,1,150.000005722046
345,77,40591,2,0,B|255:59|255:59|162:138,1,150.000005722046
123,179,40953,5,0,0:0:0:0:
358,218,41133,1,0,0:0:0:0:
210,96,41314,5,0,0:0:0:0:
294,319,41494,1,0,0:0:0:0:
345,77,41676,5,0,0:0:0:0:
358,218,41856,1,0,0:0:0:0:
229,158,42037,2,0,P|112:142|51:147,1,150.000005722046
345,77,42398,6,0,P|349:197|290:247,1,150.000005722046
248,299,42760,1,0,0:0:0:0:
335,216,42941,1,0,0:0:0:0:
229,158,43121,2,0,P|234:97|143:82,1,150.000005722046
45,107,43483,2,0,P|58:204|91:258,1,150.000005722046
162,338,43844,5,0,0:0:0:0:
243,111,44025,1,0,0:0:0:0:
108,120,44206,5,0,0:0:0:0:
345,77,44387,1,0,0:0:0:0:
332,326,44567,1,0,0:0:0:0:
295,318,44657,1,0,0:0:0:0:
263,303,44748,6,0,P|182:201|177:165,1,150.000005722046
278,75,45109,1,0,0:0:0:0:
464,227,45290,5,0,0:0:0:0:
240,313,45471,1,0,0:0:0:0:
178,185,45651,5,0,0:0:0:0:
259,359,45832,1,0,0:0:0:0:
286,341,45923,1,0,0:0:0:0:
308,324,46013,2,0,P|363:261|379:232,1,100
204,60,46374,6,0,P|149:123|133:152,1,100
308,60,46736,2,0,P|363:123|379:152,1,100
256,192,47097,2,0,L|256:293,1,100
256,352,47459,5,0,0:0:0:0:
48,46,47639,1,0,0:0:0:0:
391,246,47820,1,0,0:0:0:0:
391,246,48182,6,0,P|443:212|459:163,2,112.500004291535
371,159,48904,2,0,P|304:151|84:234,1,300.000011444092
17,324,49447,1,0,0:0:0:0:
136,339,49627,2,0,P|166:186|34:113,1,300.000011444092
76,232,50170,1,0,0:0:0:0:
