osu file format v14

[General]
AudioFilename: audio.mp3
AudioLeadIn: 0
PreviewTime: 29907
Countdown: 0
SampleSet: Normal
StackLeniency: 0.2
Mode: 0
LetterboxInBreaks: 0
WidescreenStoryboard: 1

[Editor]
DistanceSpacing: 1
BeatDivisor: 4
GridSize: 16
TimelineZoom: 1.6

[Metadata]
Title:Make A Move (Speed Up Ver.)
TitleUnicode:Make A Move (Speed Up Ver.)
Artist:Icon For Hire
ArtistUnicode:Icon For Hire
Creator:-PH
Version:Test My Reality
Source:
Tags:
BeatmapID:1974189
BeatmapSetID:945387

[Difficulty]
HPDrainRate:4
CircleSize:4.8
OverallDifficulty:8
ApproachRate:9.3
SliderMultiplier:1.6
SliderTickRate:1

[Events]
//Background and Video events
0,0,"download.jpg",0,0
//Break Periods
//Storyboard Layer 0 (Background)
//Storyboard Layer 1 (Fail)
//Storyboard Layer 2 (Pass)
//Storyboard Layer 3 (Foreground)
//Storyboard Sound Samples

[TimingPoints]
9319,296.237780191567,4,1,0,100,1,0
9763,-50,4,1,0,100,0,0
10503,-100,4,1,0,100,0,0
10800,-83.3333333333333,4,1,0,100,0,0
11096,-71.4285714285714,4,1,0,100,0,0
11392,-133.333333333333,4,1,0,100,0,0
14058,-100,4,1,0,100,0,0
14355,-79.9999999999999,4,1,0,100,0,0
14651,-66.6666666666667,4,1,0,100,0,0
14947,-57.1428571428571,4,1,0,100,0,0
15243,-50,4,1,0,100,0,0
15539,-44.4444444444445,4,1,0,100,0,0
15836,-81.6326530612245,4,1,0,100,0,0
16428,-66.6666666666667,4,1,0,100,0,0
17613,-133.333333333333,4,1,0,100,0,0
18798,-100,4,1,0,100,0,0
19391,-66.6666666666667,4,1,0,100,0,0
19687,-100,4,1,0,100,0,0
20279,-200,4,1,0,100,0,0
20872,-100,4,1,0,100,0,0
21168,-200,4,1,0,100,0,0
21464,-100,4,1,0,100,0,0
22353,-66.6666666666667,4,1,0,100,0,0
22945,-133.333333333333,4,1,0,100,0,0
23538,-100,4,1,0,100,0,0
23834,-200,4,1,0,100,0,0
24130,-100,4,1,0,100,0,0
26204,-200,4,1,0,100,0,0
26648,-100,4,1,0,100,0,0
27241,-66.6666666666667,4,1,0,100,0,0
27537,-200,4,1,0,100,0,0
28278,-12.5,4,1,0,100,0,0
30648,-66.6666666666667,4,1,0,100,0,1
33610,-50,4,1,0,100,0,1
34499,-100,4,1,0,100,0,1
34795,-50,4,1,0,100,0,1
37757,-100,4,1,0,100,0,0
39831,-83.3333333333333,4,1,0,100,0,0
40127,-71.4285714285714,4,1,0,100,0,1
47829,-71.4285714285714,4,1,0,100,0,0
48422,-71.4285714285714,4,1,0,100,0,1
48718,-71.4285714285714,4,1,0,100,0,0

[HitObjects]
286,40,4431,6,0,P|334:21|433:64,1,160
350,92,4875,2,0,L|337:188,1,80
286,40,5171,1,0,0:0:0:0:
81,126,5467,1,0,0:0:0:0:
253,272,5764,5,0,0:0:0:0:
283,246,5838,1,0,0:0:0:0:
314,220,5912,1,0,0:0:0:0:
344,194,5986,1,0,0:0:0:0:
375,168,6060,5,0,0:0:0:0:
405,143,6134,1,0,0:0:0:0:
436,117,6208,1,0,0:0:0:0:
466,91,6282,1,0,0:0:0:0:
493,61,6356,6,0,P|436:42|364:60,1,120
342,69,6652,2,0,P|284:90|221:84,1,120
190,67,6949,2,0,P|165:124|171:229,1,160
149,331,7393,5,0,0:0:0:0:
167,222,7541,1,0,0:0:0:0:
167,222,7837,1,0,0:0:0:0:
167,222,8134,1,0,0:0:0:0:
34,90,9318,6,0,P|91:74|193:102,1,160
271,86,9763,2,0,P|238:163|142:162,1,160
73,148,10059,1,0,0:0:0:0:
94,248,10207,1,0,0:0:0:0:
260,329,10503,6,0,L|289:228,1,80
204,239,10800,2,0,L|161:142,1,95.9999970703126
318,141,11096,1,0,0:0:0:0:
318,141,11392,2,0,L|272:24,1,120.000004577637
178,14,11837,5,0,0:0:0:0:
202,106,11985,1,0,0:0:0:0:
160,192,12133,1,0,0:0:0:0:
195,281,12281,6,0,L|273:264,1,60.0000022888184
314,177,12577,2,0,L|353:301,1,120.000004577637
404,256,13021,5,0,0:0:0:0:
314,177,13170,1,0,0:0:0:0:
355,80,13318,1,0,0:0:0:0:
279,10,13466,1,0,0:0:0:0:
227,296,13762,5,0,0:0:0:0:
197,297,13836,1,0,0:0:0:0:
167,298,13910,1,0,0:0:0:0:
138,300,13984,1,0,0:0:0:0:
110,300,14058,6,0,P|92:246|101:217,1,80
169,157,14355,2,0,P|191:200|176:247,1,100
113,113,14651,2,0,P|163:84|216:108,1,120.000004577637
122,180,14947,2,0,P|58:158|46:93,1,140.000001335144
130,102,15243,6,0,P|187:153|180:230,1,160
59,125,15539,2,0,P|79:43|164:34,1,180.000006866455
131,98,15836,2,0,L|268:224,1,98.0000009346008
379,30,16428,5,0,0:0:0:0:
307,120,16576,1,0,0:0:0:0:
330,243,16724,1,0,0:0:0:0:
234,312,16873,1,0,0:0:0:0:
36,267,17021,6,0,L|178:250,1,120.000004577637
90,220,17317,2,0,L|209:234,1,120.000004577637
306,188,17613,2,0,P|284:248|331:338,1,120.000004577637
414,249,18058,1,0,0:0:0:0:
205,232,18206,5,0,0:0:0:0:
200,204,18428,5,0,0:0:0:0:
196,176,18650,5,0,0:0:0:0:
84,140,18798,6,0,P|134:102|166:103,1,80
220,52,19094,2,0,P|233:98|210:154,1,80
154,186,19391,2,0,P|232:200|279:174,1,120.000004577637
282,112,19687,2,0,P|322:137|337:194,1,80
299,228,19983,6,0,P|350:238|395:205,1,80
396,151,20279,2,0,P|426:167|448:214,1,80
122,305,20872,6,0,P|165:283|201:292,1,80
271,310,21168,2,0,P|275:271|255:238,1,80
204,163,21612,2,0,P|174:189|168:228,1,80
293,50,22057,5,0,0:0:0:0:
330,153,22205,1,0,0:0:0:0:
268,253,22353,2,0,P|337:264|396:232,1,120.000004577637
448,297,22649,2,0,P|459:228|427:169,1,120.000004577637
377,117,22945,6,0,P|432:96|490:108,1,120.000004577637
232,33,23538,6,0,P|191:76|157:86,1,80
95,110,23834,2,0,P|136:153|170:163,1,80
380,171,24279,1,0,0:0:0:0:
405,184,24427,2,0,P|436:227|445:273,1,80
320,289,24723,5,0,0:0:0:0:
165,148,25019,1,0,0:0:0:0:
114,325,25167,1,0,0:0:0:0:
114,325,25760,5,0,0:0:0:0:
72,205,25908,2,0,P|136:178|175:182,1,80
210,116,26204,2,0,P|237:180|233:219,1,80
191,255,26648,2,0,P|246:269|285:252,1,80
354,143,26982,5,0,0:0:0:0:
234,50,27241,2,0,P|145:51|99:83,1,120.000004577637
64,146,27574,2,0,P|153:145|199:113,1,120.000004577637
468,88,28278,6,0,L|380:79,1,80
276,172,28426,2,0,L|364:163,1,80
261,200,28574,2,0,L|349:191,1,80
184,29,28722,6,0,P|178:65|191:122,1,80
330,211,28870,2,0,P|336:175|323:118,1,80
356,231,29018,2,0,P|362:195|349:138,1,80
131,111,29166,6,0,L|242:119,1,80
308,92,29315,2,0,L|197:100,1,80
117,135,29463,2,0,L|228:143,1,80
370,335,29611,6,0,L|378:224,1,80
351,158,29760,2,0,L|359:269,1,80
393,349,29908,2,0,L|401:238,1,80
221,287,30055,6,0,P|267:270|303:286,1,80
156,174,30203,2,0,P|181:216|171:254,1,80
256,90,30351,2,0,P|218:122|179:119,1,80
355,174,30500,2,0,P|318:143|313:104,1,80
396,73,30648,6,0,P|317:45|266:51,1,120.000004577637
164,55,30944,2,0,P|202:115|267:135,1,120.000004577637
181,355,31240,5,0,0:0:0:0:
311,53,31388,1,0,0:0:0:0:
331,365,31536,1,0,0:0:0:0:
161,18,31684,1,0,0:0:0:0:
92,193,31833,6,0,L|58:331,1,120.000004577637
211,110,32129,2,0,L|245:241,1,120.000004577637
408,25,32425,5,0,0:0:0:0:
463,211,32573,1,0,0:0:0:0:
264,87,32721,1,0,0:0:0:0:
424,121,32869,5,0,0:0:0:0:
344,104,32943,1,0,0:0:0:0:
264,87,33018,1,0,0:0:0:0:
144,7,33166,5,0,0:0:0:0:
81,307,33314,1,0,0:0:0:0:
31,157,33462,1,0,0:0:0:0:
31,157,33610,6,0,P|117:130|182:160,1,160
245,84,33906,2,0,P|270:167|194:273,1,160
222,318,34202,2,0,P|159:274|152:197,1,160
91,148,34499,6,0,P|194:128|226:197,1,160
422,207,34943,1,0,0:0:0:0:
201,168,35091,1,0,0:0:0:0:
311,187,35239,1,0,0:0:0:0:
91,148,35387,6,0,L|47:308,1,160
244,41,35684,2,0,L|320:207,1,160
420,57,35980,5,0,0:0:0:0:
432,239,36128,1,0,0:0:0:0:
265,156,36276,1,0,0:0:0:0:
104,246,36424,1,0,0:0:0:0:
82,87,36572,6,0,L|106:267,1,160
404,76,36869,2,0,L|228:176,1,160
160,26,37165,5,0,0:0:0:0:
53,328,37313,1,0,0:0:0:0:
399,242,37461,5,0,0:0:0:0:
59,37,37609,1,0,0:0:0:0:
211,345,37757,6,0,P|226:286|196:186,1,160
71,76,38202,5,0,0:0:0:0:
159,78,38350,1,0,0:0:0:0:
247,80,38498,1,0,0:0:0:0:
113,153,38646,1,0,0:0:0:0:
201,155,38794,5,0,0:0:0:0:
155,230,38942,1,0,0:0:0:0:
159,78,39090,1,0,0:0:0:0:
155,230,39239,1,0,0:0:0:0:
421,51,39535,6,0,P|430:142|416:174,1,120
346,104,39979,2,0,L|232:90,1,95.9999970703126
31,272,40423,5,0,0:0:0:0:
109,194,40720,1,0,0:0:0:0:
205,336,41016,1,0,0:0:0:0:
286,126,41312,5,0,0:0:0:0:
433,232,41608,1,0,0:0:0:0:
413,52,41905,1,0,0:0:0:0:
347,342,42201,1,0,0:0:0:0:
190,317,42497,5,0,0:0:0:0:
58,216,42793,1,0,0:0:0:0:
279,192,43090,1,0,0:0:0:0:
450,155,43386,1,0,0:0:0:0:
179,33,43682,5,0,0:0:0:0:
191,307,43978,1,0,0:0:0:0:
25,199,44275,6,0,L|82:181,1,55.9999982910157
241,108,44497,2,0,L|251:177,1,55.9999982910157
420,273,44719,2,0,L|376:237,2,55.9999982910157
321,95,45163,5,0,0:0:0:0:
251,326,45460,1,0,0:0:0:0:
186,207,45756,1,0,0:0:0:0:
32,72,46052,5,0,0:0:0:0:
188,52,46348,1,0,0:0:0:0:
362,85,46644,1,0,0:0:0:0:
486,34,46941,1,0,0:0:0:0:
473,297,47237,5,0,0:0:0:0:
288,209,47533,1,0,0:0:0:0:
35,46,47829,5,0,0:0:0:0:
119,58,47978,1,0,0:0:0:0:
196,15,48126,1,0,0:0:0:0:
281,33,48274,1,0,0:0:0:0:
496,377,48422,5,0,0:0:0:0:
4,145,48570,1,0,0:0:0:0:
493,16,48718,1,0,0:0:0:0:
