osu file format v14

[General]
AudioFilename: Nightcore - Make A Move.mp3
AudioLeadIn: 0
PreviewTime: 39505
Countdown: 0
SampleSet: Normal
StackLeniency: 0.7
Mode: 3
LetterboxInBreaks: 0
SpecialStyle: 0
WidescreenStoryboard: 1

[Editor]
Bookmarks: 129579
DistanceSpacing: 1.2
BeatDivisor: 4
GridSize: 4
TimelineZoom: 1.5

[Metadata]
Title:Make A Move (Nightcore Mix)
TitleUnicode:Make A Move (Nightcore Mix)
Artist:Icon For Hire
ArtistUnicode:Icon For Hire
Creator:mike91lau
Version:7K HD
Source:
Tags:
BeatmapID:504605
BeatmapSetID:214816

[Difficulty]
HPDrainRate:7.5
CircleSize:7
OverallDifficulty:7.5
ApproachRate:5
SliderMultiplier:1.4
SliderTickRate:1

[Events]
//Background and Video events
0,0,"45423807.jpg",0,0
//Break Periods
//Storyboard Layer 0 (Background)
//Storyboard Layer 1 (Fail)
//Storyboard Layer 2 (Pass)
//Storyboard Layer 3 (Foreground)
//Storyboard Layer 4 (Overlay)
//Storyboard Sound Samples

[TimingPoints]
987,296.296296296296,4,1,0,8,1,0
40098,-95.2380952380952,4,1,0,8,0,1
48986,-100,4,1,0,8,0,0
80394,-95.2380952380952,4,1,0,8,0,1
88986,-100,4,1,0,8,0,0
130172,-95.2380952380952,4,1,0,8,0,1
138764,-100,4,1,0,8,0,0

[HitObjects]
64,192,9283,5,0,0:0:0:0:
109,192,9431,1,0,0:0:0:0:
182,192,9579,1,0,0:0:0:0:
329,192,9727,1,0,0:0:0:0:
109,192,9875,1,0,0:0:0:0:
402,192,9875,1,0,0:0:0:0:
256,192,9875,128,0,10172:0:0:0:0:
475,192,10172,1,0,0:0:0:0:
36,192,10172,1,0,0:0:0:0:
402,192,10320,1,0,0:0:0:0:
329,192,10468,1,0,0:0:0:0:
182,192,10616,1,0,0:0:0:0:
109,192,10764,1,0,0:0:0:0:
36,192,10912,1,0,0:0:0:0:
475,192,11061,1,0,0:0:0:0:
109,192,11061,1,0,0:0:0:0:
256,192,11061,128,0,11357:0:0:0:0:
182,192,11357,1,0,0:0:0:0:
402,192,11357,1,0,0:0:0:0:
64,192,11653,1,0,0:0:0:0:
320,192,11801,1,0,0:0:0:0:
109,192,11949,1,0,0:0:0:0:
402,192,12098,1,0,0:0:0:0:
475,192,12246,1,0,0:0:0:0:
182,192,12246,1,0,0:0:0:0:
329,192,12246,1,0,0:0:0:0:
329,192,12542,1,0,0:0:0:0:
36,192,12542,1,0,0:0:0:0:
182,192,12542,1,0,0:0:0:0:
64,192,12838,128,0,13135:0:0:0:0:
109,192,12838,1,0,0:0:0:0:
182,192,12986,128,0,13135:0:0:0:0:
402,192,12986,1,0,0:0:0:0:
475,192,13135,128,0,13431:0:0:0:0:
109,192,13135,1,0,0:0:0:0:
329,192,13283,128,0,13431:0:0:0:0:
402,192,13283,1,0,0:0:0:0:
64,192,13431,1,0,0:0:0:0:
256,192,13431,1,0,0:0:0:0:
109,192,13579,1,0,0:0:0:0:
475,192,13727,1,0,0:0:0:0:
256,192,13727,1,0,0:0:0:0:
402,192,13875,1,0,0:0:0:0:
109,192,14024,1,0,0:0:0:0:
64,192,14024,1,0,0:0:0:0:
320,192,14172,1,0,0:0:0:0:
109,192,14320,1,0,0:0:0:0:
182,192,14320,1,0,0:0:0:0:
402,192,14468,1,0,0:0:0:0:
182,192,14616,1,0,0:0:0:0:
256,192,14616,1,0,0:0:0:0:
475,192,14764,1,0,0:0:0:0:
256,192,14912,1,0,0:0:0:0:
182,192,14912,1,0,0:0:0:0:
448,192,15209,1,0,0:0:0:0:
402,192,15209,1,0,0:0:0:0:
192,192,15357,1,0,0:0:0:0:
329,192,15505,1,0,0:0:0:0:
402,192,15505,1,0,0:0:0:0:
109,192,15653,1,0,0:0:0:0:
329,192,15801,1,0,0:0:0:0:
256,192,15801,1,0,0:0:0:0:
36,192,15949,1,0,0:0:0:0:
256,192,16098,1,0,0:0:0:0:
320,192,16098,1,0,0:0:0:0:
475,192,16394,1,0,0:0:0:0:
109,192,16394,1,0,0:0:0:0:
256,192,16542,1,0,0:0:0:0:
36,192,16690,1,0,0:0:0:0:
329,192,16690,1,0,0:0:0:0:
256,192,16838,1,0,0:0:0:0:
109,192,16986,1,0,0:0:0:0:
402,192,16986,1,0,0:0:0:0:
256,192,17135,1,0,0:0:0:0:
182,192,17283,1,0,0:0:0:0:
475,192,17283,1,0,0:0:0:0:
256,192,17431,1,0,0:0:0:0:
36,192,17579,1,0,0:0:0:0:
475,192,17579,1,0,0:0:0:0:
256,192,17727,1,0,0:0:0:0:
192,192,17875,1,0,0:0:0:0:
320,192,17875,1,0,0:0:0:0:
256,192,18024,128,0,18764:0:0:0:0:
64,192,18172,1,0,0:0:0:0:
329,192,18172,1,0,0:0:0:0:
109,192,18394,1,0,0:0:0:0:
402,192,18394,1,0,0:0:0:0:
475,192,18616,1,0,0:0:0:0:
182,192,18616,1,0,0:0:0:0:
64,192,18764,1,0,0:0:0:0:
329,192,18764,1,0,0:0:0:0:
109,192,18912,1,0,0:0:0:0:
64,192,19061,1,0,0:0:0:0:
256,192,19209,1,0,0:0:0:0:
182,192,19357,1,0,0:0:0:0:
448,192,19357,1,0,0:0:0:0:
402,192,19505,1,0,0:0:0:0:
475,192,19653,1,0,0:0:0:0:
256,192,19801,1,0,0:0:0:0:
109,192,19949,1,0,0:0:0:0:
329,192,19949,1,0,0:0:0:0:
182,192,20098,1,0,0:0:0:0:
256,192,20246,1,0,0:0:0:0:
329,192,20394,1,0,0:0:0:0:
402,192,20542,1,0,0:0:0:0:
182,192,20542,1,0,0:0:0:0:
109,192,20690,1,0,0:0:0:0:
256,192,20838,1,0,0:0:0:0:
402,192,20986,1,0,0:0:0:0:
329,192,21135,1,0,0:0:0:0:
109,192,21135,1,0,0:0:0:0:
192,192,21283,1,0,0:0:0:0:
329,192,21431,1,0,0:0:0:0:
256,192,21579,1,0,0:0:0:0:
64,192,21727,1,0,0:0:0:0:
109,192,21727,1,0,0:0:0:0:
475,192,21875,1,0,0:0:0:0:
320,192,22024,1,0,0:0:0:0:
192,192,22172,1,0,0:0:0:0:
402,192,22320,1,0,0:0:0:0:
64,192,22320,128,0,22616:0:0:0:0:
256,192,22468,1,0,0:0:0:0:
109,192,22616,1,0,0:0:0:0:
329,192,22764,1,0,0:0:0:0:
448,192,22912,128,0,23209:0:0:0:0:
109,192,22912,1,0,0:0:0:0:
256,192,23061,1,0,0:0:0:0:
402,192,23209,1,0,0:0:0:0:
182,192,23357,1,0,0:0:0:0:
256,192,23505,1,0,0:0:0:0:
402,192,23505,1,0,0:0:0:0:
475,192,23653,1,0,0:0:0:0:
402,192,23801,1,0,0:0:0:0:
329,192,23949,1,0,0:0:0:0:
182,192,24098,1,0,0:0:0:0:
402,192,24098,1,0,0:0:0:0:
329,192,24246,1,0,0:0:0:0:
256,192,24394,1,0,0:0:0:0:
329,192,24542,1,0,0:0:0:0:
256,192,24690,1,0,0:0:0:0:
109,192,24690,1,0,0:0:0:0:
182,192,24838,1,0,0:0:0:0:
256,192,24986,1,0,0:0:0:0:
192,192,25135,1,0,0:0:0:0:
109,192,25283,1,0,0:0:0:0:
64,192,25283,1,0,0:0:0:0:
182,192,25431,1,0,0:0:0:0:
109,192,25579,1,0,0:0:0:0:
36,192,25727,1,0,0:0:0:0:
475,192,25875,1,0,0:0:0:0:
402,192,26024,1,0,0:0:0:0:
36,192,26320,1,0,0:0:0:0:
109,192,26468,1,0,0:0:0:0:
192,192,26616,1,0,0:0:0:0:
475,192,26912,1,0,0:0:0:0:
402,192,27061,1,0,0:0:0:0:
329,192,27209,128,0,27653:0:0:0:0:
64,192,28246,1,0,0:0:0:0:
320,192,28246,1,0,0:0:0:0:
256,192,28246,128,0,28542:0:0:0:0:
109,192,28394,1,0,0:0:0:0:
448,192,28542,1,0,0:0:0:0:
109,192,28690,1,0,0:0:0:0:
402,192,28690,1,0,0:0:0:0:
256,192,28690,128,0,28986:0:0:0:0:
192,192,28838,1,0,0:0:0:0:
402,192,28986,1,0,0:0:0:0:
320,192,29135,1,0,0:0:0:0:
182,192,29135,1,0,0:0:0:0:
256,192,29135,128,0,29431:0:0:0:0:
109,192,29283,1,0,0:0:0:0:
329,192,29431,1,0,0:0:0:0:
402,192,29579,1,0,0:0:0:0:
64,192,29579,1,0,0:0:0:0:
256,192,29579,128,0,29875:0:0:0:0:
192,192,29727,1,0,0:0:0:0:
448,192,29875,1,0,0:0:0:0:
64,192,30024,128,0,30616:0:0:0:0:
402,192,30024,1,0,0:0:0:0:
448,192,30172,1,0,0:0:0:0:
109,192,30320,1,0,0:0:0:0:
182,192,30468,1,0,0:0:0:0:
109,192,30616,1,0,0:0:0:0:
256,192,30616,1,0,0:0:0:0:
402,192,30912,1,0,0:0:0:0:
256,192,30912,1,0,0:0:0:0:
320,192,31209,1,0,0:0:0:0:
402,192,31357,1,0,0:0:0:0:
182,192,31505,1,0,0:0:0:0:
109,192,31653,1,0,0:0:0:0:
402,192,31801,1,0,0:0:0:0:
182,192,31801,1,0,0:0:0:0:
109,192,32098,1,0,0:0:0:0:
329,192,32098,1,0,0:0:0:0:
36,192,32394,1,0,0:0:0:0:
109,192,32542,1,0,0:0:0:0:
448,192,32690,1,0,0:0:0:0:
402,192,32838,1,0,0:0:0:0:
256,192,32986,1,0,0:0:0:0:
36,192,32986,1,0,0:0:0:0:
256,192,33283,1,0,0:0:0:0:
475,192,33283,1,0,0:0:0:0:
182,192,33579,1,0,0:0:0:0:
448,192,33727,1,0,0:0:0:0:
329,192,33875,1,0,0:0:0:0:
36,192,34024,1,0,0:0:0:0:
109,192,34172,1,0,0:0:0:0:
320,192,34172,1,0,0:0:0:0:
192,192,34468,1,0,0:0:0:0:
402,192,34468,1,0,0:0:0:0:
320,192,34764,1,0,0:0:0:0:
182,192,34912,1,0,0:0:0:0:
402,192,35061,1,0,0:0:0:0:
109,192,35209,1,0,0:0:0:0:
475,192,35357,1,0,0:0:0:0:
256,192,35357,1,0,0:0:0:0:
64,192,35653,1,0,0:0:0:0:
256,192,35653,1,0,0:0:0:0:
64,192,35949,1,0,0:0:0:0:
182,192,36098,1,0,0:0:0:0:
320,192,36246,1,0,0:0:0:0:
448,192,36394,1,0,0:0:0:0:
256,192,36542,1,0,0:0:0:0:
109,192,36542,1,0,0:0:0:0:
256,192,36838,1,0,0:0:0:0:
402,192,36838,1,0,0:0:0:0:
402,192,37135,1,0,0:0:0:0:
320,192,37283,1,0,0:0:0:0:
182,192,37431,1,0,0:0:0:0:
109,192,37579,1,0,0:0:0:0:
448,192,37727,1,0,0:0:0:0:
256,192,37727,1,0,0:0:0:0:
109,192,37875,1,0,0:0:0:0:
64,192,38024,1,0,0:0:0:0:
256,192,38024,1,0,0:0:0:0:
402,192,38172,1,0,0:0:0:0:
448,192,38320,1,0,0:0:0:0:
256,192,38320,1,0,0:0:0:0:
329,192,38468,1,0,0:0:0:0:
64,192,38616,1,0,0:0:0:0:
256,192,38616,1,0,0:0:0:0:
182,192,38764,1,0,0:0:0:0:
109,192,38912,1,0,0:0:0:0:
402,192,38912,1,0,0:0:0:0:
256,192,39061,1,0,0:0:0:0:
182,192,39209,1,0,0:0:0:0:
475,192,39209,1,0,0:0:0:0:
256,192,39357,1,0,0:0:0:0:
329,192,39505,1,0,0:0:0:0:
36,192,39505,1,0,0:0:0:0:
402,192,39727,1,0,0:0:0:0:
109,192,39727,1,0,0:0:0:0:
182,192,39949,1,0,0:0:0:0:
475,192,39949,1,0,0:0:0:0:
402,192,40098,1,0,0:0:0:0:
36,192,40098,1,0,0:0:0:0:
256,192,40098,1,0,0:0:0:0:
109,192,40394,1,0,0:0:0:0:
320,192,40394,1,0,0:0:0:0:
256,192,40690,1,0,0:0:0:0:
402,192,40986,1,0,0:0:0:0:
182,192,40986,1,0,0:0:0:0:
448,192,41283,128,0,41579:0:0:0:0:
402,192,41283,1,0,0:0:0:0:
36,192,41283,1,0,0:0:0:0:
320,192,41579,128,0,41875:0:0:0:0:
256,192,41579,1,0,0:0:0:0:
192,192,41875,128,0,42172:0:0:0:0:
448,192,41875,1,0,0:0:0:0:
109,192,41875,1,0,0:0:0:0:
64,192,42172,128,0,42468:0:0:0:0:
329,192,42172,1,0,0:0:0:0:
192,192,42468,1,0,0:0:0:0:
475,192,42468,1,0,0:0:0:0:
36,192,42764,1,0,0:0:0:0:
402,192,42764,1,0,0:0:0:0:
256,192,43061,1,0,0:0:0:0:
36,192,43357,1,0,0:0:0:0:
402,192,43357,1,0,0:0:0:0:
320,192,43653,1,0,0:0:0:0:
109,192,43653,1,0,0:0:0:0:
192,192,43949,1,0,0:0:0:0:
448,192,43949,1,0,0:0:0:0:
320,192,44246,1,0,0:0:0:0:
402,192,44320,1,0,0:0:0:0:
109,192,44394,1,0,0:0:0:0:
192,192,44468,1,0,0:0:0:0:
320,192,44542,1,0,0:0:0:0:
36,192,44616,1,0,0:0:0:0:
448,192,44690,1,0,0:0:0:0:
402,192,44764,1,0,0:0:0:0:
192,192,44838,1,0,0:0:0:0:
64,192,45135,1,0,0:0:0:0:
256,192,45135,1,0,0:0:0:0:
329,192,45431,1,0,0:0:0:0:
448,192,45727,1,0,0:0:0:0:
256,192,45727,1,0,0:0:0:0:
64,192,46024,128,0,46320:0:0:0:0:
109,192,46024,1,0,0:0:0:0:
475,192,46024,1,0,0:0:0:0:
192,192,46320,128,0,46616:0:0:0:0:
256,192,46320,1,0,0:0:0:0:
320,192,46616,128,0,46912:0:0:0:0:
64,192,46616,1,0,0:0:0:0:
402,192,46616,1,0,0:0:0:0:
448,192,46912,128,0,47209:0:0:0:0:
192,192,46912,1,0,0:0:0:0:
320,192,47209,1,0,0:0:0:0:
36,192,47209,1,0,0:0:0:0:
448,192,47505,1,0,0:0:0:0:
182,192,47505,1,0,0:0:0:0:
402,192,47801,1,0,0:0:0:0:
109,192,47801,1,0,0:0:0:0:
36,192,48098,1,0,0:0:0:0:
256,192,48098,1,0,0:0:0:0:
109,192,48394,1,0,0:0:0:0:
402,192,48468,1,0,0:0:0:0:
64,192,48542,1,0,0:0:0:0:
192,192,48616,1,0,0:0:0:0:
448,192,48690,1,0,0:0:0:0:
109,192,48764,1,0,0:0:0:0:
320,192,48838,1,0,0:0:0:0:
402,192,48912,1,0,0:0:0:0:
64,192,48986,1,0,0:0:0:0:
192,192,48986,1,0,0:0:0:0:
475,192,48986,1,0,0:0:0:0:
36,192,49579,1,0,0:0:0:0:
256,192,49579,1,0,0:0:0:0:
448,192,49579,1,0,0:0:0:0:
402,192,49727,1,0,0:0:0:0:
64,192,49875,1,0,0:0:0:0:
448,192,49875,1,0,0:0:0:0:
109,192,50024,1,0,0:0:0:0:
329,192,50172,1,0,0:0:0:0:
182,192,50320,1,0,0:0:0:0:
109,192,50468,1,0,0:0:0:0:
329,192,50468,1,0,0:0:0:0:
402,192,50616,1,0,0:0:0:0:
109,192,50764,1,0,0:0:0:0:
475,192,50912,1,0,0:0:0:0:
329,192,51061,1,0,0:0:0:0:
64,192,51061,1,0,0:0:0:0:
109,192,51209,1,0,0:0:0:0:
402,192,51357,1,0,0:0:0:0:
182,192,51505,1,0,0:0:0:0:
475,192,51505,1,0,0:0:0:0:
109,192,51653,1,0,0:0:0:0:
329,192,51653,1,0,0:0:0:0:
64,192,51801,1,0,0:0:0:0:
448,192,51949,1,0,0:0:0:0:
256,192,51949,1,0,0:0:0:0:
109,192,52098,1,0,0:0:0:0:
256,192,52246,1,0,0:0:0:0:
36,192,52246,1,0,0:0:0:0:
36,192,52542,1,0,0:0:0:0:
256,192,52542,1,0,0:0:0:0:
402,192,52690,1,0,0:0:0:0:
256,192,52838,1,0,0:0:0:0:
475,192,52838,1,0,0:0:0:0:
182,192,53135,1,0,0:0:0:0:
448,192,53135,1,0,0:0:0:0:
256,192,53283,1,0,0:0:0:0:
36,192,53431,1,0,0:0:0:0:
320,192,53431,1,0,0:0:0:0:
64,192,53727,1,0,0:0:0:0:
329,192,53727,1,0,0:0:0:0:
256,192,53875,1,0,0:0:0:0:
192,192,54024,1,0,0:0:0:0:
475,192,54024,1,0,0:0:0:0:
64,192,54320,1,0,0:0:0:0:
256,192,54320,1,0,0:0:0:0:
402,192,54320,128,0,54616:0:0:0:0:
448,192,54468,1,0,0:0:0:0:
192,192,54616,1,0,0:0:0:0:
36,192,54616,1,0,0:0:0:0:
256,192,54912,1,0,0:0:0:0:
448,192,54912,1,0,0:0:0:0:
109,192,54912,128,0,55209:0:0:0:0:
64,192,55061,1,0,0:0:0:0:
320,192,55209,1,0,0:0:0:0:
475,192,55209,1,0,0:0:0:0:
64,192,55505,1,0,0:0:0:0:
256,192,55505,1,0,0:0:0:0:
109,192,55505,128,0,55801:0:0:0:0:
475,192,55653,1,0,0:0:0:0:
192,192,55801,1,0,0:0:0:0:
329,192,55801,1,0,0:0:0:0:
256,192,56098,1,0,0:0:0:0:
448,192,56098,1,0,0:0:0:0:
402,192,56098,128,0,56394:0:0:0:0:
36,192,56246,1,0,0:0:0:0:
320,192,56394,1,0,0:0:0:0:
182,192,56394,1,0,0:0:0:0:
36,192,56690,1,0,0:0:0:0:
192,192,56690,1,0,0:0:0:0:
256,192,56838,1,0,0:0:0:0:
329,192,56986,1,0,0:0:0:0:
192,192,56986,1,0,0:0:0:0:
320,192,57283,1,0,0:0:0:0:
448,192,57283,1,0,0:0:0:0:
256,192,57431,1,0,0:0:0:0:
182,192,57579,1,0,0:0:0:0:
320,192,57579,1,0,0:0:0:0:
256,192,57727,1,0,0:0:0:0:
192,192,57875,1,0,0:0:0:0:
36,192,57875,1,0,0:0:0:0:
109,192,58024,1,0,0:0:0:0:
256,192,58024,1,0,0:0:0:0:
329,192,58172,1,0,0:0:0:0:
475,192,58172,1,0,0:0:0:0:
402,192,58320,1,0,0:0:0:0:
256,192,58320,1,0,0:0:0:0:
192,192,58468,1,0,0:0:0:0:
320,192,58468,1,0,0:0:0:0:
36,192,58468,1,0,0:0:0:0:
64,192,59061,1,0,0:0:0:0:
475,192,59061,1,0,0:0:0:0:
182,192,59209,1,0,0:0:0:0:
329,192,59209,1,0,0:0:0:0:
475,192,59357,1,0,0:0:0:0:
36,192,59357,1,0,0:0:0:0:
256,192,59653,1,0,0:0:0:0:
320,192,59801,1,0,0:0:0:0:
192,192,59801,1,0,0:0:0:0:
192,192,60098,1,0,0:0:0:0:
64,192,60098,1,0,0:0:0:0:
320,192,60246,1,0,0:0:0:0:
448,192,60246,1,0,0:0:0:0:
256,192,60838,1,0,0:0:0:0:
64,192,61431,1,0,0:0:0:0:
402,192,61431,1,0,0:0:0:0:
109,192,61579,1,0,0:0:0:0:
448,192,61579,1,0,0:0:0:0:
329,192,61727,1,0,0:0:0:0:
182,192,61727,1,0,0:0:0:0:
256,192,62024,1,0,0:0:0:0:
329,192,62172,1,0,0:0:0:0:
64,192,62172,1,0,0:0:0:0:
182,192,62468,1,0,0:0:0:0:
475,192,62468,1,0,0:0:0:0:
402,192,62616,1,0,0:0:0:0:
109,192,62616,1,0,0:0:0:0:
64,192,63209,1,0,0:0:0:0:
182,192,63209,1,0,0:0:0:0:
109,192,63431,1,0,0:0:0:0:
402,192,63431,1,0,0:0:0:0:
329,192,63653,1,0,0:0:0:0:
475,192,63653,1,0,0:0:0:0:
36,192,63801,1,0,0:0:0:0:
256,192,63801,1,0,0:0:0:0:
109,192,63949,1,0,0:0:0:0:
402,192,63949,1,0,0:0:0:0:
256,192,64098,1,0,0:0:0:0:
475,192,64098,1,0,0:0:0:0:
256,192,64394,1,0,0:0:0:0:
475,192,64542,1,0,0:0:0:0:
329,192,64542,1,0,0:0:0:0:
320,192,64838,1,0,0:0:0:0:
475,192,64838,1,0,0:0:0:0:
36,192,64986,1,0,0:0:0:0:
182,192,64986,1,0,0:0:0:0:
256,192,65579,1,0,0:0:0:0:
192,192,66024,1,0,0:0:0:0:
36,192,66172,1,0,0:0:0:0:
109,192,66172,1,0,0:0:0:0:
256,192,66320,1,0,0:0:0:0:
182,192,66468,1,0,0:0:0:0:
109,192,66468,1,0,0:0:0:0:
329,192,66616,1,0,0:0:0:0:
182,192,66764,1,0,0:0:0:0:
256,192,66764,1,0,0:0:0:0:
402,192,66912,1,0,0:0:0:0:
256,192,67061,1,0,0:0:0:0:
329,192,67061,1,0,0:0:0:0:
475,192,67209,1,0,0:0:0:0:
402,192,67357,1,0,0:0:0:0:
329,192,67357,1,0,0:0:0:0:
256,192,67505,1,0,0:0:0:0:
182,192,67653,1,0,0:0:0:0:
64,192,67801,1,0,0:0:0:0:
448,192,67801,1,0,0:0:0:0:
109,192,67949,1,0,0:0:0:0:
402,192,68098,1,0,0:0:0:0:
192,192,68246,1,0,0:0:0:0:
320,192,68394,1,0,0:0:0:0:
36,192,68542,1,0,0:0:0:0:
109,192,68690,1,0,0:0:0:0:
182,192,68838,1,0,0:0:0:0:
448,192,68986,1,0,0:0:0:0:
402,192,69135,1,0,0:0:0:0:
329,192,69283,1,0,0:0:0:0:
182,192,69431,1,0,0:0:0:0:
109,192,69579,1,0,0:0:0:0:
36,192,69727,1,0,0:0:0:0:
475,192,69727,1,0,0:0:0:0:
256,192,69727,1,0,0:0:0:0:
402,192,69875,1,0,0:0:0:0:
109,192,69875,1,0,0:0:0:0:
329,192,70024,1,0,0:0:0:0:
182,192,70024,1,0,0:0:0:0:
475,192,70172,1,0,0:0:0:0:
36,192,70172,1,0,0:0:0:0:
256,192,70172,1,0,0:0:0:0:
109,192,70320,1,0,0:0:0:0:
320,192,70320,1,0,0:0:0:0:
182,192,70468,1,0,0:0:0:0:
402,192,70468,1,0,0:0:0:0:
475,192,70616,1,0,0:0:0:0:
109,192,70616,1,0,0:0:0:0:
36,192,70764,1,0,0:0:0:0:
402,192,70764,1,0,0:0:0:0:
320,192,70912,1,0,0:0:0:0:
109,192,70912,1,0,0:0:0:0:
256,192,70912,1,0,0:0:0:0:
182,192,71209,1,0,0:0:0:0:
402,192,71209,1,0,0:0:0:0:
256,192,71209,1,0,0:0:0:0:
402,192,71505,1,0,0:0:0:0:
256,192,71505,1,0,0:0:0:0:
320,192,71653,1,0,0:0:0:0:
109,192,71801,1,0,0:0:0:0:
182,192,71949,1,0,0:0:0:0:
402,192,72098,1,0,0:0:0:0:
448,192,72098,1,0,0:0:0:0:
256,192,72098,1,0,0:0:0:0:
109,192,72394,1,0,0:0:0:0:
64,192,72394,1,0,0:0:0:0:
256,192,72394,1,0,0:0:0:0:
182,192,72690,1,0,0:0:0:0:
256,192,72690,1,0,0:0:0:0:
475,192,72838,1,0,0:0:0:0:
182,192,72986,1,0,0:0:0:0:
475,192,73135,1,0,0:0:0:0:
192,192,73283,1,0,0:0:0:0:
64,192,73283,1,0,0:0:0:0:
256,192,73283,1,0,0:0:0:0:
320,192,73579,1,0,0:0:0:0:
448,192,73579,1,0,0:0:0:0:
256,192,73579,1,0,0:0:0:0:
329,192,73875,1,0,0:0:0:0:
256,192,73875,1,0,0:0:0:0:
36,192,74024,1,0,0:0:0:0:
329,192,74172,1,0,0:0:0:0:
36,192,74320,1,0,0:0:0:0:
109,192,74468,1,0,0:0:0:0:
448,192,74468,1,0,0:0:0:0:
256,192,74468,1,0,0:0:0:0:
36,192,74764,1,0,0:0:0:0:
402,192,74764,1,0,0:0:0:0:
256,192,74764,1,0,0:0:0:0:
64,192,75061,1,0,0:0:0:0:
256,192,75061,1,0,0:0:0:0:
109,192,75209,1,0,0:0:0:0:
448,192,75357,1,0,0:0:0:0:
402,192,75505,1,0,0:0:0:0:
64,192,75653,1,0,0:0:0:0:
448,192,75653,1,0,0:0:0:0:
109,192,75653,1,0,0:0:0:0:
320,192,75949,1,0,0:0:0:0:
402,192,75949,1,0,0:0:0:0:
182,192,75949,1,0,0:0:0:0:
448,192,76246,1,0,0:0:0:0:
256,192,76246,1,0,0:0:0:0:
36,192,76394,1,0,0:0:0:0:
402,192,76542,1,0,0:0:0:0:
109,192,76690,1,0,0:0:0:0:
320,192,76838,1,0,0:0:0:0:
64,192,76838,1,0,0:0:0:0:
182,192,76838,1,0,0:0:0:0:
192,192,77135,1,0,0:0:0:0:
448,192,77135,1,0,0:0:0:0:
329,192,77135,1,0,0:0:0:0:
109,192,77431,1,0,0:0:0:0:
402,192,77431,1,0,0:0:0:0:
256,192,77431,1,0,0:0:0:0:
182,192,77579,1,0,0:0:0:0:
402,192,77727,1,0,0:0:0:0:
109,192,77875,1,0,0:0:0:0:
475,192,78024,1,0,0:0:0:0:
182,192,78024,1,0,0:0:0:0:
329,192,78024,1,0,0:0:0:0:
256,192,78172,1,0,0:0:0:0:
402,192,78320,1,0,0:0:0:0:
182,192,78320,1,0,0:0:0:0:
256,192,78468,1,0,0:0:0:0:
109,192,78616,1,0,0:0:0:0:
402,192,78616,1,0,0:0:0:0:
256,192,78764,1,0,0:0:0:0:
329,192,78912,1,0,0:0:0:0:
109,192,78912,1,0,0:0:0:0:
256,192,79061,1,0,0:0:0:0:
329,192,79209,1,0,0:0:0:0:
36,192,79209,1,0,0:0:0:0:
256,192,79357,1,0,0:0:0:0:
182,192,79505,1,0,0:0:0:0:
475,192,79505,1,0,0:0:0:0:
256,192,79653,1,0,0:0:0:0:
402,192,79801,1,0,0:0:0:0:
109,192,79801,1,0,0:0:0:0:
402,192,80024,1,0,0:0:0:0:
109,192,80024,1,0,0:0:0:0:
182,192,80246,1,0,0:0:0:0:
329,192,80246,1,0,0:0:0:0:
109,192,80394,1,0,0:0:0:0:
402,192,80394,128,0,80986:0:0:0:0:
256,192,80394,1,0,0:0:0:0:
448,192,80690,1,0,0:0:0:0:
36,192,80690,1,0,0:0:0:0:
109,192,80986,128,0,81579:0:0:0:0:
182,192,80986,1,0,0:0:0:0:
36,192,81283,1,0,0:0:0:0:
402,192,81283,1,0,0:0:0:0:
448,192,81579,128,0,82172:0:0:0:0:
256,192,81579,1,0,0:0:0:0:
402,192,81875,1,0,0:0:0:0:
36,192,81875,1,0,0:0:0:0:
109,192,82172,1,0,0:0:0:0:
256,192,82172,1,0,0:0:0:0:
192,192,82468,1,0,0:0:0:0:
320,192,82468,1,0,0:0:0:0:
64,192,82764,128,0,83357:0:0:0:0:
256,192,82764,1,0,0:0:0:0:
109,192,83061,1,0,0:0:0:0:
402,192,83061,1,0,0:0:0:0:
448,192,83357,128,0,83949:0:0:0:0:
256,192,83357,1,0,0:0:0:0:
402,192,83653,1,0,0:0:0:0:
109,192,83653,1,0,0:0:0:0:
109,192,83949,128,0,84542:0:0:0:0:
256,192,83949,1,0,0:0:0:0:
64,192,84246,1,0,0:0:0:0:
402,192,84246,1,0,0:0:0:0:
448,192,84542,1,0,0:0:0:0:
402,192,84690,1,0,0:0:0:0:
329,192,84838,1,0,0:0:0:0:
256,192,84986,1,0,0:0:0:0:
402,192,85135,128,0,85727:0:0:0:0:
182,192,85135,1,0,0:0:0:0:
475,192,85431,1,0,0:0:0:0:
36,192,85431,1,0,0:0:0:0:
109,192,85727,128,0,86320:0:0:0:0:
256,192,85727,1,0,0:0:0:0:
192,192,86024,1,0,0:0:0:0:
329,192,86024,1,0,0:0:0:0:
402,192,86320,128,0,86912:0:0:0:0:
256,192,86320,1,0,0:0:0:0:
36,192,86616,1,0,0:0:0:0:
329,192,86616,1,0,0:0:0:0:
109,192,86912,1,0,0:0:0:0:
256,192,86912,1,0,0:0:0:0:
448,192,87209,1,0,0:0:0:0:
329,192,87209,1,0,0:0:0:0:
64,192,87505,128,0,88098:0:0:0:0:
256,192,87505,1,0,0:0:0:0:
192,192,87801,1,0,0:0:0:0:
320,192,87801,1,0,0:0:0:0:
320,192,88098,128,0,88690:0:0:0:0:
109,192,88098,1,0,0:0:0:0:
192,192,88394,1,0,0:0:0:0:
448,192,88394,1,0,0:0:0:0:
64,192,88690,128,0,89283:0:0:0:0:
402,192,88690,1,0,0:0:0:0:
402,192,88986,1,0,0:0:0:0:
109,192,88986,1,0,0:0:0:0:
256,192,89135,1,0,0:0:0:0:
109,192,89283,1,0,0:0:0:0:
402,192,89283,1,0,0:0:0:0:
475,192,89431,1,0,0:0:0:0:
329,192,89579,1,0,0:0:0:0:
182,192,89727,1,0,0:0:0:0:
36,192,89875,1,0,0:0:0:0:
329,192,89875,1,0,0:0:0:0:
109,192,90098,1,0,0:0:0:0:
475,192,90320,1,0,0:0:0:0:
402,192,90468,1,0,0:0:0:0:
182,192,90468,1,0,0:0:0:0:
109,192,90616,1,0,0:0:0:0:
256,192,90764,1,0,0:0:0:0:
402,192,90912,1,0,0:0:0:0:
256,192,91061,1,0,0:0:0:0:
109,192,91061,1,0,0:0:0:0:
320,192,91283,1,0,0:0:0:0:
448,192,91283,1,0,0:0:0:0:
402,192,91505,1,0,0:0:0:0:
192,192,91505,1,0,0:0:0:0:
64,192,91653,1,0,0:0:0:0:
256,192,91653,1,0,0:0:0:0:
402,192,91949,1,0,0:0:0:0:
182,192,92098,1,0,0:0:0:0:
402,192,92246,1,0,0:0:0:0:
448,192,92246,1,0,0:0:0:0:
109,192,92468,1,0,0:0:0:0:
64,192,92468,1,0,0:0:0:0:
182,192,92690,1,0,0:0:0:0:
320,192,92690,1,0,0:0:0:0:
448,192,92838,1,0,0:0:0:0:
64,192,92838,1,0,0:0:0:0:
256,192,92838,1,0,0:0:0:0:
192,192,92986,1,0,0:0:0:0:
320,192,93135,1,0,0:0:0:0:
448,192,93283,1,0,0:0:0:0:
402,192,93431,1,0,0:0:0:0:
109,192,93431,1,0,0:0:0:0:
109,192,93653,1,0,0:0:0:0:
402,192,93653,1,0,0:0:0:0:
182,192,93875,1,0,0:0:0:0:
64,192,93875,1,0,0:0:0:0:
329,192,94024,1,0,0:0:0:0:
448,192,94024,1,0,0:0:0:0:
109,192,94024,1,0,0:0:0:0:
36,192,94320,128,0,94616:0:0:0:0:
109,192,94616,1,0,0:0:0:0:
402,192,94616,1,0,0:0:0:0:
256,192,94616,1,0,0:0:0:0:
320,192,94838,1,0,0:0:0:0:
182,192,94838,1,0,0:0:0:0:
192,192,95061,1,0,0:0:0:0:
320,192,95061,1,0,0:0:0:0:
64,192,95209,1,0,0:0:0:0:
448,192,95209,1,0,0:0:0:0:
256,192,95209,1,0,0:0:0:0:
109,192,95505,1,0,0:0:0:0:
64,192,95653,1,0,0:0:0:0:
109,192,95801,1,0,0:0:0:0:
402,192,95801,1,0,0:0:0:0:
256,192,95801,1,0,0:0:0:0:
192,192,96024,1,0,0:0:0:0:
329,192,96024,1,0,0:0:0:0:
320,192,96246,1,0,0:0:0:0:
192,192,96246,1,0,0:0:0:0:
64,192,96394,1,0,0:0:0:0:
448,192,96394,1,0,0:0:0:0:
256,192,96394,1,0,0:0:0:0:
109,192,96690,1,0,0:0:0:0:
402,192,96838,1,0,0:0:0:0:
109,192,96986,1,0,0:0:0:0:
329,192,96986,1,0,0:0:0:0:
475,192,97209,1,0,0:0:0:0:
182,192,97209,1,0,0:0:0:0:
448,192,97431,1,0,0:0:0:0:
192,192,97431,1,0,0:0:0:0:
36,192,97579,1,0,0:0:0:0:
256,192,97579,1,0,0:0:0:0:
402,192,97579,1,0,0:0:0:0:
109,192,97875,1,0,0:0:0:0:
64,192,98172,1,0,0:0:0:0:
109,192,98246,1,0,0:0:0:0:
192,192,98320,1,0,0:0:0:0:
475,192,98468,1,0,0:0:0:0:
402,192,98542,1,0,0:0:0:0:
329,192,98616,1,0,0:0:0:0:
182,192,98764,1,0,0:0:0:0:
402,192,98912,1,0,0:0:0:0:
109,192,99061,1,0,0:0:0:0:
448,192,99209,1,0,0:0:0:0:
64,192,99209,1,0,0:0:0:0:
256,192,99209,1,0,0:0:0:0:
192,192,99357,1,0,0:0:0:0:
402,192,99505,1,0,0:0:0:0:
109,192,99653,1,0,0:0:0:0:
475,192,99801,1,0,0:0:0:0:
182,192,99949,1,0,0:0:0:0:
320,192,99949,1,0,0:0:0:0:
256,192,100098,1,0,0:0:0:0:
402,192,100246,1,0,0:0:0:0:
64,192,100246,1,0,0:0:0:0:
256,192,100394,1,0,0:0:0:0:
475,192,100542,1,0,0:0:0:0:
109,192,100542,1,0,0:0:0:0:
182,192,100838,128,0,101135:0:0:0:0:
402,192,101135,1,0,0:0:0:0:
109,192,101283,1,0,0:0:0:0:
448,192,101431,1,0,0:0:0:0:
192,192,101579,1,0,0:0:0:0:
320,192,101579,1,0,0:0:0:0:
36,192,101727,1,0,0:0:0:0:
402,192,101875,1,0,0:0:0:0:
109,192,102024,1,0,0:0:0:0:
475,192,102172,1,0,0:0:0:0:
192,192,102320,1,0,0:0:0:0:
329,192,102320,1,0,0:0:0:0:
256,192,102468,1,0,0:0:0:0:
109,192,102616,1,0,0:0:0:0:
402,192,102616,1,0,0:0:0:0:
256,192,102764,1,0,0:0:0:0:
36,192,102912,1,0,0:0:0:0:
448,192,102912,1,0,0:0:0:0:
402,192,103209,128,0,103505:0:0:0:0:
109,192,103505,1,0,0:0:0:0:
182,192,103653,1,0,0:0:0:0:
329,192,103653,1,0,0:0:0:0:
448,192,103801,1,0,0:0:0:0:
109,192,103801,1,0,0:0:0:0:
329,192,103949,1,0,0:0:0:0:
64,192,103949,1,0,0:0:0:0:
402,192,104098,1,0,0:0:0:0:
192,192,104246,1,0,0:0:0:0:
109,192,104394,1,0,0:0:0:0:
402,192,104394,1,0,0:0:0:0:
475,192,104542,1,0,0:0:0:0:
36,192,104542,1,0,0:0:0:0:
320,192,104690,1,0,0:0:0:0:
192,192,104690,1,0,0:0:0:0:
256,192,104838,1,0,0:0:0:0:
109,192,104986,1,0,0:0:0:0:
402,192,104986,1,0,0:0:0:0:
256,192,105135,1,0,0:0:0:0:
36,192,105283,1,0,0:0:0:0:
475,192,105283,1,0,0:0:0:0:
109,192,105579,128,0,105875:0:0:0:0:
475,192,105875,1,0,0:0:0:0:
256,192,106024,1,0,0:0:0:0:
64,192,106172,1,0,0:0:0:0:
402,192,106320,1,0,0:0:0:0:
109,192,106320,1,0,0:0:0:0:
256,192,106468,1,0,0:0:0:0:
402,192,106616,1,0,0:0:0:0:
182,192,106764,1,0,0:0:0:0:
320,192,106912,1,0,0:0:0:0:
64,192,107061,1,0,0:0:0:0:
448,192,107061,1,0,0:0:0:0:
256,192,107209,1,0,0:0:0:0:
109,192,107357,1,0,0:0:0:0:
402,192,107357,1,0,0:0:0:0:
256,192,107505,1,0,0:0:0:0:
182,192,107653,1,0,0:0:0:0:
329,192,107653,1,0,0:0:0:0:
64,192,107949,128,0,108246:0:0:0:0:
475,192,108246,1,0,0:0:0:0:
320,192,108394,1,0,0:0:0:0:
64,192,108542,1,0,0:0:0:0:
448,192,108542,1,0,0:0:0:0:
192,192,108690,1,0,0:0:0:0:
64,192,108838,1,0,0:0:0:0:
448,192,108838,128,0,111209:0:0:0:0:
329,192,108838,1,0,0:0:0:0:
402,192,111209,1,0,0:0:0:0:
36,192,111357,1,0,0:0:0:0:
329,192,111653,1,0,0:0:0:0:
192,192,111801,1,0,0:0:0:0:
256,192,111949,1,0,0:0:0:0:
448,192,112246,1,0,0:0:0:0:
36,192,112394,1,0,0:0:0:0:
256,192,112542,1,0,0:0:0:0:
109,192,112838,1,0,0:0:0:0:
402,192,112986,1,0,0:0:0:0:
256,192,113135,1,0,0:0:0:0:
475,192,113431,1,0,0:0:0:0:
329,192,113579,1,0,0:0:0:0:
256,192,113727,1,0,0:0:0:0:
36,192,114024,1,0,0:0:0:0:
192,192,114172,1,0,0:0:0:0:
256,192,114320,1,0,0:0:0:0:
320,192,114616,1,0,0:0:0:0:
109,192,114764,1,0,0:0:0:0:
402,192,114764,1,0,0:0:0:0:
192,192,115061,1,0,0:0:0:0:
320,192,115061,1,0,0:0:0:0:
320,192,115357,1,0,0:0:0:0:
109,192,115357,1,0,0:0:0:0:
402,192,115653,1,0,0:0:0:0:
192,192,115653,1,0,0:0:0:0:
64,192,115949,1,0,0:0:0:0:
320,192,115949,1,0,0:0:0:0:
182,192,116098,1,0,0:0:0:0:
448,192,116098,1,0,0:0:0:0:
320,192,116246,1,0,0:0:0:0:
64,192,116246,1,0,0:0:0:0:
109,192,116542,1,0,0:0:0:0:
329,192,116690,1,0,0:0:0:0:
182,192,116838,1,0,0:0:0:0:
402,192,116986,1,0,0:0:0:0:
64,192,117135,1,0,0:0:0:0:
448,192,117135,1,0,0:0:0:0:
192,192,117283,1,0,0:0:0:0:
320,192,117283,1,0,0:0:0:0:
64,192,117431,1,0,0:0:0:0:
448,192,117431,1,0,0:0:0:0:
448,192,117727,1,0,0:0:0:0:
109,192,117875,1,0,0:0:0:0:
402,192,118024,1,0,0:0:0:0:
36,192,118172,1,0,0:0:0:0:
448,192,118320,1,0,0:0:0:0:
109,192,118320,1,0,0:0:0:0:
256,192,118320,1,0,0:0:0:0:
402,192,118468,1,0,0:0:0:0:
64,192,118616,1,0,0:0:0:0:
109,192,118764,1,0,0:0:0:0:
402,192,118764,1,0,0:0:0:0:
256,192,118764,1,0,0:0:0:0:
182,192,118912,1,0,0:0:0:0:
475,192,119061,1,0,0:0:0:0:
109,192,119209,1,0,0:0:0:0:
402,192,119209,1,0,0:0:0:0:
256,192,119209,1,0,0:0:0:0:
182,192,119357,1,0,0:0:0:0:
329,192,119505,1,0,0:0:0:0:
109,192,119653,1,0,0:0:0:0:
256,192,119727,1,0,0:0:0:0:
402,192,119801,1,0,0:0:0:0:
36,192,119949,1,0,0:0:0:0:
402,192,120098,1,0,0:0:0:0:
64,192,120246,1,0,0:0:0:0:
109,192,120320,1,0,0:0:0:0:
182,192,120394,1,0,0:0:0:0:
256,192,120468,1,0,0:0:0:0:
329,192,120542,1,0,0:0:0:0:
402,192,120616,1,0,0:0:0:0:
36,192,120690,1,0,0:0:0:0:
475,192,120690,1,0,0:0:0:0:
109,192,120838,1,0,0:0:0:0:
64,192,120986,1,0,0:0:0:0:
448,192,120986,1,0,0:0:0:0:
402,192,121135,1,0,0:0:0:0:
182,192,121283,1,0,0:0:0:0:
475,192,121431,1,0,0:0:0:0:
402,192,121579,1,0,0:0:0:0:
64,192,121579,1,0,0:0:0:0:
320,192,121727,1,0,0:0:0:0:
256,192,121875,1,0,0:0:0:0:
109,192,122024,1,0,0:0:0:0:
448,192,122172,1,0,0:0:0:0:
64,192,122172,1,0,0:0:0:0:
402,192,122320,1,0,0:0:0:0:
329,192,122468,1,0,0:0:0:0:
109,192,122616,1,0,0:0:0:0:
256,192,122764,1,0,0:0:0:0:
64,192,122764,1,0,0:0:0:0:
402,192,122912,1,0,0:0:0:0:
64,192,123061,128,0,123357:0:0:0:0:
448,192,123061,1,0,0:0:0:0:
256,192,123209,1,0,0:0:0:0:
109,192,123357,1,0,0:0:0:0:
402,192,123357,1,0,0:0:0:0:
256,192,123505,1,0,0:0:0:0:
109,192,123653,1,0,0:0:0:0:
402,192,123801,1,0,0:0:0:0:
320,192,123949,1,0,0:0:0:0:
182,192,123949,1,0,0:0:0:0:
109,192,124098,1,0,0:0:0:0:
402,192,124246,128,0,124542:0:0:0:0:
320,192,124246,1,0,0:0:0:0:
109,192,124394,1,0,0:0:0:0:
64,192,124542,1,0,0:0:0:0:
320,192,124542,1,0,0:0:0:0:
475,192,124690,1,0,0:0:0:0:
182,192,124838,1,0,0:0:0:0:
448,192,124986,1,0,0:0:0:0:
320,192,125061,1,0,0:0:0:0:
192,192,125135,1,0,0:0:0:0:
64,192,125209,1,0,0:0:0:0:
192,192,125283,1,0,0:0:0:0:
320,192,125357,1,0,0:0:0:0:
256,192,125431,1,0,0:0:0:0:
448,192,125431,1,0,0:0:0:0:
402,192,125579,1,0,0:0:0:0:
256,192,125727,1,0,0:0:0:0:
36,192,125727,1,0,0:0:0:0:
109,192,125875,1,0,0:0:0:0:
402,192,126024,1,0,0:0:0:0:
109,192,126172,1,0,0:0:0:0:
256,192,126320,1,0,0:0:0:0:
475,192,126320,1,0,0:0:0:0:
182,192,126468,1,0,0:0:0:0:
36,192,126616,1,0,0:0:0:0:
256,192,126764,1,0,0:0:0:0:
402,192,126912,1,0,0:0:0:0:
109,192,126912,1,0,0:0:0:0:
329,192,127061,1,0,0:0:0:0:
182,192,127209,1,0,0:0:0:0:
109,192,127357,1,0,0:0:0:0:
36,192,127505,1,0,0:0:0:0:
402,192,127505,1,0,0:0:0:0:
448,192,127653,1,0,0:0:0:0:
402,192,127801,1,0,0:0:0:0:
109,192,127801,128,0,128098:0:0:0:0:
256,192,127801,1,0,0:0:0:0:
64,192,128098,1,0,0:0:0:0:
402,192,128246,1,0,0:0:0:0:
448,192,128394,128,0,128690:0:0:0:0:
182,192,128394,1,0,0:0:0:0:
109,192,128690,1,0,0:0:0:0:
329,192,128838,1,0,0:0:0:0:
64,192,128986,128,0,129283:0:0:0:0:
402,192,128986,1,0,0:0:0:0:
182,192,128986,1,0,0:0:0:0:
329,192,129283,1,0,0:0:0:0:
109,192,129283,1,0,0:0:0:0:
402,192,129431,1,0,0:0:0:0:
64,192,129579,1,0,0:0:0:0:
448,192,129579,1,0,0:0:0:0:
109,192,129653,1,0,0:0:0:0:
402,192,129727,1,0,0:0:0:0:
448,192,129801,1,0,0:0:0:0:
64,192,129875,1,0,0:0:0:0:
109,192,129949,1,0,0:0:0:0:
402,192,130024,1,0,0:0:0:0:
448,192,130098,1,0,0:0:0:0:
256,192,130172,1,0,0:0:0:0:
109,192,130468,1,0,0:0:0:0:
448,192,130468,1,0,0:0:0:0:
256,192,130764,1,0,0:0:0:0:
402,192,131061,1,0,0:0:0:0:
182,192,131061,1,0,0:0:0:0:
109,192,131357,128,0,131653:0:0:0:0:
256,192,131357,1,0,0:0:0:0:
192,192,131653,128,0,131949:0:0:0:0:
475,192,131653,1,0,0:0:0:0:
329,192,131653,1,0,0:0:0:0:
402,192,131949,128,0,132246:0:0:0:0:
64,192,131949,1,0,0:0:0:0:
320,192,132246,128,0,132542:0:0:0:0:
256,192,132246,1,0,0:0:0:0:
109,192,132246,1,0,0:0:0:0:
109,192,132542,1,0,0:0:0:0:
448,192,132838,1,0,0:0:0:0:
256,192,132838,1,0,0:0:0:0:
109,192,133135,1,0,0:0:0:0:
329,192,133431,1,0,0:0:0:0:
192,192,133431,1,0,0:0:0:0:
402,192,133727,1,0,0:0:0:0:
109,192,134024,1,0,0:0:0:0:
402,192,134024,1,0,0:0:0:0:
64,192,134320,1,0,0:0:0:0:
109,192,134394,1,0,0:0:0:0:
475,192,134468,1,0,0:0:0:0:
402,192,134542,1,0,0:0:0:0:
109,192,134616,1,0,0:0:0:0:
182,192,134690,1,0,0:0:0:0:
402,192,134764,1,0,0:0:0:0:
320,192,134838,1,0,0:0:0:0:
256,192,134912,1,0,0:0:0:0:
109,192,135209,1,0,0:0:0:0:
402,192,135209,1,0,0:0:0:0:
256,192,135505,1,0,0:0:0:0:
448,192,135801,1,0,0:0:0:0:
36,192,135801,1,0,0:0:0:0:
192,192,136098,128,0,136394:0:0:0:0:
329,192,136098,1,0,0:0:0:0:
64,192,136394,128,0,136690:0:0:0:0:
475,192,136394,1,0,0:0:0:0:
182,192,136690,1,0,0:0:0:0:
320,192,136690,128,0,136986:0:0:0:0:
448,192,136986,128,0,137283:0:0:0:0:
36,192,136986,1,0,0:0:0:0:
320,192,137283,1,0,0:0:0:0:
192,192,137579,1,0,0:0:0:0:
256,192,137579,1,0,0:0:0:0:
109,192,137875,1,0,0:0:0:0:
448,192,138172,1,0,0:0:0:0:
402,192,138172,1,0,0:0:0:0:
36,192,138468,1,0,0:0:0:0:
109,192,138764,1,0,0:0:0:0:
475,192,138764,1,0,0:0:0:0:
182,192,139061,1,0,0:0:0:0:
329,192,139061,1,0,0:0:0:0:
256,192,139209,1,0,0:0:0:0:
402,192,139357,1,0,0:0:0:0:
109,192,139357,1,0,0:0:0:0:
256,192,139505,1,0,0:0:0:0:
182,192,139653,1,0,0:0:0:0:
329,192,139653,1,0,0:0:0:0:
36,192,139949,1,0,0:0:0:0:
475,192,139949,1,0,0:0:0:0:
402,192,140246,1,0,0:0:0:0:
320,192,140394,1,0,0:0:0:0:
109,192,140542,1,0,0:0:0:0:
64,192,140690,1,0,0:0:0:0:
192,192,140838,1,0,0:0:0:0:
402,192,140838,1,0,0:0:0:0:
256,192,140838,1,0,0:0:0:0:
329,192,141135,1,0,0:0:0:0:
64,192,141135,1,0,0:0:0:0:
256,192,141135,1,0,0:0:0:0:
109,192,141431,1,0,0:0:0:0:
192,192,141579,1,0,0:0:0:0:
402,192,141727,1,0,0:0:0:0:
448,192,141875,1,0,0:0:0:0:
64,192,142024,1,0,0:0:0:0:
109,192,142024,1,0,0:0:0:0:
256,192,142024,1,0,0:0:0:0:
402,192,142320,1,0,0:0:0:0:
448,192,142320,1,0,0:0:0:0:
256,192,142320,1,0,0:0:0:0:
329,192,142616,1,0,0:0:0:0:
402,192,142764,1,0,0:0:0:0:
192,192,142912,1,0,0:0:0:0:
109,192,143061,1,0,0:0:0:0:
320,192,143209,1,0,0:0:0:0:
402,192,143209,1,0,0:0:0:0:
256,192,143209,1,0,0:0:0:0:
192,192,143505,1,0,0:0:0:0:
109,192,143505,1,0,0:0:0:0:
256,192,143505,1,0,0:0:0:0:
320,192,143801,1,0,0:0:0:0:
109,192,143949,1,0,0:0:0:0:
402,192,144098,1,0,0:0:0:0:
192,192,144246,1,0,0:0:0:0:
320,192,144394,1,0,0:0:0:0:
109,192,144394,1,0,0:0:0:0:
256,192,144394,1,0,0:0:0:0:
192,192,144690,1,0,0:0:0:0:
402,192,144690,1,0,0:0:0:0:
256,192,144690,1,0,0:0:0:0:
109,192,144986,1,0,0:0:0:0:
329,192,145135,1,0,0:0:0:0:
182,192,145283,1,0,0:0:0:0:
402,192,145431,1,0,0:0:0:0:
109,192,145579,1,0,0:0:0:0:
329,192,145579,1,0,0:0:0:0:
256,192,145579,1,0,0:0:0:0:
192,192,145875,1,0,0:0:0:0:
402,192,145875,1,0,0:0:0:0:
256,192,145875,1,0,0:0:0:0:
109,192,146172,1,0,0:0:0:0:
320,192,146320,1,0,0:0:0:0:
192,192,146468,1,0,0:0:0:0:
402,192,146616,1,0,0:0:0:0:
109,192,146764,1,0,0:0:0:0:
329,192,146764,1,0,0:0:0:0:
256,192,146764,1,0,0:0:0:0:
182,192,147061,1,0,0:0:0:0:
402,192,147061,1,0,0:0:0:0:
256,192,147061,1,0,0:0:0:0:
109,192,147357,1,0,0:0:0:0:
192,192,147505,1,0,0:0:0:0:
64,192,147653,1,0,0:0:0:0:
256,192,147801,1,0,0:0:0:0:
402,192,147949,1,0,0:0:0:0:
329,192,148098,1,0,0:0:0:0:
475,192,148246,1,0,0:0:0:0:
