osu file format v13

[General]
AudioFilename: Nightcore - Make A Move.mp3
AudioLeadIn: 0
PreviewTime: 39505
Countdown: 0
SampleSet: None
StackLeniency: 0.7
Mode: 3
LetterboxInBreaks: 0
SpecialStyle: 0
WidescreenStoryboard: 1

[Editor]
Bookmarks: 129579
DistanceSpacing: 1.2
BeatDivisor: 4
GridSize: 4
TimelineZoom: 1.6

[Metadata]
Title:Make A Move (Nightcore Mix)
TitleUnicode:Make A Move (Nightcore Mix)
Artist:Icon For Hire
ArtistUnicode:Icon For Hire
Creator:mike91lau
Version:4K NM
Source:
Tags:
BeatmapID:505469
BeatmapSetID:214816

[Difficulty]
HPDrainRate:6
CircleSize:4
OverallDifficulty:7.5
ApproachRate:5
SliderMultiplier:1.4
SliderTickRate:1

[Events]
//Background and Video events
0,0,"45423807.jpg",0,0
//Break Periods
2,109038,113564
//Storyboard Layer 0 (Background)
//Storyboard Layer 1 (Fail)
//Storyboard Layer 2 (Pass)
//Storyboard Layer 3 (Foreground)
//Storyboard Sound Samples
//Background Colour Transformations
3,100,163,162,255

[TimingPoints]
987,296.296296296296,4,1,0,8,1,0
40098,-95.2380952380952,4,1,0,8,0,1
48986,-100,4,1,0,8,0,0
80394,-95.2380952380952,4,1,0,8,0,1
88986,-100,4,1,0,8,0,0
130172,-95.2380952380952,4,1,0,8,0,1
138764,-100,4,1,0,8,0,0

[HitObjects]
64,192,9283,5,0,0:0:0:0:
448,192,9579,1,0,0:0:0:0:
64,192,9875,1,0,0:0:0:0:
448,192,9875,1,0,0:0:0:0:
192,192,10172,1,0,0:0:0:0:
320,192,10172,1,0,0:0:0:0:
448,192,10468,1,0,0:0:0:0:
64,192,10764,1,0,0:0:0:0:
64,192,11061,1,0,0:0:0:0:
448,192,11061,1,0,0:0:0:0:
192,192,11357,1,0,0:0:0:0:
320,192,11357,1,0,0:0:0:0:
448,192,11653,1,0,0:0:0:0:
192,192,11949,1,0,0:0:0:0:
320,192,12246,1,0,0:0:0:0:
64,192,12246,1,0,0:0:0:0:
192,192,12542,1,0,0:0:0:0:
448,192,12542,1,0,0:0:0:0:
64,192,12838,1,0,0:0:0:0:
320,192,13135,1,0,0:0:0:0:
448,192,13431,1,0,0:0:0:0:
192,192,13431,1,0,0:0:0:0:
320,192,13727,1,0,0:0:0:0:
64,192,13727,1,0,0:0:0:0:
192,192,14024,1,0,0:0:0:0:
448,192,14320,1,0,0:0:0:0:
320,192,14616,1,0,0:0:0:0:
64,192,14616,1,0,0:0:0:0:
192,192,14912,1,0,0:0:0:0:
448,192,14912,1,0,0:0:0:0:
320,192,15209,1,0,0:0:0:0:
64,192,15505,1,0,0:0:0:0:
192,192,15801,1,0,0:0:0:0:
448,192,15801,1,0,0:0:0:0:
320,192,16098,1,0,0:0:0:0:
64,192,16098,1,0,0:0:0:0:
192,192,16394,1,0,0:0:0:0:
448,192,16690,1,0,0:0:0:0:
192,192,16986,1,0,0:0:0:0:
320,192,16986,1,0,0:0:0:0:
64,192,17283,1,0,0:0:0:0:
448,192,17283,1,0,0:0:0:0:
320,192,17579,1,0,0:0:0:0:
64,192,17875,1,0,0:0:0:0:
192,192,18172,1,0,0:0:0:0:
320,192,18172,1,0,0:0:0:0:
448,192,18394,1,0,0:0:0:0:
64,192,18394,1,0,0:0:0:0:
192,192,18616,1,0,0:0:0:0:
320,192,18616,1,0,0:0:0:0:
448,192,18764,1,0,0:0:0:0:
64,192,18764,1,0,0:0:0:0:
320,192,19061,1,0,0:0:0:0:
64,192,19357,1,0,0:0:0:0:
448,192,19357,1,0,0:0:0:0:
192,192,19653,1,0,0:0:0:0:
64,192,19949,1,0,0:0:0:0:
320,192,19949,1,0,0:0:0:0:
192,192,20246,1,0,0:0:0:0:
448,192,20542,1,0,0:0:0:0:
192,192,20542,1,0,0:0:0:0:
320,192,20838,1,0,0:0:0:0:
192,192,21135,1,0,0:0:0:0:
320,192,21135,1,0,0:0:0:0:
448,192,21431,1,0,0:0:0:0:
192,192,21727,1,0,0:0:0:0:
320,192,21727,1,0,0:0:0:0:
64,192,22024,1,0,0:0:0:0:
448,192,22320,1,0,0:0:0:0:
320,192,22320,1,0,0:0:0:0:
192,192,22616,1,0,0:0:0:0:
64,192,22912,1,0,0:0:0:0:
192,192,22912,1,0,0:0:0:0:
320,192,23209,1,0,0:0:0:0:
64,192,23505,1,0,0:0:0:0:
448,192,23505,1,0,0:0:0:0:
320,192,23801,1,0,0:0:0:0:
192,192,24098,1,0,0:0:0:0:
448,192,24098,1,0,0:0:0:0:
64,192,24394,1,0,0:0:0:0:
192,192,24690,1,0,0:0:0:0:
320,192,24690,1,0,0:0:0:0:
448,192,24986,1,0,0:0:0:0:
64,192,25283,1,0,0:0:0:0:
320,192,25283,1,0,0:0:0:0:
192,192,25579,1,0,0:0:0:0:
448,192,25875,1,0,0:0:0:0:
64,192,25875,1,0,0:0:0:0:
64,192,28246,1,0,0:0:0:0:
448,192,28246,1,0,0:0:0:0:
192,192,28690,1,0,0:0:0:0:
320,192,28690,1,0,0:0:0:0:
64,192,29135,1,0,0:0:0:0:
448,192,29135,1,0,0:0:0:0:
192,192,29579,1,0,0:0:0:0:
320,192,29579,1,0,0:0:0:0:
64,192,30024,1,0,0:0:0:0:
448,192,30024,1,0,0:0:0:0:
448,192,30616,1,0,0:0:0:0:
192,192,30616,1,0,0:0:0:0:
64,192,30912,1,0,0:0:0:0:
320,192,30912,1,0,0:0:0:0:
192,192,31209,1,0,0:0:0:0:
448,192,31505,1,0,0:0:0:0:
320,192,31801,1,0,0:0:0:0:
64,192,31801,1,0,0:0:0:0:
192,192,32098,1,0,0:0:0:0:
448,192,32098,1,0,0:0:0:0:
320,192,32394,1,0,0:0:0:0:
64,192,32690,1,0,0:0:0:0:
192,192,32986,1,0,0:0:0:0:
320,192,32986,1,0,0:0:0:0:
64,192,33283,1,0,0:0:0:0:
448,192,33283,1,0,0:0:0:0:
320,192,33579,1,0,0:0:0:0:
192,192,33875,1,0,0:0:0:0:
64,192,34172,1,0,0:0:0:0:
448,192,34172,1,0,0:0:0:0:
192,192,34468,1,0,0:0:0:0:
320,192,34468,1,0,0:0:0:0:
448,192,34764,1,0,0:0:0:0:
64,192,35061,1,0,0:0:0:0:
448,192,35357,1,0,0:0:0:0:
192,192,35357,1,0,0:0:0:0:
320,192,35653,1,0,0:0:0:0:
64,192,35653,1,0,0:0:0:0:
448,192,35949,1,0,0:0:0:0:
64,192,36246,1,0,0:0:0:0:
192,192,36542,1,0,0:0:0:0:
448,192,36542,1,0,0:0:0:0:
320,192,36838,1,0,0:0:0:0:
64,192,36838,1,0,0:0:0:0:
192,192,37135,1,0,0:0:0:0:
448,192,37431,1,0,0:0:0:0:
64,192,37727,1,0,0:0:0:0:
320,192,37727,1,0,0:0:0:0:
192,192,38024,1,0,0:0:0:0:
448,192,38320,1,0,0:0:0:0:
64,192,38320,1,0,0:0:0:0:
320,192,38616,1,0,0:0:0:0:
448,192,38912,1,0,0:0:0:0:
192,192,38912,1,0,0:0:0:0:
64,192,39209,1,0,0:0:0:0:
448,192,39505,1,0,0:0:0:0:
64,192,39505,1,0,0:0:0:0:
192,192,39727,1,0,0:0:0:0:
320,192,39727,1,0,0:0:0:0:
64,192,39949,1,0,0:0:0:0:
448,192,39949,1,0,0:0:0:0:
192,192,40098,1,0,0:0:0:0:
320,192,40098,1,0,0:0:0:0:
448,192,40394,1,0,0:0:0:0:
64,192,40394,1,0,0:0:0:0:
192,192,40690,1,0,0:0:0:0:
320,192,40986,1,0,0:0:0:0:
64,192,40986,1,0,0:0:0:0:
448,192,41283,1,0,0:0:0:0:
192,192,41579,1,0,0:0:0:0:
320,192,41579,1,0,0:0:0:0:
64,192,41875,1,0,0:0:0:0:
448,192,42172,1,0,0:0:0:0:
192,192,42172,1,0,0:0:0:0:
320,192,42468,1,0,0:0:0:0:
64,192,42764,1,0,0:0:0:0:
448,192,42764,1,0,0:0:0:0:
192,192,43061,1,0,0:0:0:0:
320,192,43357,1,0,0:0:0:0:
64,192,43357,1,0,0:0:0:0:
448,192,43653,1,0,0:0:0:0:
192,192,43949,1,0,0:0:0:0:
320,192,43949,1,0,0:0:0:0:
64,192,44246,1,0,0:0:0:0:
192,192,44542,1,0,0:0:0:0:
320,192,44838,1,0,0:0:0:0:
192,192,45135,1,0,0:0:0:0:
448,192,45135,1,0,0:0:0:0:
64,192,45431,1,0,0:0:0:0:
320,192,45727,1,0,0:0:0:0:
192,192,45727,1,0,0:0:0:0:
448,192,46024,1,0,0:0:0:0:
320,192,46320,1,0,0:0:0:0:
64,192,46320,1,0,0:0:0:0:
192,192,46616,1,0,0:0:0:0:
320,192,46912,1,0,0:0:0:0:
448,192,46912,1,0,0:0:0:0:
64,192,47209,1,0,0:0:0:0:
192,192,47505,1,0,0:0:0:0:
320,192,47505,1,0,0:0:0:0:
448,192,47801,1,0,0:0:0:0:
192,192,48098,1,0,0:0:0:0:
64,192,48098,1,0,0:0:0:0:
320,192,48394,1,0,0:0:0:0:
64,192,48690,1,0,0:0:0:0:
448,192,48986,1,0,0:0:0:0:
192,192,48986,1,0,0:0:0:0:
64,192,49579,1,0,0:0:0:0:
320,192,49579,1,0,0:0:0:0:
192,192,49875,1,0,0:0:0:0:
448,192,49875,1,0,0:0:0:0:
320,192,50468,1,0,0:0:0:0:
64,192,50468,1,0,0:0:0:0:
448,192,51061,1,0,0:0:0:0:
192,192,51061,1,0,0:0:0:0:
320,192,51505,1,0,0:0:0:0:
64,192,51653,1,0,0:0:0:0:
448,192,51653,1,0,0:0:0:0:
192,192,51949,1,0,0:0:0:0:
448,192,52246,1,0,0:0:0:0:
64,192,52246,1,0,0:0:0:0:
320,192,52542,1,0,0:0:0:0:
64,192,52838,1,0,0:0:0:0:
448,192,52838,1,0,0:0:0:0:
64,192,53135,1,0,0:0:0:0:
448,192,53431,1,0,0:0:0:0:
192,192,53431,1,0,0:0:0:0:
320,192,53727,1,0,0:0:0:0:
64,192,54024,1,0,0:0:0:0:
192,192,54024,1,0,0:0:0:0:
448,192,54320,1,0,0:0:0:0:
64,192,54616,1,0,0:0:0:0:
320,192,54616,1,0,0:0:0:0:
192,192,54912,1,0,0:0:0:0:
448,192,55209,1,0,0:0:0:0:
320,192,55209,1,0,0:0:0:0:
64,192,55505,1,0,0:0:0:0:
192,192,55801,1,0,0:0:0:0:
320,192,55801,1,0,0:0:0:0:
448,192,56098,1,0,0:0:0:0:
192,192,56394,1,0,0:0:0:0:
320,192,56394,1,0,0:0:0:0:
64,192,56690,1,0,0:0:0:0:
448,192,56986,1,0,0:0:0:0:
192,192,56986,1,0,0:0:0:0:
320,192,57283,1,0,0:0:0:0:
64,192,57579,1,0,0:0:0:0:
192,192,57579,1,0,0:0:0:0:
448,192,57875,1,0,0:0:0:0:
64,192,58172,1,0,0:0:0:0:
192,192,58468,1,0,0:0:0:0:
448,192,58468,1,0,0:0:0:0:
64,192,59061,1,0,0:0:0:0:
320,192,59061,1,0,0:0:0:0:
448,192,59653,1,0,0:0:0:0:
192,192,59653,1,0,0:0:0:0:
320,192,59801,1,0,0:0:0:0:
64,192,60098,1,0,0:0:0:0:
448,192,60246,1,0,0:0:0:0:
320,192,60838,1,0,0:0:0:0:
64,192,60838,1,0,0:0:0:0:
192,192,61431,1,0,0:0:0:0:
448,192,61431,1,0,0:0:0:0:
64,192,62024,1,0,0:0:0:0:
320,192,62024,1,0,0:0:0:0:
448,192,62172,1,0,0:0:0:0:
192,192,62468,1,0,0:0:0:0:
448,192,62616,1,0,0:0:0:0:
448,192,63209,1,0,0:0:0:0:
64,192,63209,1,0,0:0:0:0:
192,192,63431,1,0,0:0:0:0:
320,192,63431,1,0,0:0:0:0:
448,192,63653,1,0,0:0:0:0:
64,192,63653,1,0,0:0:0:0:
192,192,63801,1,0,0:0:0:0:
320,192,63801,1,0,0:0:0:0:
448,192,64394,1,0,0:0:0:0:
192,192,64394,1,0,0:0:0:0:
64,192,64542,1,0,0:0:0:0:
448,192,64838,1,0,0:0:0:0:
64,192,64986,1,0,0:0:0:0:
192,192,65579,1,0,0:0:0:0:
320,192,65579,1,0,0:0:0:0:
64,192,66172,1,0,0:0:0:0:
448,192,66172,1,0,0:0:0:0:
192,192,66468,1,0,0:0:0:0:
320,192,66468,1,0,0:0:0:0:
448,192,66764,1,0,0:0:0:0:
64,192,66764,1,0,0:0:0:0:
192,192,67061,1,0,0:0:0:0:
320,192,67061,1,0,0:0:0:0:
64,192,67357,1,0,0:0:0:0:
448,192,67357,1,0,0:0:0:0:
192,192,67801,1,0,0:0:0:0:
320,192,67801,1,0,0:0:0:0:
448,192,68542,1,0,0:0:0:0:
320,192,68986,1,0,0:0:0:0:
192,192,69431,1,0,0:0:0:0:
64,192,69875,1,0,0:0:0:0:
192,192,70320,1,0,0:0:0:0:
320,192,70912,1,0,0:0:0:0:
64,192,70912,1,0,0:0:0:0:
192,192,71209,1,0,0:0:0:0:
448,192,71209,1,0,0:0:0:0:
320,192,71505,1,0,0:0:0:0:
192,192,72098,1,0,0:0:0:0:
448,192,72098,1,0,0:0:0:0:
320,192,72394,1,0,0:0:0:0:
64,192,72394,1,0,0:0:0:0:
192,192,72690,1,0,0:0:0:0:
64,192,73283,1,0,0:0:0:0:
192,192,73283,1,0,0:0:0:0:
448,192,73579,1,0,0:0:0:0:
320,192,73579,1,0,0:0:0:0:
192,192,73875,1,0,0:0:0:0:
320,192,74468,1,0,0:0:0:0:
448,192,74468,1,0,0:0:0:0:
192,192,74764,1,0,0:0:0:0:
64,192,74764,1,0,0:0:0:0:
320,192,75061,1,0,0:0:0:0:
192,192,75653,1,0,0:0:0:0:
320,192,75653,1,0,0:0:0:0:
448,192,75949,1,0,0:0:0:0:
64,192,75949,1,0,0:0:0:0:
192,192,76246,1,0,0:0:0:0:
192,192,76838,1,0,0:0:0:0:
320,192,76838,1,0,0:0:0:0:
448,192,77135,1,0,0:0:0:0:
64,192,77135,1,0,0:0:0:0:
320,192,77431,1,0,0:0:0:0:
64,192,78024,1,0,0:0:0:0:
448,192,78024,1,0,0:0:0:0:
192,192,78320,1,0,0:0:0:0:
320,192,78320,1,0,0:0:0:0:
448,192,78616,1,0,0:0:0:0:
64,192,78912,1,0,0:0:0:0:
320,192,78912,1,0,0:0:0:0:
192,192,79209,1,0,0:0:0:0:
448,192,79209,1,0,0:0:0:0:
64,192,79505,1,0,0:0:0:0:
320,192,79505,1,0,0:0:0:0:
192,192,79801,1,0,0:0:0:0:
320,192,80394,1,0,0:0:0:0:
192,192,80394,1,0,0:0:0:0:
448,192,80690,1,0,0:0:0:0:
64,192,80690,1,0,0:0:0:0:
320,192,80986,1,0,0:0:0:0:
64,192,81283,1,0,0:0:0:0:
192,192,81283,1,0,0:0:0:0:
192,192,81579,1,0,0:0:0:0:
448,192,81875,1,0,0:0:0:0:
320,192,81875,1,0,0:0:0:0:
64,192,82172,1,0,0:0:0:0:
192,192,82468,1,0,0:0:0:0:
320,192,82468,1,0,0:0:0:0:
448,192,82764,1,0,0:0:0:0:
192,192,83061,1,0,0:0:0:0:
320,192,83061,1,0,0:0:0:0:
64,192,83357,1,0,0:0:0:0:
192,192,83653,1,0,0:0:0:0:
320,192,83653,1,0,0:0:0:0:
448,192,83949,1,0,0:0:0:0:
64,192,84246,1,0,0:0:0:0:
320,192,84246,1,0,0:0:0:0:
192,192,84542,1,0,0:0:0:0:
448,192,84838,1,0,0:0:0:0:
64,192,84838,1,0,0:0:0:0:
320,192,85135,1,0,0:0:0:0:
192,192,85431,1,0,0:0:0:0:
64,192,85431,1,0,0:0:0:0:
64,192,85727,1,0,0:0:0:0:
448,192,86024,1,0,0:0:0:0:
192,192,86024,1,0,0:0:0:0:
320,192,86320,1,0,0:0:0:0:
64,192,86616,1,0,0:0:0:0:
448,192,86616,1,0,0:0:0:0:
192,192,86912,1,0,0:0:0:0:
448,192,87209,1,0,0:0:0:0:
64,192,87209,1,0,0:0:0:0:
320,192,87505,1,0,0:0:0:0:
192,192,87801,1,0,0:0:0:0:
448,192,87801,1,0,0:0:0:0:
64,192,88098,1,0,0:0:0:0:
192,192,88394,1,0,0:0:0:0:
320,192,88394,1,0,0:0:0:0:
448,192,88690,1,0,0:0:0:0:
192,192,88986,1,0,0:0:0:0:
320,192,89283,1,0,0:0:0:0:
64,192,89579,1,0,0:0:0:0:
448,192,89875,1,0,0:0:0:0:
192,192,89875,1,0,0:0:0:0:
320,192,90468,1,0,0:0:0:0:
64,192,90468,1,0,0:0:0:0:
64,192,91061,1,0,0:0:0:0:
448,192,91061,1,0,0:0:0:0:
192,192,91653,1,0,0:0:0:0:
320,192,91653,1,0,0:0:0:0:
448,192,92246,1,0,0:0:0:0:
192,192,92246,1,0,0:0:0:0:
320,192,92838,1,0,0:0:0:0:
64,192,92838,1,0,0:0:0:0:
64,192,93431,1,0,0:0:0:0:
320,192,93431,1,0,0:0:0:0:
192,192,94024,1,0,0:0:0:0:
448,192,94024,1,0,0:0:0:0:
64,192,94616,1,0,0:0:0:0:
448,192,94616,1,0,0:0:0:0:
192,192,95209,1,0,0:0:0:0:
320,192,95209,1,0,0:0:0:0:
64,192,95801,1,0,0:0:0:0:
320,192,95801,1,0,0:0:0:0:
192,192,96394,1,0,0:0:0:0:
448,192,96394,1,0,0:0:0:0:
64,192,96986,1,0,0:0:0:0:
192,192,96986,1,0,0:0:0:0:
448,192,97579,1,0,0:0:0:0:
320,192,97579,1,0,0:0:0:0:
64,192,98172,1,0,0:0:0:0:
448,192,98468,1,0,0:0:0:0:
64,192,98764,1,0,0:0:0:0:
320,192,98764,1,0,0:0:0:0:
192,192,99209,1,0,0:0:0:0:
448,192,99209,1,0,0:0:0:0:
64,192,99949,1,0,0:0:0:0:
448,192,99949,1,0,0:0:0:0:
192,192,100246,1,0,0:0:0:0:
448,192,100542,1,0,0:0:0:0:
64,192,100542,1,0,0:0:0:0:
64,192,101135,1,0,0:0:0:0:
448,192,101135,1,0,0:0:0:0:
192,192,101579,1,0,0:0:0:0:
448,192,101875,1,0,0:0:0:0:
320,192,102320,1,0,0:0:0:0:
64,192,102320,1,0,0:0:0:0:
448,192,102616,1,0,0:0:0:0:
320,192,102912,1,0,0:0:0:0:
64,192,102912,1,0,0:0:0:0:
448,192,103505,1,0,0:0:0:0:
192,192,103505,1,0,0:0:0:0:
320,192,103949,1,0,0:0:0:0:
64,192,104246,1,0,0:0:0:0:
448,192,104690,1,0,0:0:0:0:
192,192,104690,1,0,0:0:0:0:
64,192,104986,1,0,0:0:0:0:
192,192,105283,1,0,0:0:0:0:
448,192,105283,1,0,0:0:0:0:
320,192,105875,1,0,0:0:0:0:
64,192,105875,1,0,0:0:0:0:
448,192,106320,1,0,0:0:0:0:
192,192,106616,1,0,0:0:0:0:
320,192,107061,1,0,0:0:0:0:
192,192,107061,1,0,0:0:0:0:
64,192,107357,1,0,0:0:0:0:
448,192,107653,1,0,0:0:0:0:
320,192,107653,1,0,0:0:0:0:
64,192,108246,1,0,0:0:0:0:
448,192,108246,1,0,0:0:0:0:
192,192,108542,1,0,0:0:0:0:
320,192,108542,1,0,0:0:0:0:
448,192,108838,1,0,0:0:0:0:
64,192,108838,1,0,0:0:0:0:
64,192,114764,5,0,0:0:0:0:
192,192,115061,1,0,0:0:0:0:
320,192,115357,1,0,0:0:0:0:
448,192,115653,1,0,0:0:0:0:
64,192,115949,1,0,0:0:0:0:
448,192,116098,1,0,0:0:0:0:
64,192,116246,1,0,0:0:0:0:
448,192,117135,1,0,0:0:0:0:
64,192,117283,1,0,0:0:0:0:
448,192,117431,1,0,0:0:0:0:
448,192,118320,1,0,0:0:0:0:
192,192,118320,1,0,0:0:0:0:
320,192,118764,1,0,0:0:0:0:
64,192,118764,1,0,0:0:0:0:
320,192,119209,1,0,0:0:0:0:
64,192,119209,1,0,0:0:0:0:
448,192,119653,1,0,0:0:0:0:
192,192,119653,1,0,0:0:0:0:
192,192,120690,1,0,0:0:0:0:
320,192,120690,1,0,0:0:0:0:
448,192,120986,1,0,0:0:0:0:
64,192,120986,1,0,0:0:0:0:
448,192,121579,1,0,0:0:0:0:
192,192,121579,1,0,0:0:0:0:
320,192,121875,1,0,0:0:0:0:
64,192,121875,1,0,0:0:0:0:
192,192,122172,1,0,0:0:0:0:
448,192,122172,1,0,0:0:0:0:
320,192,122764,1,0,0:0:0:0:
64,192,122764,1,0,0:0:0:0:
192,192,123061,1,0,0:0:0:0:
448,192,123061,1,0,0:0:0:0:
320,192,123357,1,0,0:0:0:0:
64,192,123357,1,0,0:0:0:0:
192,192,123949,1,0,0:0:0:0:
320,192,123949,1,0,0:0:0:0:
64,192,124246,1,0,0:0:0:0:
448,192,124246,1,0,0:0:0:0:
192,192,124542,1,0,0:0:0:0:
320,192,124542,1,0,0:0:0:0:
192,192,125431,1,0,0:0:0:0:
320,192,125431,1,0,0:0:0:0:
448,192,125727,1,0,0:0:0:0:
64,192,125727,1,0,0:0:0:0:
448,192,126320,1,0,0:0:0:0:
192,192,126320,1,0,0:0:0:0:
320,192,126616,1,0,0:0:0:0:
64,192,126616,1,0,0:0:0:0:
192,192,126912,1,0,0:0:0:0:
448,192,126912,1,0,0:0:0:0:
320,192,127505,1,0,0:0:0:0:
64,192,127505,1,0,0:0:0:0:
192,192,127801,1,0,0:0:0:0:
448,192,127801,1,0,0:0:0:0:
448,192,128986,1,0,0:0:0:0:
192,192,128986,1,0,0:0:0:0:
320,192,129283,1,0,0:0:0:0:
64,192,129283,1,0,0:0:0:0:
448,192,129579,1,0,0:0:0:0:
64,192,129875,1,0,0:0:0:0:
192,192,130172,1,0,0:0:0:0:
320,192,130172,1,0,0:0:0:0:
448,192,130468,1,0,0:0:0:0:
64,192,130468,1,0,0:0:0:0:
320,192,130764,1,0,0:0:0:0:
64,192,131061,1,0,0:0:0:0:
448,192,131061,1,0,0:0:0:0:
192,192,131357,1,0,0:0:0:0:
320,192,131653,1,0,0:0:0:0:
64,192,131653,1,0,0:0:0:0:
448,192,131949,1,0,0:0:0:0:
64,192,132246,1,0,0:0:0:0:
320,192,132246,1,0,0:0:0:0:
192,192,132542,1,0,0:0:0:0:
448,192,132838,1,0,0:0:0:0:
320,192,132838,1,0,0:0:0:0:
64,192,133135,1,0,0:0:0:0:
192,192,133431,1,0,0:0:0:0:
320,192,133431,1,0,0:0:0:0:
448,192,133727,1,0,0:0:0:0:
320,192,134024,1,0,0:0:0:0:
64,192,134024,1,0,0:0:0:0:
192,192,134320,1,0,0:0:0:0:
448,192,134616,1,0,0:0:0:0:
192,192,134912,1,0,0:0:0:0:
64,192,135209,1,0,0:0:0:0:
320,192,135209,1,0,0:0:0:0:
448,192,135505,1,0,0:0:0:0:
192,192,135801,1,0,0:0:0:0:
320,192,135801,1,0,0:0:0:0:
64,192,136098,1,0,0:0:0:0:
448,192,136394,1,0,0:0:0:0:
192,192,136394,1,0,0:0:0:0:
320,192,136690,1,0,0:0:0:0:
192,192,136986,1,0,0:0:0:0:
64,192,136986,1,0,0:0:0:0:
448,192,137283,1,0,0:0:0:0:
192,192,137579,1,0,0:0:0:0:
320,192,137579,1,0,0:0:0:0:
64,192,137875,1,0,0:0:0:0:
448,192,138172,1,0,0:0:0:0:
192,192,138172,1,0,0:0:0:0:
320,192,138468,1,0,0:0:0:0:
64,192,138764,1,0,0:0:0:0:
192,192,138764,1,0,0:0:0:0:
448,192,139061,1,0,0:0:0:0:
192,192,139357,1,0,0:0:0:0:
64,192,139653,1,0,0:0:0:0:
448,192,139653,1,0,0:0:0:0:
320,192,139949,1,0,0:0:0:0:
192,192,139949,1,0,0:0:0:0:
448,192,140246,1,0,0:0:0:0:
64,192,140394,1,0,0:0:0:0:
448,192,140838,1,0,0:0:0:0:
64,192,140838,1,0,0:0:0:0:
192,192,141135,1,0,0:0:0:0:
320,192,141135,1,0,0:0:0:0:
64,192,141431,1,0,0:0:0:0:
448,192,141579,1,0,0:0:0:0:
192,192,142024,1,0,0:0:0:0:
320,192,142024,1,0,0:0:0:0:
448,192,142320,1,0,0:0:0:0:
64,192,142320,1,0,0:0:0:0:
320,192,142616,1,0,0:0:0:0:
192,192,142764,1,0,0:0:0:0:
192,192,143209,1,0,0:0:0:0:
320,192,143209,1,0,0:0:0:0:
64,192,143505,1,0,0:0:0:0:
448,192,143505,1,0,0:0:0:0:
192,192,143801,1,0,0:0:0:0:
320,192,143949,1,0,0:0:0:0:
64,192,144394,1,0,0:0:0:0:
320,192,144394,1,0,0:0:0:0:
192,192,144690,1,0,0:0:0:0:
448,192,144690,1,0,0:0:0:0:
320,192,144986,1,0,0:0:0:0:
64,192,145135,1,0,0:0:0:0:
448,192,145579,1,0,0:0:0:0:
192,192,145579,1,0,0:0:0:0:
320,192,145875,1,0,0:0:0:0:
64,192,145875,1,0,0:0:0:0:
192,192,146172,1,0,0:0:0:0:
448,192,146320,1,0,0:0:0:0:
64,192,146764,1,0,0:0:0:0:
192,192,146764,1,0,0:0:0:0:
448,192,147061,1,0,0:0:0:0:
320,192,147061,1,0,0:0:0:0:
64,192,147357,1,0,0:0:0:0:
448,192,147653,1,0,0:0:0:0:
192,192,147949,1,0,0:0:0:0:
320,192,148246,1,0,0:0:0:0:
