osu file format v14

[General]
AudioFilename: audio.mp3
AudioLeadIn: 0
PreviewTime: -1
Countdown: 0
SampleSet: None
StackLeniency: 0.7
Mode: 0
LetterboxInBreaks: 0
WidescreenStoryboard: 0

[Editor]
Bookmarks: 7239,14403,21791,29179,36119,48880,63433,79776,87388,94552,101492,108657,116045,122537,152313
DistanceSpacing: 1.3
BeatDivisor: 4
GridSize: 8
TimelineZoom: 1

[Metadata]
Title:Hope of Morning
TitleUnicode:Hope of Morning
Artist:Icon For Hire
ArtistUnicode:Icon For Hire
Creator:Xiipher
Version:Insane
Source:
Tags:Rock
BeatmapID:1790901
BeatmapSetID:857144

[Difficulty]
HPDrainRate:6
CircleSize:4
OverallDifficulty:8
ApproachRate:9
SliderMultiplier:2.3
SliderTickRate:1

[Events]
//Background and Video events
//Break Periods
2,42812,48728
//Storyboard Layer 0 (Background)
//Storyboard Layer 1 (Fail)
//Storyboard Layer 2 (Pass)
//Storyboard Layer 3 (Foreground)
//Storyboard Sound Samples

[TimingPoints]
75,447.761194029851,4,1,0,100,1,0
48880,-200,4,1,0,100,0,0
80224,-100,4,1,0,100,0,0
122761,-200,4,1,0,100,0,0
152537,-100,4,1,0,100,0,0

[HitObjects]
88,130,75,6,0,B|140:112|171:129|219:111,1,115
311,149,522,1,0,0:0:0:0:
362,251,746,2,0,L|269:287,1,57.5
250,277,970,1,0,0:0:0:0:
145,227,1194,1,0,0:0:0:0:
112,179,1306,1,0,0:0:0:0:
145,131,1418,1,0,0:0:0:0:
247,78,1642,5,0,0:0:0:0:
284,121,1754,1,0,0:0:0:0:
330,154,1866,2,0,B|375:191|375:191|441:192,1,115
411,305,2313,1,0,0:0:0:0:
297,285,2537,1,0,0:0:0:0:
247,255,2649,1,0,0:0:0:0:
213,208,2761,1,0,0:0:0:0:
235,320,2985,2,0,L|126:322,1,57.5
169,263,3209,2,0,P|105:277|72:347,1,115
80,198,3657,6,0,B|153:145|212:161|325:127,1,230
401,186,4328,1,0,0:0:0:0:
323,270,4552,1,0,0:0:0:0:
271,295,4664,1,0,0:0:0:0:
213,291,4776,1,0,0:0:0:0:
134,206,5000,1,0,0:0:0:0:
218,128,5224,1,0,0:0:0:0:
283,222,5448,6,0,P|158:167|38:151,1,230
158,83,6119,1,0,0:0:0:0:
267,118,6343,1,0,0:0:0:0:
303,162,6455,1,0,0:0:0:0:
306,219,6567,1,0,0:0:0:0:
240,313,6791,1,0,0:0:0:0:
129,279,7015,1,0,0:0:0:0:
84,172,7239,6,0,L|186:116,1,115
298,130,7686,1,0,0:0:0:0:
385,204,7910,1,0,0:0:0:0:
300,282,8134,1,0,0:0:0:0:
219,199,8358,1,0,0:0:0:0:
275,98,8582,2,0,P|342:111|442:102,1,115
452,207,9030,6,0,P|383:182|324:198,1,115
371,300,9477,1,0,0:0:0:0:
257,317,9701,1,0,0:0:0:0:
283,205,9925,1,0,0:0:0:0:
371,278,10149,1,0,0:0:0:0:
257,296,10373,2,0,P|194:317|133:321,1,115
178,210,10821,6,0,B|242:206|325:163|423:139,1,230
450,247,11492,1,0,0:0:0:0:
342,287,11716,1,0,0:0:0:0:
285,277,11828,1,0,0:0:0:0:
231,255,11940,1,0,0:0:0:0:
146,176,12164,1,0,0:0:0:0:
244,116,12388,1,0,0:0:0:0:
282,217,12612,6,0,B|205:220|143:264|37:288,1,230
120,182,13283,1,0,0:0:0:0:
228,144,13507,1,0,0:0:0:0:
285,145,13619,1,0,0:0:0:0:
337,169,13731,1,0,0:0:0:0:
451,157,13955,1,0,0:0:0:0:
337,138,14179,5,0,0:0:0:0:
280,128,14291,1,0,0:0:0:0:
222,133,14403,2,0,P|153:151|108:216,1,115
199,268,14851,1,0,0:0:0:0:
247,298,14963,1,0,0:0:0:0:
301,316,15075,1,0,0:0:0:0:
394,249,15298,1,0,0:0:0:0:
323,157,15522,2,0,L|251:121,2,57.5
414,86,15970,1,0,0:0:0:0:
300,64,16194,6,0,B|241:141|265:221|207:280,1,230
180,322,16754,1,0,0:0:0:0:
129,348,16866,1,0,0:0:0:0:
103,236,17089,5,0,0:0:0:0:
217,244,17313,2,0,B|267:209|267:209|296:154,1,115
402,126,17761,2,0,L|293:72,1,115
70,40,18433,5,0,0:0:0:0:
152,120,18657,2,0,B|160:176|197:191|200:227,1,115
334,330,19216,2,0,L|396:350,1,57.5
450,249,19552,1,0,0:0:0:0:
391,149,19776,1,0,0:0:0:0:
164,191,20224,6,0,L|106:138,4,57.5
277,208,20895,1,0,0:0:0:0:
378,262,21119,1,0,0:0:0:0:
279,321,21343,2,0,P|324:366|391:386,1,115
405,273,21791,6,0,L|331:254,1,57.5
295,236,22015,1,0,0:0:0:0:
194,180,22239,1,0,0:0:0:0:
269,93,22463,1,0,0:0:0:0:
297,204,22686,2,0,L|375:146,1,57.5
389,134,22910,1,0,0:0:0:0:
314,46,23134,2,0,P|262:24|164:29,1,115
101,73,23582,6,0,P|111:141|152:196,1,115
246,213,24030,1,0,0:0:0:0:
360,216,24254,2,0,P|414:207|491:237,1,115
387,302,24701,2,0,L|249:374,1,115
193,284,25149,1,0,0:0:0:0:
127,189,25373,5,0,0:0:0:0:
238,159,25597,1,0,0:0:0:0:
136,104,25821,1,0,0:0:0:0:
209,192,26045,1,0,0:0:0:0:
95,209,26269,5,0,0:0:0:0:
202,168,26492,1,0,0:0:0:0:
304,115,26716,2,0,P|244:75|177:89,1,115
163,186,27164,1,0,0:0:0:0:
180,240,27276,1,0,0:0:0:0:
224,276,27388,1,0,0:0:0:0:
337,297,27612,6,0,P|390:285|463:239,1,115
339,206,28060,2,0,L|186:153,1,115
124,123,28507,1,0,0:0:0:0:
167,160,28619,1,0,0:0:0:0:
216,189,28731,2,0,B|256:232|274:221|313:232|312:255|373:260,1,172.5
428,256,29179,5,0,0:0:0:0:
322,300,29403,1,0,0:0:0:0:
208,282,29627,1,0,0:0:0:0:
126,200,29851,2,0,L|231:140,1,115
340,141,30298,1,0,0:0:0:0:
399,239,30522,1,0,0:0:0:0:
226,225,30858,6,0,L|166:206,1,57.5
57,185,31194,1,0,0:0:0:0:
148,115,31418,1,0,0:0:0:0:
260,137,31642,2,0,L|375:145,1,115
289,222,32089,2,0,L|418:254,1,115
173,290,32761,5,0,0:0:0:0:
131,250,32873,1,0,0:0:0:0:
120,193,32985,1,0,0:0:0:0:
208,119,33209,2,0,P|256:118|356:153,1,115
396,222,33657,1,0,0:0:0:0:
331,316,33880,1,0,0:0:0:0:
219,345,34104,1,0,0:0:0:0:
103,146,34552,5,0,0:0:0:0:
156,124,34664,1,0,0:0:0:0:
212,133,34776,1,0,0:0:0:0:
266,234,35000,2,0,L|414:268,1,115
445,166,35448,1,0,0:0:0:0:
501,265,35671,1,0,0:0:0:0:
396,312,35895,1,0,0:0:0:0:
294,257,36119,5,0,0:0:0:0:
240,155,36343,2,0,L|124:124,1,115
172,232,36791,2,0,L|46:256,1,115
148,327,37239,2,0,L|287:362,1,115
359,298,37686,2,0,L|477:261,1,115
364,213,38134,5,0,0:0:0:0:
258,166,38358,1,0,0:0:0:0:
143,172,38582,1,0,0:0:0:0:
61,226,38918,2,0,L|23:308,1,57.5
266,270,39477,6,0,L|367:274,2,57.5
151,253,39925,1,0,0:0:0:0:
197,147,40149,1,0,0:0:0:0:
311,158,40373,2,0,L|405:165,2,57.5
293,272,40821,1,0,0:0:0:0:
189,221,41045,1,0,0:0:0:0:
205,107,41269,6,0,L|351:116,1,115
292,225,41716,1,0,0:0:0:0:
189,276,41940,1,0,0:0:0:0:
90,217,42164,2,0,P|120:160|254:151,1,172.5
293,190,42612,1,0,0:0:0:0:
284,171,49328,5,0,0:0:0:0:
157,91,49776,1,0,0:0:0:0:
98,228,50224,2,0,P|176:300|282:321,1,201.25
303,319,51119,2,0,L|218:153,1,172.5
178,106,52015,2,0,L|116:124,1,57.5
169,180,52463,2,0,L|139:250,1,57.5
219,250,52910,6,0,L|296:258,1,57.5
317,193,53358,2,0,L|389:161,1,57.5
364,166,53806,2,0,P|266:95|207:142,1,201.25
213,130,54701,2,0,L|266:329,1,201.25
229,339,55597,2,0,L|123:258,1,115
279,220,56492,6,0,L|208:193,1,57.5
252,129,56940,2,0,L|192:108,1,57.5
122,105,57388,6,0,P|221:49|279:102,1,201.25
276,96,58283,2,0,P|339:199|299:249,1,201.25
278,280,59179,2,0,L|204:267,1,57.5
167,217,59627,2,0,L|91:203,1,57.5
115,131,60075,6,0,L|194:109,1,57.5
241,90,60522,2,0,L|320:88,1,57.5
367,117,60970,2,0,P|445:134|457:250,1,201.25
462,241,61866,2,0,L|269:308,1,201.25
234,305,62761,2,0,L|197:175,1,115
312,141,63657,5,0,0:0:0:0:
444,71,64105,1,0,0:0:0:0:
406,215,64553,2,0,P|346:301|266:271,1,201.25
268,274,65448,2,0,L|183:108,1,172.5
132,169,66344,2,0,L|70:187,1,57.5
148,208,66792,2,0,L|118:278,1,57.5
199,254,67239,6,0,L|276:262,1,57.5
307,205,67687,2,0,L|379:173,1,57.5
424,144,68135,2,0,P|326:73|267:120,1,201.25
273,108,69030,2,0,L|326:307,1,201.25
288,311,69926,2,0,L|182:230,1,115
345,250,70821,6,0,L|274:223,1,57.5
222,198,71269,2,0,L|162:177,1,57.5
110,130,71717,2,0,P|182:99|316:104,1,201.25
303,100,72612,2,0,P|366:203|326:253,1,201.25
292,269,73508,2,0,L|175:240,1,115
68,141,74404,6,0,L|182:115,1,115
251,136,75075,1,0,0:0:0:0:
323,118,75299,2,0,L|437:158,1,115
394,220,75970,1,0,0:0:0:0:
349,280,76195,2,0,L|226:315,1,115
256,192,77089,12,0,78880,0:0:0:0:
249,172,80224,6,0,L|134:228,1,115
240,288,80672,1,0,0:0:0:0:
349,254,80895,1,0,0:0:0:0:
265,175,81119,1,0,0:0:0:0:
170,108,81343,1,0,0:0:0:0:
278,69,81567,6,0,L|388:128,2,115
170,108,82239,1,0,0:0:0:0:
122,212,82463,1,0,0:0:0:0:
231,246,82686,1,0,0:0:0:0:
345,230,82910,1,0,0:0:0:0:
317,118,83134,1,0,0:0:0:0:
204,92,83358,2,0,P|144:81|60:93,1,115
175,163,83806,6,0,L|62:228,2,115
286,134,84477,1,0,0:0:0:0:
321,243,84701,2,0,L|443:267,1,115
331,318,85149,2,0,L|453:357,1,115
222,278,85821,5,0,0:0:0:0:
181,170,86045,1,0,0:0:0:0:
352,188,86380,1,0,0:0:0:0:
240,56,86716,1,0,0:0:0:0:
195,162,86940,2,0,L|58:185,1,115
311,201,87612,5,0,0:0:0:0:
254,210,87724,1,0,0:0:0:0:
197,222,87836,2,0,L|85:199,1,115
180,136,88283,2,0,L|303:114,1,115
335,223,88731,1,0,0:0:0:0:
197,327,89067,1,0,0:0:0:0:
367,297,89403,6,0,L|272:293,1,57.5
258,266,89627,2,0,L|127:187,1,115
138,152,89963,1,0,0:0:0:0:
164,100,90075,2,0,L|294:121,1,115
387,153,90522,1,0,0:0:0:0:
41,153,91194,5,0,0:0:0:0:
98,151,91306,1,0,0:0:0:0:
155,153,91418,1,0,0:0:0:0:
205,180,91530,1,0,0:0:0:0:
247,219,91642,1,0,0:0:0:0:
236,270,91754,1,0,0:0:0:0:
190,305,91866,2,0,L|76:368,1,115
302,273,92537,5,0,0:0:0:0:
210,203,92761,1,0,0:0:0:0:
313,153,92985,1,0,0:0:0:0:
209,103,93209,1,0,0:0:0:0:
216,217,93433,5,0,0:0:0:0:
306,288,93657,1,0,0:0:0:0:
342,179,93880,1,0,0:0:0:0:
286,78,94104,2,0,L|164:108,1,115
340,265,94776,6,0,L|224:258,1,115
357,146,95336,2,0,L|262:133,1,57.5
132,96,95783,1,0,0:0:0:0:
189,93,95895,1,0,0:0:0:0:
245,101,96007,2,0,P|321:113|412:158,1,172.5
330,241,96567,6,0,L|228:159,1,115
201,277,97015,2,0,L|82:260,1,115
209,138,97575,2,0,L|128:203,1,57.5
120,67,97910,2,0,L|69:131,2,57.5
147,179,98358,6,0,L|283:222,1,115
345,139,98806,1,0,0:0:0:0:
257,64,99030,1,0,0:0:0:0:
233,176,99254,2,0,L|153:170,1,57.5
175,171,99477,2,0,L|57:137,1,115
163,79,99925,1,0,0:0:0:0:
277,87,100149,1,0,0:0:0:0:
373,149,100373,1,0,0:0:0:0:
336,258,100597,5,0,0:0:0:0:
300,303,100709,1,0,0:0:0:0:
255,339,100821,2,0,L|142:295,2,115
332,253,101492,1,0,0:0:0:0:
250,171,101716,1,0,0:0:0:0:
165,93,101940,6,0,L|34:191,1,115
114,269,102388,1,0,0:0:0:0:
223,304,102612,1,0,0:0:0:0:
291,211,102836,2,0,L|413:174,2,115
204,134,103507,1,0,0:0:0:0:
102,79,103731,5,0,0:0:0:0:
86,134,103843,1,0,0:0:0:0:
81,191,103955,2,0,P|76:260|131:318,1,115
215,301,104403,2,0,L|340:267,1,115
385,171,104851,2,0,P|355:124|364:49,1,115
246,99,105298,5,0,0:0:0:0:
164,180,105522,1,0,0:0:0:0:
249,256,105746,2,0,L|141:329,1,115
151,204,106194,2,0,L|77:299,1,115
47,184,106642,2,0,L|48:311,1,115
162,307,107089,1,0,0:0:0:0:
277,307,107313,2,0,L|353:283,1,57.5
325,116,107761,5,0,0:0:0:0:
232,184,107985,1,0,0:0:0:0:
323,254,108209,1,0,0:0:0:0:
226,316,108433,1,0,0:0:0:0:
115,282,108657,5,0,0:0:0:0:
101,226,108769,1,0,0:0:0:0:
111,170,108880,2,0,P|132:116|199:89,1,115
279,149,109328,2,0,L|419:168,1,115
301,235,109776,2,0,L|439:304,1,115
307,350,110224,1,0,0:0:0:0:
113,226,110672,6,0,L|42:100,1,115
165,161,111119,2,0,L|241:65,1,115
253,185,111567,2,0,L|397:154,1,115
356,275,112015,1,0,0:0:0:0:
132,220,112463,5,0,0:0:0:0:
236,173,112686,1,0,0:0:0:0:
291,158,112798,1,0,0:0:0:0:
345,176,112910,1,0,0:0:0:0:
425,258,113134,1,0,0:0:0:0:
327,319,113358,2,0,L|170:367,2,115
181,140,114254,6,0,P|92:162|53:190,1,115
36,218,114589,1,0,0:0:0:0:
18,272,114701,1,0,0:0:0:0:
102,350,114925,6,0,P|168:365|253:354,1,115
320,317,115373,2,0,L|411:221,1,115
326,143,115821,1,0,0:0:0:0:
97,167,116157,5,0,0:0:0:0:
97,167,116269,2,0,L|52:115,2,57.5
176,250,116716,1,0,0:0:0:0:
285,214,116940,1,0,0:0:0:0:
364,297,117164,2,0,L|483:226,1,115
130,334,117948,5,0,0:0:0:0:
168,291,118060,1,0,0:0:0:0:
208,254,118172,2,0,L|326:241,1,115
434,280,118731,2,0,L|337:356,1,115
350,235,119179,2,0,L|460:304,1,115
414,185,119627,5,0,0:0:0:0:
364,155,119739,1,0,0:0:0:0:
314,126,119851,2,0,L|218:50,1,115
163,152,120298,1,0,0:0:0:0:
112,255,120522,2,0,L|-2:328,1,115
121,361,120970,1,0,0:0:0:0:
333,272,121418,6,0,L|446:255,1,115
382,158,121866,1,0,0:0:0:0:
270,131,122089,1,0,0:0:0:0:
158,160,122313,2,0,L|29:207,1,115
66,254,122761,5,0,0:0:0:0:
205,307,123209,1,0,0:0:0:0:
194,157,123657,2,0,P|296:178|378:250,1,201.25
334,251,124552,2,0,L|249:85,1,172.5
189,132,125448,2,0,L|127:150,1,57.5
187,201,125896,2,0,L|157:271,1,57.5
239,255,126343,6,0,L|316:263,1,57.5
299,185,126791,2,0,L|371:153,1,57.5
351,161,127239,2,0,P|253:90|194:137,1,201.25
200,125,128134,2,0,L|253:324,1,201.25
214,322,129030,2,0,L|108:241,1,115
269,225,129925,6,0,L|198:198,1,57.5
166,147,130373,2,0,L|106:126,1,57.5
59,74,130821,2,0,P|149:82|265:48,1,201.25
254,53,131716,2,0,P|317:156|277:206,1,201.25
266,242,132612,2,0,L|191:223,1,57.5
162,169,133060,2,0,L|83:157,1,57.5
131,230,133508,6,0,L|210:208,1,57.5
186,139,133955,2,0,L|265:137,1,57.5
310,103,134403,2,0,P|388:120|400:236,1,201.25
405,227,135299,2,0,L|212:294,1,201.25
178,286,136194,2,0,L|141:156,1,115
182,321,137090,5,0,0:0:0:0:
266,197,137538,1,0,0:0:0:0:
116,190,137986,2,0,P|170:245|300:283,1,201.25
285,283,138881,2,0,P|363:199|381:127,1,172.5
305,133,139777,6,0,L|243:151,1,57.5
186,189,140225,2,0,L|156:259,1,57.5
222,287,140672,6,0,L|299:295,1,57.5
321,230,141120,2,0,L|393:198,1,57.5
403,137,141568,2,0,P|305:66|246:113,1,201.25
252,101,142463,2,0,L|305:300,1,201.25
341,292,143359,2,0,L|447:211,1,115
283,231,144254,6,0,L|212:204,1,57.5
195,277,144702,2,0,L|135:256,1,57.5
113,187,145150,2,0,B|190:163|233:182|319:161,1,201.25
312,162,146045,2,0,P|375:265|335:315,1,201.25
335,314,146941,2,0,L|218:285,1,115
118,179,147837,6,0,L|232:153,1,115
304,159,148508,1,0,0:0:0:0:
378,159,148732,2,0,L|492:199,1,115
434,250,149403,1,0,0:0:0:0:
374,295,149628,2,0,L|251:330,1,115
266,177,150522,2,0,P|357:104|241:37,1,287.5
187,76,151866,2,0,L|88:156,1,115
218,236,152537,5,0,0:0:0:0:
343,302,152761,1,0,0:0:0:0:
418,172,152985,2,0,B|479:137|479:137|525:65,1,115
354,123,153433,2,0,L|195:108,1,115
90,105,153880,5,0,0:0:0:0:
172,229,154104,2,0,L|306:230,1,115
428,179,154552,2,0,L|340:88,2,115
366,316,155224,2,0,P|276:278|243:304,1,115
127,331,155672,6,0,L|219:280,1,57.5
238,259,155895,2,0,P|314:164|241:102,1,230
108,63,156567,1,0,0:0:0:0:
257,67,156791,2,0,B|217:208,2,115
387,141,157463,1,0,0:0:0:0:
359,287,157686,6,0,L|309:175,2,115
214,246,158358,1,0,0:0:0:0:
149,217,158582,2,0,L|31:169,1,115
97,313,159030,2,0,L|211:232,1,115
339,265,159477,6,0,P|388:192|398:146,1,115
247,194,159925,2,0,L|123:155,1,115
301,81,160373,2,0,L|214:191,1,115
368,228,160821,2,0,P|444:235|465:267,1,115
