osu file format v14

[General]
AudioFilename: Icon For Hire - Cynics & Critics.mp3
AudioLeadIn: 0
PreviewTime: 93243
Countdown: 0
SampleSet: None
StackLeniency: 0.4
Mode: 0
LetterboxInBreaks: 0
EpilepsyWarning: 1
WidescreenStoryboard: 1

[Editor]
Bookmarks: 11136,14100,21744,32352,45611,56219,58851,66827,72131,82738,94672,105280,115888,121191,131799,142407,153015,163622,174230,184838,190142,200729
DistanceSpacing: 1.2
BeatDivisor: 4
GridSize: 8
TimelineZoom: 1.8

[Metadata]
Title:Cynics & Critics
TitleUnicode:Cynics & Critics
Artist:Icon For Hire
ArtistUnicode:Icon For Hire
Creator:LGV894
Version:Insane
Source:
Tags:and Alternative Metal Electronic Punk Rock pishifat AlexaBM LGV894 Exote moph
BeatmapID:1803890
BeatmapSetID:862361

[Difficulty]
HPDrainRate:5
CircleSize:4
OverallDifficulty:8.6
ApproachRate:8.3
SliderMultiplier:1.5
SliderTickRate:1

[Events]
//Background and Video events
0,0,"raccoonforhire.jpg",0,0
//Break Periods
2,67007,68755
//Storyboard Layer 0 (Background)
//Storyboard Layer 1 (Fail)
//Storyboard Layer 2 (Pass)
//Storyboard Layer 3 (Foreground)
//Storyboard Sound Samples

[TimingPoints]
509,331.491712707182,4,2,0,70,1,0
10453,-166.666666666667,4,2,0,70,0,0
11116,-100,4,2,0,70,0,0
21724,-125,4,2,0,70,0,0
32332,-100,4,2,0,70,0,0
40288,-166.666666666667,4,2,0,70,0,0
45591,-83.3333333333333,4,2,0,80,0,1
66807,-166.666666666667,4,2,0,80,0,0
72111,-125,4,2,0,80,0,0
82718,-100,4,2,0,80,0,0
93326,-166.666666666667,4,2,0,80,0,0
94652,-83.3333333333333,4,2,0,80,0,1
115868,-166.666666666667,4,2,0,80,0,0
120508,-125,4,2,0,80,0,0
120840,-62.5,4,2,0,80,0,0
121171,-125,4,2,0,80,0,0
131779,-71.4285714285714,4,2,0,80,0,1
142276,-71.4285714285714,4,2,0,80,0,0
142387,-83.3333333333333,4,2,0,80,0,1
152995,-166.666666666667,4,2,0,80,0,0
163602,-83.3333333333333,4,2,0,80,0,1
184818,-100,4,2,0,70,0,0

[Colours]
Combo1 : 199,186,177
Combo2 : 167,194,168
Combo3 : 155,179,213
Combo4 : 217,179,214

[HitObjects]
256,192,8464,12,0,10453,0:0:0:0:
141,263,11116,6,0,P|127:297|125:334,1,75
205,197,11448,2,0,P|203:159|189:125,1,75
81,202,11779,1,0,0:0:0:0:
128,278,11945,1,0,0:0:0:0:
245,145,12111,2,0,L|170:147,1,75
244,335,12442,6,0,L|241:260,1,75
367,173,12774,2,0,L|369:98,1,75
379,8,13105,1,0,0:0:0:0:
383,197,13271,1,0,0:0:0:0:
474,181,13437,1,0,0:0:0:0:
474,181,13602,1,0,0:0:0:0:
354,113,13768,6,0,P|317:120|284:138,1,75
212,229,14100,2,0,P|174:231|138:222,1,75
188,126,14431,2,0,L|193:51,1,75
43,192,14763,1,0,0:0:0:0:
61,284,14928,1,0,0:0:0:0:
61,284,15011,1,0,0:0:0:0:
41,306,15094,6,0,P|77:296|114:299,1,75
191,347,15426,2,0,P|228:349|264:340,1,75
316,197,15757,1,0,0:0:0:0:
339,384,15923,1,0,0:0:0:0:
352,283,16089,1,0,0:0:0:0:
265,306,16254,1,0,0:0:0:0:
202,240,16420,6,0,L|207:165,1,75
128,307,16752,2,0,L|133:381,1,75
88,209,17083,1,0,0:0:0:0:
105,120,17249,1,0,0:0:0:0:
135,288,17415,1,0,0:0:0:0:
18,262,17580,1,0,0:0:0:0:
173,171,17746,6,0,L|247:176,1,75
320,288,18078,2,0,L|394:282,1,75
201,122,18409,6,0,L|195:196,1,75
383,311,18741,1,0,0:0:0:0:
369,222,18906,1,0,0:0:0:0:
421,107,19072,6,0,P|384:114|352:133,1,75
277,222,19404,2,0,P|239:224|203:215,1,75
370,142,19735,2,0,P|406:132|443:135,1,75
294,236,20067,2,0,P|258:248|221:248,1,75
114,200,20398,5,0,0:0:0:0:
114,200,20564,1,0,0:0:0:0:
139,106,20729,1,0,0:0:0:0:
139,106,20895,1,0,0:0:0:0:
20,117,21061,5,0,0:0:0:0:
20,117,21144,1,0,0:0:0:0:
20,117,21227,1,0,0:0:0:0:
9,29,21392,1,0,0:0:0:0:
9,29,21475,1,0,0:0:0:0:
9,29,21558,1,0,0:0:0:0:
103,68,21724,6,0,P|117:105|116:144,1,80
174,209,22055,2,0,P|159:246|160:285,1,80
95,170,22387,2,0,P|106:131|101:92,1,80
196,184,22718,2,0,P|191:223|202:261,1,80
210,344,23050,6,0,P|248:332|287:337,1,80
371,277,23381,1,0,0:0:0:0:
371,277,23713,1,0,0:0:0:0:
393,296,24044,2,0,L|384:216,1,80
394,108,24376,6,0,P|354:113|321:134,1,80
249,200,24707,2,0,P|210:191|178:167,1,80
343,111,25039,2,0,P|379:95|419:97,1,80
287,210,25370,2,0,P|248:218|209:210,1,80
137,134,25702,5,0,0:0:0:0:
116,348,26033,1,0,0:0:0:0:
82,207,26365,1,0,0:0:0:0:
65,231,26696,2,0,L|144:227,1,80
209,162,27028,6,0,P|220:124|215:84,1,80
131,212,27359,2,0,P|132:251|150:286,1,80
245,183,27691,2,0,P|246:143|231:106,1,80
158,236,28022,2,0,P|146:273|151:313,1,80
219,369,28354,5,0,0:0:0:0:
346,301,28685,2,0,L|337:221,1,80
374,119,29017,2,0,L|360:238,1,120
388,260,29569,1,0,0:0:0:0:
416,280,29680,6,0,L|336:272,1,80
236,333,30011,2,0,L|156:325,1,80
349,291,30343,2,0,L|429:299,1,80
249,352,30674,2,0,L|169:344,1,80
100,277,31006,6,0,P|88:239|93:199,1,80
128,111,31337,2,0,P|167:109|202:91,1,80
309,91,31669,2,0,P|344:109|384:111,1,80
418,199,32000,2,0,P|423:239|412:277,1,80
313,328,32332,6,0,P|277:316|240:315,1,75
130,359,32663,2,0,P|143:285|125:213,1,150
22,289,33160,1,0,0:0:0:0:
115,380,33326,2,0,L|189:376,1,75
148,236,33658,6,0,P|145:198|154:162,1,75
219,101,33989,1,0,0:0:0:0:
141,28,34155,2,0,P|68:20|14:69,1,150
38,213,34652,2,0,P|88:216|130:190,1,100
67,138,34984,6,0,P|47:210|59:283,2,150
177,218,35812,1,0,0:0:0:0:
238,152,35978,2,0,L|233:77,1,75
280,239,36310,6,0,L|275:313,1,75
392,192,36641,1,0,0:0:0:0:
392,192,36807,2,0,L|401:341,1,150
272,261,37304,1,0,0:0:0:0:
272,261,37470,1,0,0:0:0:0:
376,212,37636,6,0,P|411:223|448:223,1,75
422,111,37967,2,0,P|433:75|433:38,1,75
325,58,38299,2,0,P|252:50|198:99,1,150
265,158,38796,1,0,0:0:0:0:
224,238,38962,6,0,L|227:312,1,75
182,119,39293,2,0,L|185:44,1,75
124,192,39625,1,0,0:0:0:0:
201,146,39790,1,0,0:0:0:0:
278,191,39956,5,0,0:0:0:0:
275,213,40039,1,0,0:0:0:0:
272,235,40122,1,0,0:0:0:0:
269,257,40205,1,0,0:0:0:0:
291,278,40288,5,0,0:0:0:0:
397,262,40619,1,0,0:0:0:0:
291,278,40950,1,0,0:0:0:0:
397,262,41281,1,0,0:0:0:0:
291,278,41613,1,0,0:0:0:0:
397,262,41944,1,0,0:0:0:0:
291,278,42275,1,0,0:0:0:0:
397,262,42606,1,0,0:0:0:0:
237,184,42939,6,0,P|223:141|229:97,1,89.9999972534181
198,29,43437,2,0,P|239:46|283:43,1,89.9999972534181
347,2,43934,1,0,0:0:0:0:
362,22,44265,2,0,L|368:111,1,89.9999972534181
461,56,44928,2,0,B|455:146|455:146|458:190,1,134.999995880127
493,293,45591,6,0,P|446:235|322:248,1,179.999994506836
282,319,46089,1,0,0:0:0:0:
193,257,46254,2,0,L|199:167,1,89.9999972534181
105,23,46586,2,0,L|111:113,1,89.9999972534181
110,112,46834,1,0,0:0:0:0:
136,136,46917,6,0,P|183:78|307:91,1,179.999994506836
237,173,47415,1,0,0:0:0:0:
300,318,47580,2,0,L|389:313,1,89.9999972534181
315,200,47912,2,0,L|225:195,1,89.9999972534181
392,50,48243,6,0,P|424:133|410:220,1,179.999994506836
297,90,48741,2,0,P|335:67|379:64,1,89.9999972534181
225,156,49072,2,0,P|202:117|199:73,1,89.9999972534181
80,32,49404,1,0,0:0:0:0:
80,32,49486,1,0,0:0:0:0:
58,60,49569,6,0,L|64:149,1,89.9999972534181
148,219,49901,2,0,L|141:308,1,89.9999972534181
220,383,50232,2,0,P|280:339|396:383,1,179.999994506836
443,275,50729,1,0,0:0:0:0:
373,192,50895,6,0,P|358:104|390:21,1,179.999994506836
502,119,51392,1,0,0:0:0:0:
394,220,51558,2,0,P|349:216|311:193,1,89.9999972534181
358,40,51890,2,0,P|377:80|376:124,1,89.9999972534181
324,288,52221,5,0,0:0:0:0:
324,288,52387,1,0,0:0:0:0:
299,182,52553,2,0,L|210:175,1,89.9999972534181
330,352,52884,2,0,P|342:309|333:265,1,89.9999972534181
178,265,53216,2,0,P|169:309|182:352,1,89.9999972534181
224,145,53547,6,0,P|180:136|137:148,1,89.9999972534181
288,203,53879,2,0,P|331:211|374:199,1,89.9999972534181
348,93,54210,1,0,0:0:0:0:
244,61,54376,1,0,0:0:0:0:
211,164,54542,2,0,L|216:253,1,89.9999972534181
364,216,54873,5,0,0:0:0:0:
290,136,55039,1,0,0:0:0:0:
190,180,55205,2,0,L|201:359,1,179.999994506836
142,268,55702,1,0,0:0:0:0:
225,198,55868,1,0,0:0:0:0:
135,138,56033,1,0,0:0:0:0:
212,62,56199,6,0,P|295:30|382:44,1,179.999994506836
429,142,56696,1,0,0:0:0:0:
372,233,56862,2,0,P|327:233|287:213,1,89.9999972534181
418,37,57194,2,0,P|440:75|443:119,1,89.9999972534181,0|0,2:0|2:0,2:0:0:0:
335,110,57525,6,0,P|247:112|188:48,1,179.999994506836
290,11,58022,1,0,0:0:0:0:
359,94,58188,2,0,L|448:89,1,89.9999972534181
210,67,58520,2,0,L|120:62,1,89.9999972534181
146,214,58851,6,0,P|163:126|134:43,1,179.999994506836
93,315,59348,2,0,P|132:335|177:334,1,89.9999972534181
155,227,59680,2,0,P|198:212|229:181,1,89.9999972534181
153,66,60011,1,0,0:0:0:0:
153,66,60094,1,0,0:0:0:0:
126,89,60177,6,0,L|36:81,1,89.9999972534181
169,245,60508,2,0,L|258:237,1,89.9999972534181
369,146,60840,2,0,P|370:101|351:61,1,89.9999972534181
272,256,61171,2,0,P|255:297|259:341,1,89.9999972534181
363,309,61503,6,0,P|450:311|509:247,1,179.999994506836
407,209,62000,1,0,0:0:0:0:
353,328,62166,2,0,P|308:332|267:315,1,89.9999972534181
427,230,62497,2,0,P|468:213|512:217,1,89.9999972534181
365,347,62829,5,0,0:0:0:0:
365,347,62995,1,0,0:0:0:0:
329,245,63160,2,0,L|336:155,1,89.9999972534181
439,249,63492,1,0,0:0:0:0:
333,272,63658,1,0,0:0:0:0:
319,165,63823,2,0,P|279:144|234:144,1,89.9999972534181
147,79,64155,6,0,P|128:118|129:163,1,89.9999972534181
70,254,64486,2,0,P|109:273|153:273,1,89.9999972534181
248,329,64818,1,0,0:0:0:0:
238,221,64984,1,0,0:0:0:0:
333,171,65149,2,0,L|422:163,1,89.9999972534181
234,104,65481,6,0,L|189:100,2,44.999998626709
317,197,65812,2,0,L|406:189,1,89.9999972534181
254,121,66144,1,0,0:0:0:0:
237,291,66310,1,0,0:0:0:0:
354,217,66475,5,0,0:0:0:0:
349,190,66558,1,0,0:0:0:0:
344,163,66641,1,0,0:0:0:0:
340,136,66724,1,0,0:0:0:0:
357,94,66807,5,0,0:0:0:0:
256,192,69459,12,0,71116,0:0:0:0:
128,183,71613,5,0,0:0:0:0:
128,183,71779,2,0,L|172:181,1,44.999998626709
234,143,72111,6,0,P|244:115|240:85,1,60
290,202,72442,2,0,P|285:231|296:259,1,60
358,161,72774,1,0,0:0:0:0:
357,160,72939,2,0,P|309:126|251:136,1,120
191,177,73437,2,0,P|133:186|85:153,1,120
78,23,73934,2,0,P|135:13|183:46,1,120
77,168,74431,1,0,0:0:0:0:
43,104,74597,1,0,0:0:0:0:
69,36,74763,6,0,P|98:34|126:45,1,60
186,115,75094,2,0,P|215:116|243:105,1,60
116,62,75426,2,0,P|86:60|58:71,1,60
178,136,75757,2,0,P|207:137|235:126,1,60
313,94,76089,2,0,P|299:67|276:48,2,60
379,65,76586,2,0,P|345:113|355:171,1,120
425,154,77083,2,0,L|419:233,1,80
449,270,77415,6,0,P|411:278|373:266,1,80
303,325,77746,2,0,P|265:313|226:321,1,80
378,282,78078,2,0,P|416:294|455:286,1,80
308,340,78409,2,0,P|270:328|231:336,1,80
191,255,78741,2,0,P|220:228|232:190,1,80
142,172,79072,2,0,P|115:142|107:104,1,80
196,101,79404,2,0,P|235:93|273:105,1,80
341,157,79735,2,0,P|380:151|411:127,1,80
417,44,80067,5,0,0:0:0:0:
417,44,80398,1,0,0:0:0:0:
401,62,80729,2,0,L|460:61,1,60
335,157,81061,2,0,L|275:156,1,60
386,77,81392,6,0,L|445:76,1,60
323,138,81724,2,0,L|263:137,1,60
400,30,82055,2,0,L|402:89,1,60
305,118,82387,2,0,L|302:177,1,60
414,224,82718,6,0,L|420:298,1,75
302,359,83050,2,0,L|308:284,1,75
215,211,83381,1,0,0:0:0:0:
132,248,83547,1,0,0:0:0:0:
64,187,83713,2,0,P|61:149|70:113,1,75
19,39,84044,6,0,P|90:24|148:67,1,150
171,155,84542,2,0,P|242:169|300:126,1,150
384,161,85039,2,0,P|391:111|369:67,1,100
294,40,85370,6,0,L|219:43,1,75
177,143,85702,2,0,L|102:139,1,75
229,58,86033,2,0,L|304:55,1,75
187,158,86365,2,0,L|112:154,1,75
249,249,86696,5,0,0:0:0:0:
271,246,86779,1,0,0:0:0:0:
292,243,86862,2,0,P|296:224|296:205,2,37.5
355,101,87194,2,0,P|337:107|320:116,2,37.5
217,73,87525,1,0,0:0:0:0:
208,94,87608,1,0,0:0:0:0:
199,115,87691,2,0,P|213:127|229:136,3,37.5
309,178,88022,6,0,P|237:163|179:206,1,150
292,318,88520,1,0,0:0:0:0:
352,251,88685,2,0,L|339:101,1,150
404,38,89183,1,0,0:0:0:0:
456,110,89348,6,0,L|449:184,1,75
388,346,89680,2,0,L|381:271,1,75
249,302,90011,2,0,L|297:244,1,75
276,156,90343,2,0,L|201:162,1,75
138,97,90674,6,0,P|158:169|146:242,2,150
31,178,91503,1,0,0:0:0:0:
163,259,91669,2,0,P|199:250|236:253,1,75
358,141,92000,6,0,P|366:177|363:214,1,75
315,291,92332,1,0,0:0:0:0:
252,227,92497,2,0,P|216:219|179:222,1,75
101,269,92829,1,0,0:0:0:0:
52,192,92995,1,0,0:0:0:0:
104,119,93160,1,0,0:0:0:0:
38,62,93326,6,0,L|42:17,1,44.999998626709
91,137,93658,2,0,L|95:181,1,44.999998626709
156,65,93989,1,0,0:0:0:0:
156,65,94155,2,0,L|245:64,1,89.9999972534181
328,133,94652,6,0,P|387:69|475:72,1,179.999994506836
366,230,95149,1,0,0:0:0:0:
259,213,95315,2,0,P|226:181|212:139,1,89.9999972534181
161,273,95647,2,0,P|153:317|127:353,1,89.9999972534181
127,353,95895,1,0,0:0:0:0:
146,371,95978,6,0,B|190:359|234:371|234:371|278:382|323:371,1,179.999994506836
401,294,96475,1,0,0:0:0:0:
321,133,96641,2,0,L|318:223,1,89.9999972534181
445,128,96973,2,0,L|441:38,1,89.9999972534181
297,85,97304,6,0,L|289:264,1,179.999994506836
381,177,97801,2,0,P|425:184|461:210,1,89.9999972534181
456,24,98133,2,0,P|427:58|386:76,1,89.9999972534181
281,52,98464,1,0,0:0:0:0:
281,52,98547,1,0,0:0:0:0:
257,65,98630,6,0,P|216:45|172:46,1,89.9999972534181
359,176,98962,2,0,P|403:180|445:164,1,89.9999972534181
274,92,99293,2,0,P|228:166|254:249,1,179.999994506836
337,181,99790,1,0,0:0:0:0:
416,285,99956,6,0,L|236:273,1,179.999994506836
142,326,100453,1,0,0:0:0:0:
22,166,100619,2,0,L|34:76,1,89.9999972534181
152,250,100950,2,0,L|164:339,1,89.9999972534181
22,52,101282,2,0,L|9:141,1,89.9999972534181
167,232,101613,2,0,L|179:321,1,89.9999972534181
34,183,101945,1,0,0:0:0:0:
125,125,102111,1,0,0:0:0:0:
190,211,102276,2,0,L|202:300,1,89.9999972534181
125,125,102608,6,0,L|35:112,1,89.9999972534181
227,23,102939,2,0,L|239:112,1,89.9999972534181
189,314,103271,1,0,0:0:0:0:
145,214,103437,1,0,0:0:0:0:
219,136,103602,2,0,P|263:131|305:147,1,89.9999972534181
173,331,103934,1,0,0:0:0:0:
123,234,104100,1,0,0:0:0:0:
195,154,104265,2,0,L|284:145,1,89.9999972534181
159,345,104597,5,0,0:0:0:0:
109,248,104763,1,0,0:0:0:0:
181,168,104928,1,0,0:0:0:0:
131,71,105094,1,0,0:0:0:0:
224,16,105260,6,0,P|312:17|389:63,1,179.999994506836
