osu file format v14

[General]
AudioFilename: Icon For Hire - Cynics & Critics.mp3
AudioLeadIn: 0
PreviewTime: 93243
Countdown: 0
SampleSet: None
StackLeniency: 0.4
Mode: 0
LetterboxInBreaks: 0
EpilepsyWarning: 1
WidescreenStoryboard: 1

[Editor]
Bookmarks: 11136,14100,21744,32352,37304,38962,45611,56219,58851,66827,72131,82738,94672,105280,115888,121191,131799,142407,153015,163622,174230,184838,190142,200729
DistanceSpacing: 1.4
BeatDivisor: 4
GridSize: 8
TimelineZoom: 1.8

[Metadata]
Title:Cynics & Critics
TitleUnicode:Cynics & Critics
Artist:Icon For Hire
ArtistUnicode:Icon For Hire
Creator:LGV894
Version:Hard
Source:
Tags:and Alternative Metal Electronic Punk Rock pishifat AlexaBM LGV894 Exote moph
BeatmapID:1803889
BeatmapSetID:862361

[Difficulty]
HPDrainRate:4.8
CircleSize:4
OverallDifficulty:7.6
ApproachRate:7.8
SliderMultiplier:1.4
SliderTickRate:1

[Events]
//Background and Video events
0,0,"raccoonforhire.jpg",0,0
//Break Periods
//Storyboard Layer 0 (Background)
//Storyboard Layer 1 (Fail)
//Storyboard Layer 2 (Pass)
//Storyboard Layer 3 (Foreground)
//Storyboard Sound Samples

[TimingPoints]
509,331.491712707182,4,2,0,70,1,0
10453,-166.666666666667,4,2,0,70,0,0
11116,-100,4,2,0,70,0,0
21724,-125,4,2,0,70,0,0
32332,-100,4,2,0,70,0,0
40288,-166.666666666667,4,2,0,70,0,0
45591,-83.3333333333333,4,2,0,80,0,1
66807,-166.666666666667,4,2,0,80,0,0
72111,-125,4,2,0,80,0,0
82718,-100,4,2,0,80,0,0
93326,-166.666666666667,4,2,0,80,0,0
94652,-83.3333333333333,4,2,0,80,0,1
115868,-166.666666666667,4,2,0,80,0,0
120508,-125,4,2,0,80,0,0
120840,-62.5,4,2,0,80,0,0
121171,-125,4,2,0,80,0,0
131779,-71.4285714285714,4,2,0,80,0,1
142276,-71.4285714285714,4,2,0,80,0,0
142387,-83.3333333333333,4,2,0,80,0,1
152995,-166.666666666667,4,2,0,80,0,0
163602,-83.3333333333333,4,2,0,80,0,1
184818,-100,4,2,0,70,0,0

[Colours]
Combo1 : 199,186,177
Combo2 : 167,194,168
Combo3 : 155,179,213
Combo4 : 217,179,214

[HitObjects]
112,79,11116,6,0,P|95:109|92:144,1,70
35,207,11448,2,0,P|51:237|54:272,1,70
117,328,11779,1,0,0:0:0:0:
176,268,11945,1,0,0:0:0:0:
259,275,12111,1,0,0:0:0:0:
298,348,12276,1,0,0:0:0:0:
298,348,12442,6,0,L|367:344,1,70
276,255,12774,2,0,L|206:251,1,70
299,93,13105,2,0,P|315:123|318:158,1,70
289,237,13437,1,0,0:0:0:0:
307,318,13602,1,0,0:0:0:0:
241,370,13768,6,0,L|171:366,1,70
113,304,14100,2,0,L|43:307,1,70
9,230,14431,1,0,0:0:0:0:
57,160,14597,1,0,0:0:0:0:
140,167,14763,1,0,0:0:0:0:
179,246,14928,1,0,0:0:0:0:
179,246,15094,6,0,P|209:229|244:226,1,70
340,290,15426,1,0,0:0:0:0:
354,274,15757,2,0,L|345:204,1,70
387,131,16089,2,0,L|378:61,1,70
467,160,16420,6,0,L|458:230,1,70
439,380,16752,2,0,L|430:310,1,70
363,259,17083,1,0,0:0:0:0:
303,318,17249,1,0,0:0:0:0:
219,307,17415,1,0,0:0:0:0:
173,236,17580,1,0,0:0:0:0:
201,156,17746,6,0,P|218:126|221:91,1,70
109,30,18078,2,0,P|111:64|129:94,1,70
81,177,18409,6,0,P|87:211|78:244,1,70
137,337,18741,1,0,0:0:0:0:
137,337,18906,1,0,0:0:0:0:
137,337,19072,6,0,L|206:332,1,70
286,361,19404,2,0,L|355:356,1,70
355,271,19735,2,0,L|286:276,1,70
206,247,20067,2,0,L|137:252,1,70
280,193,20398,5,0,0:0:0:0:
280,193,20564,1,0,0:0:0:0:
222,132,20729,1,0,0:0:0:0:
222,132,20895,1,0,0:0:0:0:
274,66,21061,6,0,L|308:62,2,35
235,258,21392,2,0,L|200:254,2,35
308,333,21724,6,0,P|344:340|379:328,1,74.6666666666667
413,357,22055,2,0,L|402:283,1,74.6666666666667
445,299,22387,2,0,L|455:225,1,74.6666666666667
477,186,22718,2,0,P|440:178|405:190,1,74.6666666666667
357,262,23050,5,0,0:0:0:0:
323,83,23381,1,0,0:0:0:0:
323,83,23713,1,0,0:0:0:0:
338,99,24044,2,0,L|263:93,1,74.6666666666667
219,158,24376,6,0,P|211:194|223:229,1,74.6666666666667
259,255,24707,2,0,P|266:291|254:326,1,74.6666666666667
294,348,25039,2,0,L|368:339,1,74.6666666666667
407,362,25370,2,0,P|399:325|411:290,1,74.6666666666667
453,306,25702,5,0,0:0:0:0:
421,107,26033,1,0,0:0:0:0:
477,228,26365,1,0,0:0:0:0:
356,167,26696,2,0,P|319:159|284:171,1,74.6666666666667
263,210,27028,6,0,L|271:284,1,74.6666666666667
240,316,27359,2,0,L|248:241,1,74.6666666666667
212,215,27691,2,0,L|220:289,1,74.6666666666667
189,321,28022,2,0,L|197:246,1,74.6666666666667
215,166,28354,5,0,0:0:0:0:
258,367,28685,1,0,0:0:0:0:
219,345,29017,2,0,L|330:336,1,112
347,350,29680,6,0,P|339:313|351:278,1,74.6666666666667
382,247,30011,2,0,P|390:210|378:175,1,74.6666666666667
325,116,30343,2,0,P|288:108|253:120,1,74.6666666666667
220,149,30674,2,0,P|184:160|148:152,1,74.6666666666667
189,76,31006,6,0,P|197:39|185:4,1,74.6666666666667
121,46,31337,2,0,P|112:82|124:117,1,74.6666666666667
200,149,31669,2,0,P|212:184|203:221,1,74.6666666666667
139,262,32000,2,0,P|127:227|136:190,1,74.6666666666667
215,298,32332,6,0,L|284:295,1,70
390,342,32663,2,0,P|410:276|396:208,1,140
360,132,33160,1,0,0:0:0:0:
360,132,33326,2,0,P|328:146|293:146,1,70
290,230,33658,6,0,P|241:182|173:184,1,140
167,321,34155,2,0,P|215:368|283:366,1,140
311,246,34652,2,0,L|318:176,1,70
335,93,34984,6,0,L|343:232,2,140
263,48,35812,1,0,0:0:0:0:
228,124,35978,2,0,P|196:138|161:138,1,70
64,85,36310,6,0,L|70:15,2,70
3,143,36807,2,0,L|15:283,1,140
53,207,37304,2,0,P|85:193|120:193,1,70
179,253,37636,6,0,L|175:322,1,70
271,284,37967,2,0,L|302:346,1,70
321,208,38299,2,0,L|460:196,1,140
272,141,38796,1,0,0:0:0:0:
188,132,38962,6,0,P|136:175|133:243,1,140
348,213,39459,2,0,B|313:204|279:213|279:213|244:221|210:213,1,140
105,157,39956,6,0,P|100:140|100:122,3,35
113,100,40288,5,0,0:0:0:0:
211,119,40619,1,0,0:0:0:0:
113,100,40950,1,0,0:0:0:0:
211,119,41281,1,0,0:0:0:0:
113,100,41613,1,0,0:0:0:0:
211,119,41944,1,0,0:0:0:0:
113,100,42275,1,0,0:0:0:0:
211,119,42606,1,0,0:0:0:0:
98,25,42939,6,0,P|47:60|39:120,1,125.999996154785
143,231,43934,1,0,0:0:0:0:
196,145,44265,2,0,B|208:126|242:121|267:137|274:159|274:159|263:226|263:226|278:288|278:288|292:269|316:255|334:254,1,293.999991027832
366,348,45591,6,0,P|426:293|424:212,1,167.999994873047
341,153,46089,1,0,0:0:0:0:
395,68,46254,2,0,L|407:235,1,167.999994873047
320,288,46752,1,0,0:0:0:0:
231,336,46917,6,0,P|190:328|158:301,1,83.9999974365235
227,171,47249,2,0,P|240:210|233:251,1,83.9999974365235
124,155,47580,2,0,P|163:83|243:66,1,167.999994873047
311,202,48078,1,0,0:0:0:0:
246,278,48243,6,0,B|204:288|163:278|163:278|121:267|80:278,1,167.999994873047
196,108,48741,2,0,P|209:147|202:188,1,83.9999974365235
43,161,49072,2,0,P|82:147|123:154,1,83.9999974365235
160,307,49404,2,0,L|157:347,2,41.9999987182618
217,205,49735,6,0,L|210:114,1,83.9999974365235
363,208,50067,1,0,0:0:0:0:
363,208,50232,2,0,L|293:254,1,83.9999974365235,0|0,2:0|2:0,2:0:0:0:
289,76,50564,2,0,L|364:112,1,83.9999974365235,0|0,2:0|2:0,2:0:0:0:
457,72,50895,6,0,P|397:127|399:208,1,167.999994873047
491,166,51392,1,0,0:0:0:0:
480,266,51558,2,0,P|450:295|410:306,1,83.9999974365235
338,377,51890,2,0,P|297:366|268:336,1,83.9999974365235
247,238,52221,2,0,L|253:154,1,83.9999974365235
171,295,52553,2,0,L|177:378,1,83.9999974365235
263,254,52884,2,0,P|317:222|379:226,2,125.999996154785
201,174,53547,6,0,P|222:137|221:95,1,83.9999974365235
153,21,53879,1,0,0:0:0:0:
143,36,54210,2,0,L|226:31,1,83.9999974365235
307,93,54542,2,0,L|390:88,1,83.9999974365235
235,150,54873,6,0,P|214:185|214:227,1,83.9999974365235
121,268,55205,2,0,B|163:278|204:268|204:268|246:257|287:268,1,167.999994873047
358,339,55702,1,0,0:0:0:0:
419,258,55868,2,0,L|410:174,1,83.9999974365235
452,102,56199,6,0,L|439:269,1,167.999994873047
479,362,56696,1,0,0:0:0:0:
378,351,56862,2,0,B|336:341|295:351|295:351|253:362|212:351,1,167.999994873047
251,258,57359,1,0,0:0:0:0:
150,269,57525,2,0,P|78:230|61:150,1,167.999994873047
99,57,58022,1,0,0:0:0:0:
195,88,58188,2,0,L|191:171,1,83.9999974365235
150,269,58520,2,0,L|153:352,1,83.9999974365235
260,312,58851,6,0,P|329:269|407:294,1,167.999994873047
456,381,59348,2,0,B|446:339|456:298|456:298|467:256|456:215,1,167.999994873047
497,122,59846,2,0,P|462:101|420:101,1,83.9999974365235
356,22,60177,2,0,P|276:41|239:113,1,167.999994873047
268,209,60674,1,0,0:0:0:0:
184,266,60840,2,0,P|142:266|106:245,1,83.9999974365235
12,207,61171,2,0,P|32:170|68:150,1,83.9999974365235
103,55,61503,6,0,P|163:109|160:191,1,167.999994873047
88,262,62000,1,0,0:0:0:0:
171,319,62166,2,0,P|206:298|248:298,1,83.9999974365235
319,226,62497,2,0,P|348:255|388:265,1,83.9999974365235
464,198,62829,6,0,L|455:114,1,83.9999974365235
480,294,63160,2,0,L|488:377,1,83.9999974365235
482,182,63492,2,0,L|468:307,2,125.999996154785
384,348,64155,6,0,P|342:348|306:327,1,83.9999974365235
214,368,64486,2,0,P|256:298|232:221,1,167.999994873047
268,126,64984,1,0,0:0:0:0:
268,126,65149,2,0,L|184:128,1,83.9999974365235
97,74,65481,2,0,L|55:72,2,41.9999987182618
190,36,65812,1,0,0:0:0:0:
193,136,65978,1,0,0:0:0:0:
278,81,66144,2,0,P|313:101|355:101,1,83.9999974365235
432,166,66475,6,0,L|473:164,3,41.9999987182618
499,180,66807,5,0,0:0:0:0:
