osu file format v14

[General]
AudioFilename: Icon For Hire - Cynics & Critics.mp3
AudioLeadIn: 0
PreviewTime: 93243
Countdown: 0
SampleSet: Soft
StackLeniency: 0.4
Mode: 0
LetterboxInBreaks: 0
EpilepsyWarning: 1
WidescreenStoryboard: 1

[Editor]
Bookmarks: 11136,14100,21744,32352,45611,56219,58851,66827,72131,82738,94672,105280,115888,121191,131799,142407,153015,163622,174230,184838,190142,200729
DistanceSpacing: 1.2
BeatDivisor: 4
GridSize: 8
TimelineZoom: 1.8

[Metadata]
Title:Cynics & Critics
TitleUnicode:Cynics & Critics
Artist:Icon For Hire
ArtistUnicode:Icon For Hire
Creator:LGV894
Version:Expert
Source:
Tags:and Alternative Metal Electronic Punk Rock pishifat AlexaBM LGV894 Exote moph
BeatmapID:1803888
BeatmapSetID:862361

[Difficulty]
HPDrainRate:5.2
CircleSize:4
OverallDifficulty:8.8
ApproachRate:9.2
SliderMultiplier:1.5
SliderTickRate:1

[Events]
//Background and Video events
0,0,"raccoonforhire.jpg",0,0
//Break Periods
2,67007,68755
2,116068,119142
//Storyboard Layer 0 (Background)
//Storyboard Layer 1 (Fail)
//Storyboard Layer 2 (Pass)
//Storyboard Layer 3 (Foreground)
//Storyboard Sound Samples

[TimingPoints]
509,331.491712707182,4,2,0,70,1,0
10453,-166.666666666667,4,2,0,5,0,0
11116,-100,4,2,0,70,0,0
21724,-125,4,2,0,70,0,0
32332,-100,4,2,0,70,0,0
40288,-166.666666666667,4,2,0,70,0,0
45591,-83.3333333333333,4,2,0,80,0,1
66807,-166.666666666667,4,2,0,80,0,0
72111,-125,4,2,0,80,0,0
82718,-100,4,2,0,80,0,0
93326,-166.666666666667,4,2,0,80,0,0
94652,-83.3333333333333,4,2,0,80,0,1
115868,-166.666666666667,4,2,0,80,0,0
120508,-125,4,2,0,80,0,0
120840,-62.5,4,2,0,80,0,0
121171,-125,4,2,0,80,0,0
131779,-71.4285714285714,4,2,0,80,0,1
142276,-71.4285714285714,4,2,0,80,0,0
142387,-83.3333333333333,4,2,0,80,0,1
152995,-166.666666666667,4,2,0,80,0,0
163271,-100,4,2,0,80,0,0
163437,-71.4285714285715,4,2,0,80,0,0
163602,-83.3333333333333,4,2,0,80,0,1
184818,-100,4,2,0,70,0,0
188133,-71.4285714285714,4,2,0,70,0,0
188796,-166.666666666667,4,2,0,70,0,0

[Colours]
Combo1 : 199,186,177
Combo2 : 167,194,168
Combo3 : 155,179,213
Combo4 : 217,179,214

[HitObjects]
256,192,8464,12,0,10453,0:0:0:0:
105,213,11116,6,0,P|93:174|94:134,1,80
228,205,11448,2,0,P|228:244|217:283,1,80
75,146,11779,1,0,0:0:0:0:
151,51,11945,1,0,0:0:0:0:
123,231,12111,1,0,0:0:0:0:
246,210,12276,1,0,0:0:0:0:
84,158,12442,6,0,L|4:150,1,80
234,228,12774,2,0,L|313:220,1,80
409,212,13105,1,0,0:0:0:0:
312,249,13271,1,0,0:0:0:0:
423,226,13437,1,0,0:0:0:0:
268,155,13602,1,0,0:0:0:0:
359,45,13768,6,0,B|354:109|354:109|355:124,1,80
403,328,14100,2,0,B|408:264|408:264|406:248,1,80
378,349,14431,1,0,0:0:0:0:
337,147,14597,1,0,0:0:0:0:
415,234,14763,1,0,0:0:0:0:
371,327,14928,1,0,0:0:0:0:
371,327,15011,1,0,0:0:0:0:
392,337,15094,6,0,P|353:348|313:347,1,80
221,212,15426,2,0,P|191:185|154:169,1,80
61,193,15757,1,0,0:0:0:0:
240,235,15923,1,0,0:0:0:0:
126,139,16089,1,0,0:0:0:0:
232,255,16254,1,0,0:0:0:0:
225,146,16420,6,0,L|234:66,1,80
251,266,16752,2,0,L|260:345,1,80
331,192,17083,1,0,0:0:0:0:
239,161,17249,1,0,0:0:0:0:
258,66,17415,1,0,0:0:0:0:
271,282,17580,1,0,0:0:0:0:
281,94,17746,6,0,P|254:123|238:160,1,80
104,152,18078,2,0,P|110:191|127:227,1,80
173,344,18409,6,0,P|134:352|95:348,1,80
143,212,18741,1,0,0:0:0:0:
112,121,18906,1,0,0:0:0:0:
88,318,19072,6,0,P|126:329|166:328,1,80
244,225,19404,2,0,P|279:207|319:201,1,80
178,345,19735,2,0,P|138:342|101:327,1,80
255,258,20067,2,0,P|287:234|324:221,1,80
428,291,20398,5,0,0:0:0:0:
428,291,20564,1,0,0:0:0:0:
391,87,20729,1,0,0:0:0:0:
391,87,20895,1,0,0:0:0:0:
449,177,21061,5,0,0:0:0:0:
449,177,21144,1,0,0:0:0:0:
449,177,21227,1,0,0:0:0:0:
361,215,21392,1,0,0:0:0:0:
361,215,21475,1,0,0:0:0:0:
361,215,21558,1,0,0:0:0:0:
456,109,21724,6,0,P|456:151|468:192,1,85.3333333333333
370,317,22055,2,0,P|382:276|381:233,1,85.3333333333333
260,111,22387,2,0,P|270:152|292:188,1,85.3333333333333
185,339,22718,2,0,P|207:302|217:261,1,85.3333333333333
147,129,23050,5,0,0:0:0:0:
200,353,23381,2,0,L|285:347,1,85.3333333333333
100,304,23713,2,0,L|14:298,1,85.3333333333333
166,145,24044,2,0,L|171:230,1,85.3333333333333
38,146,24376,6,0,L|43:60,1,85.3333333333333
151,214,24707,2,0,L|145:128,1,85.3333333333333
258,53,25039,2,0,L|253:139,1,85.3333333333333
366,207,25370,2,0,L|360:121,1,85.3333333333333
450,39,25702,5,0,0:0:0:0:
379,230,26033,2,0,B|348:222|348:222|294:224,1,85.3333333333333
217,339,26365,2,0,B|163:341|163:341|132:333,1,85.3333333333333
172,172,26696,2,0,B|136:211|136:211|108:227,1,85.3333333333333
17,92,27028,6,0,B|19:145|19:145|11:176,1,85.3333333333333
87,303,27359,2,0,B|84:249|84:249|92:218,1,85.3333333333333
152,76,27691,2,0,B|154:129|154:129|146:160,1,85.3333333333333
222,287,28022,2,0,B|219:233|219:233|227:202,1,85.3333333333333
362,249,28354,5,0,0:0:0:0:
248,181,28685,2,0,P|207:193|164:192,1,85.3333333333333
0,84,29017,2,0,P|63:82|119:112,1,128
103,131,29569,1,0,0:0:0:0:
154,208,29680,6,0,P|195:201|233:182,1,85.3333333333333
403,260,30011,2,0,P|360:260|319:248,1,85.3333333333333
213,325,30343,2,0,P|175:305|133:299,1,85.3333333333333
309,377,30674,2,0,P|351:378|392:366,1,85.3333333333333
390,114,31006,6,0,P|348:124|312:146,1,85.3333333333333
199,249,31337,2,0,P|156:250|116:239,1,85.3333333333333
122,114,31669,2,0,P|163:124|199:146,1,85.3333333333333
312,249,32000,2,0,P|355:250|396:239,1,85.3333333333333
376,50,32332,6,0,P|357:85|351:124,1,80
413,366,32663,2,0,P|429:288|408:212,1,160
452,111,33160,1,0,0:0:0:0:
499,240,33326,2,0,L|419:232,1,80
262,332,33658,6,0,L|182:324,1,80
359,344,33989,1,0,0:0:0:0:
328,164,34155,2,0,L|320:243,1,80
348,358,34486,1,0,0:0:0:0:
466,160,34652,2,0,L|458:80,1,80
374,32,34984,6,0,L|360:191,1,160
476,147,35481,1,0,0:0:0:0:
348,59,35647,2,0,B|227:60|227:60|171:46,1,160
101,89,36144,1,0,0:0:0:0:
153,189,36310,5,0,0:0:0:0:
202,63,36475,1,0,0:0:0:0:
94,112,36641,1,0,0:0:0:0:
168,203,36807,2,0,L|247:196,1,80
343,187,37138,1,0,0:0:0:0:
316,344,37304,1,0,0:0:0:0:
316,344,37470,1,0,0:0:0:0:
251,217,37636,6,0,P|232:252|226:291,1,80
362,199,37967,2,0,P|356:159|337:124,1,80
337,319,38299,2,0,P|410:337|460:279,1,160
373,215,38796,1,0,0:0:0:0:
326,339,38962,6,0,P|294:315|256:303,1,80
163,327,39293,1,0,0:0:0:0:
339,363,39459,1,0,0:0:0:0:
299,181,39625,1,0,0:0:0:0:
273,285,39790,1,0,0:0:0:0:
380,257,39956,5,0,0:0:0:0:
387,234,40039,1,0,0:0:0:0:
387,209,40122,1,0,0:0:0:0:
380,185,40205,1,0,0:0:0:0:
354,206,40288,5,0,0:0:0:0:
241,181,40619,1,0,0:0:0:0:
354,206,40950,1,0,0:0:0:0:
241,181,41281,1,0,0:0:0:0:
354,206,41613,1,0,0:0:0:0:
241,181,41944,1,0,0:0:0:0:
354,206,42275,1,0,0:0:0:0:
241,181,42606,1,0,0:0:0:0:
357,96,42939,6,0,P|375:140|375:187,1,95.9999970703126
236,300,43437,2,0,P|236:252|254:208,1,95.9999970703126
388,213,43934,2,0,L|435:209,1,47.9999985351563
272,230,44265,2,0,L|176:222,1,95.9999970703126
130,111,44928,2,0,P|161:174|151:244,1,143.999995605469
39,275,45591,6,0,B|86:263|133:275|133:275|180:286|228:275,1,191.999994140625
173,172,46089,1,0,0:0:0:0:
278,59,46254,1,0,0:0:0:0:
241,240,46420,2,0,P|194:228|157:198,1,95.9999970703126
102,17,46752,1,0,0:0:0:0:
102,17,46834,1,0,0:0:0:0:
80,36,46917,6,0,P|99:79|98:127,1,95.9999970703126
20,316,47249,2,0,P|19:268|38:224,1,95.9999970703126
128,291,47580,2,0,P|211:255|281:314,1,191.999994140625
139,314,48078,1,0,0:0:0:0:
55,239,48243,6,0,L|77:48,1,191.999994140625
30,154,48741,1,0,0:0:0:0:
77,258,48906,1,0,0:0:0:0:
195,48,49072,2,0,P|147:47|103:66,1,95.9999970703126
30,176,49404,1,0,0:0:0:0:
30,176,49486,1,0,0:0:0:0:
58,181,49569,5,0,0:0:0:0:
118,85,49735,1,0,0:0:0:0:
172,258,49901,2,0,L|267:253,1,95.9999970703126
95,98,50232,2,0,L|0:93,1,95.9999970703126
231,218,50564,2,0,L|132:224,1,95.9999970703126
288,312,50895,6,0,P|261:222|287:131,1,191.999994140625
410,222,51392,1,0,0:0:0:0:
302,298,51558,1,0,0:0:0:0:
302,298,51724,1,0,0:0:0:0:
309,121,51890,1,0,0:0:0:0:
194,103,52055,1,0,0:0:0:0:
308,10,52221,6,0,L|321:104,1,95.9999970703126
194,223,52553,2,0,L|205:127,1,95.9999970703126
119,50,52884,1,0,0:0:0:0:
172,249,53050,1,0,0:0:0:0:
276,164,53216,2,0,P|232:144|184:145,1,95.9999970703126
363,243,53547,6,0,P|410:238|451:213,1,95.9999970703126
480,101,53879,1,0,0:0:0:0:
480,101,54044,1,0,0:0:0:0:
270,45,54210,2,0,L|261:140,1,95.9999970703126
359,330,54542,1,0,0:0:0:0:
341,216,54707,1,0,0:0:0:0:
341,216,54873,5,0,0:0:0:0:
470,358,55039,1,0,0:0:0:0:
331,349,55205,1,0,0:0:0:0:
474,228,55370,1,0,0:0:0:0:
474,228,55536,2,0,L|378:224,1,95.9999970703126
319,357,55868,1,0,0:0:0:0:
206,333,56033,1,0,0:0:0:0:
348,190,56199,6,0,B|338:321|338:321|349:381,1,191.999994140625
370,210,56696,1,0,0:0:0:0:
290,126,56862,1,0,0:0:0:0:
299,241,57028,2,0,L|394:232,1,95.9999970703126
200,313,57359,1,0,0:0:0:0:
200,313,57442,1,0,0:0:0:0:
226,341,57525,6,0,L|130:332,1,95.9999970703126
329,267,57857,2,0,L|424:258,1,95.9999970703126
224,29,58188,2,0,L|238:220,1,191.999994140625
194,327,58685,1,0,0:0:0:0:
48,195,58851,6,0,P|141:192|223:240,1,191.999994140625
348,133,59348,2,0,P|395:128|436:103,1,95.9999970703126
234,22,59680,2,0,L|245:117,1,95.9999970703126
209,230,60011,1,0,0:0:0:0:
209,230,60094,1,0,0:0:0:0:
180,233,60177,5,0,0:0:0:0:
306,274,60343,1,0,0:0:0:0:
149,242,60508,2,0,L|54:231,1,95.9999970703126
225,60,60840,2,0,P|242:104|239:151,1,95.9999970703126
79,304,61171,2,0,P|117:275|164:266,1,95.9999970703126
310,304,61503,6,0,P|357:307|401:289,1,95.9999970703126
441,76,61834,1,0,0:0:0:0:
463,198,62000,1,0,0:0:0:0:
352,59,62166,1,0,0:0:0:0:
472,91,62332,1,0,0:0:0:0:
320,179,62497,1,0,0:0:0:0:
440,211,62663,1,0,0:0:0:0:
379,50,62829,6,0,P|334:32|287:35,1,95.9999970703126
413,237,63160,2,0,P|457:254|504:251,1,95.9999970703126
364,28,63492,2,0,P|346:72|349:119,1,95.9999970703126
403,262,63823,1,0,0:0:0:0:
451,146,63989,1,0,0:0:0:0:
376,45,64155,5,0,0:0:0:0:
376,45,64321,1,0,0:0:0:0:
434,161,64486,2,0,L|425:256,1,95.9999970703126
507,352,64818,1,0,0:0:0:0:
341,324,64984,1,0,0:0:0:0:
460,152,65149,1,0,0:0:0:0:
440,275,65315,1,0,0:0:0:0:
345,192,65481,6,0,L|297:186,2,47.9999985351563
462,293,65812,1,0,0:0:0:0:
358,213,65978,1,0,0:0:0:0:
477,129,66144,1,0,0:0:0:0:
482,309,66310,1,0,0:0:0:0:
371,230,66475,5,0,0:0:0:0:
332,234,66558,1,0,0:0:0:0:
293,238,66641,1,0,0:0:0:0:
254,242,66724,1,0,0:0:0:0:
208,225,66807,5,0,0:0:0:0:
256,192,69459,12,0,71116,0:0:0:0:
70,124,71613,5,0,0:0:0:0:
70,124,71779,2,0,L|117:122,1,47.9999985351563
165,183,72111,6,0,P|155:213|153:244,1,64
245,119,72442,2,0,P|245:88|239:56,1,64
177,196,72774,1,0,0:0:0:0:
264,255,72939,2,0,P|313:217|375:227,1,128
301,326,73437,6,0,P|239:333|191:294,1,128
253,129,73934,2,0,P|267:191|263:254,1,128
131,203,74431,1,0,0:0:0:0:
268,146,74597,1,0,0:0:0:0:
211,93,74763,6,0,L|147:98,1,64
198,250,75094,2,0,L|261:244,1,64
230,115,75426,2,0,L|224:51,1,64
187,266,75757,2,0,L|192:329,1,64
259,204,76089,5,0,0:0:0:0:
157,173,76254,1,0,0:0:0:0:
199,280,76420,1,0,0:0:0:0:
274,218,76586,2,0,L|259:90,1,128
380,38,77083,2,0,L|373:123,1,85.3333333333333
445,218,77415,6,0,P|429:178|395:153,1,85.3333333333333
413,291,77746,2,0,P|454:297|493:280,1,85.3333333333333
341,264,78078,2,0,P|347:222|330:183,1,85.3333333333333
276,311,78409,2,0,P|308:337|350:342,1,85.3333333333333
230,251,78741,6,0,P|256:218|261:176,1,85.3333333333333
150,259,79072,2,0,P|165:298|199:323,1,85.3333333333333
310,240,79404,2,0,P|294:200|260:175,1,85.3333333333333
275,312,79735,2,0,P|316:318|355:301,1,85.3333333333333
390,231,80067,5,0,0:0:0:0:
390,231,80398,1,0,0:0:0:0:
405,243,80729,2,0,L|468:238,1,64
352,310,81061,2,0,L|288:305,1,64
416,225,81392,6,0,L|479:220,1,64
333,323,81724,2,0,L|269:318,1,64
425,146,82055,2,0,L|429:209,1,64
319,342,82387,2,0,L|323:278,1,64
421,90,82718,6,0,P|440:125|446:164,1,80
299,352,83050,2,0,P|304:312|323:277,1,80
450,338,83381,1,0,0:0:0:0:
320,376,83547,1,0,0:0:0:0:
443,186,83713,1,0,0:0:0:0:
443,186,83879,1,0,0:0:0:0:
322,277,84044,6,0,P|282:271|247:252,1,80
210,158,84376,1,0,0:0:0:0:
420,44,84542,2,0,B|429:155|429:155|426:203,1,160
486,373,85039,2,0,B|481:299|481:299|483:267,1,106.666666666667
420,44,85370,6,0,L|413:123,1,80
478,347,85702,2,0,L|484:267,1,80
498,172,86033,1,0,0:0:0:0:
491,362,86199,1,0,0:0:0:0:
457,271,86365,1,0,0:0:0:0:
457,271,86531,1,0,0:0:0:0:
328,354,86696,5,0,0:0:0:0:
303,352,86779,1,0,0:0:0:0:
273,365,86862,2,0,L|233:362,2,40
350,253,87194,1,0,0:0:0:0:
333,233,87277,1,0,0:0:0:0:
316,213,87359,1,0,0:0:0:0:
458,245,87525,1,0,0:0:0:0:
460,220,87608,1,0,0:0:0:0:
447,190,87691,2,0,L|449:150,3,40
478,111,88022,6,0,L|470:271,1,160
497,363,88520,1,0,0:0:0:0:
501,130,88685,2,0,P|423:122|356:162,1,160
450,246,89183,1,0,0:0:0:0:
493,152,89348,6,0,L|481:72,1,80
374,182,89680,2,0,L|362:261,1,80
501,88,90011,2,0,L|422:100,1,80
384,284,90343,2,0,L|304:279,1,80
202,342,90674,6,0,P|167:323|128:317,1,80
39,357,91006,1,0,0:0:0:0:
93,139,91171,1,0,0:0:0:0:
178,249,91337,2,0,P|104:275|29:253,1,160
102,150,91834,1,0,0:0:0:0:
300,325,92000,6,0,L|379:319,1,80
476,314,92332,1,0,0:0:0:0:
237,254,92497,2,0,L|308:289,1,80
394,332,92829,1,0,0:0:0:0:
207,158,92995,1,0,0:0:0:0:
254,351,93160,1,0,0:0:0:0:
332,227,93326,6,0,P|308:221|284:222,1,47.9999985351563
219,278,93658,2,0,P|195:279|171:273,1,47.9999985351563
119,210,93989,1,0,0:0:0:0:
119,210,94155,2,0,L|126:114,1,95.9999970703126
90,39,94652,6,0,L|102:230,1,191.999994140625
53,126,95149,1,0,0:0:0:0:
229,46,95315,1,0,0:0:0:0:
297,139,95481,2,0,P|300:185|282:230,1,95.9999970703126
341,330,95812,1,0,0:0:0:0:
341,330,95895,1,0,0:0:0:0:
363,348,95978,6,0,L|458:340,1,95.9999970703126
305,211,96310,2,0,L|209:203,1,95.9999970703126
434,41,96641,2,0,B|420:184|420:184|450:146,1,191.999994140625
352,86,97138,1,0,0:0:0:0:
414,309,97304,6,0,P|448:221|430:128,1,191.999994140625
328,106,97801,1,0,0:0:0:0:
392,327,97967,1,0,0:0:0:0:
410,195,98133,2,0,L|505:191,1,95.9999970703126
311,119,98464,1,0,0:0:0:0:
311,119,98547,1,0,0:0:0:0:
282,121,98630,5,0,0:0:0:0:
386,25,98796,1,0,0:0:0:0:
431,215,98962,2,0,L|335:218,1,95.9999970703126
184,106,99293,2,0,L|88:102,1,95.9999970703126
319,198,99625,2,0,L|414:194,1,95.9999970703126
216,17,99956,6,0,B|201:152|201:152|208:207,1,191.999994140625
162,101,100453,1,0,0:0:0:0:
155,319,100619,1,0,0:0:0:0:
217,222,100785,1,0,0:0:0:0:
156,124,100950,1,0,0:0:0:0:
156,124,101116,1,0,0:0:0:0:
175,338,101282,6,0,L|270:329,1,95.9999970703126
172,148,101613,2,0,L|76:139,1,95.9999970703126
345,48,101945,2,0,L|353:143,1,95.9999970703126
399,339,102276,2,0,L|407:243,1,95.9999970703126
214,214,102608,6,0,L|222:118,1,95.9999970703126
233,3,102939,1,0,0:0:0:0:
233,3,103105,1,0,0:0:0:0:
232,229,103271,1,0,0:0:0:0:
249,114,103437,1,0,0:0:0:0:
294,331,103602,1,0,0:0:0:0:
133,298,103768,1,0,0:0:0:0:
266,120,103934,6,0,P|271:143|269:167,1,47.9999985351563
242,239,104100,1,0,0:0:0:0:
214,31,104265,2,0,P|258:15|306:20,1,95.9999970703126
392,99,104597,1,0,0:0:0:0:
371,212,104763,1,0,0:0:0:0:
245,145,104928,1,0,0:0:0:0:
283,320,105094,1,0,0:0:0:0:
139,355,105260,6,0,B|153:212|153:212|122:249,1,191.999994140625
273,338,105757,1,0,0:0:0:0:
230,163,105923,1,0,0:0:0:0:
304,250,106089,2,0,L|400:242,1,95.9999970703126
268,357,106420,1,0,0:0:0:0:
268,357,106503,1,0,0:0:0:0:
290,375,106586,6,0,P|308:330|305:283,1,95.9999970703126
227,106,106917,2,0,P|222:153|239:198,1,95.9999970703126
512,125,107249,2,0,P|417:131|340:187,1,191.999994140625
471,292,107746,1,0,0:0:0:0:
388,372,107912,6,0,B|341:384|294:372|294:372|247:361|199:372,1,191.999994140625
304,176,108409,2,0,P|331:214|339:261,1,95.9999970703126
221,104,108741,2,0,P|224:56|248:15,1,95.9999970703126
367,344,109072,2,0,P|344:349|320:348,1,47.9999985351563
259,288,109238,5,0,0:0:0:0:
311,185,109404,1,0,0:0:0:0:
303,368,109569,2,0,L|207:363,1,95.9999970703126
389,240,109901,2,0,L|484:235,1,95.9999970703126
229,337,110232,2,0,L|324:341,1,95.9999970703126
235,112,110564,5,0,0:0:0:0:
189,217,110729,1,0,0:0:0:0:
257,309,110895,2,0,L|352:313,1,95.9999970703126
202,231,111227,1,0,0:0:0:0:
249,126,111392,1,0,0:0:0:0:
103,156,111558,1,0,0:0:0:0:
145,342,111724,1,0,0:0:0:0:
216,251,111890,6,0,P|261:238|308:246,1,95.9999970703126
406,342,112221,2,0,P|453:342|496:321,1,95.9999970703126
308,227,112553,2,0,P|264:206|217:206,1,95.9999970703126
387,366,112884,1,0,0:0:0:0:
499,339,113050,1,0,0:0:0:0:
333,159,113216,6,0,L|329:254,1,95.9999970703126
439,95,113547,2,0,L|435:0,1,95.9999970703126
348,173,113879,1,0,0:0:0:0:
254,106,114044,1,0,0:0:0:0:
452,21,114210,2,0,L|455:116,1,95.9999970703126
235,124,114542,6,0,L|187:122,1,47.9999985351563
319,42,114707,1,0,0:0:0:0:
344,296,114873,1,0,0:0:0:0:
244,238,115039,1,0,0:0:0:0:
435,108,115205,1,0,0:0:0:0:
443,222,115370,1,0,0:0:0:0:
369,311,115536,5,0,0:0:0:0:
340,307,115619,1,0,0:0:0:0:
311,303,115702,1,0,0:0:0:0:
282,300,115785,1,0,0:0:0:0:
237,316,115868,5,0,0:0:0:0:
48,134,119846,5,0,0:0:0:0:
95,131,120011,1,0,0:0:0:0:
119,129,120094,1,0,0:0:0:0:
143,127,120177,1,0,0:0:0:0:
191,125,120343,1,0,0:0:0:0:
0,73,120508,5,0,0:0:0:0:
51,265,120674,1,0,0:0:0:0:
98,153,120840,2,0,L|129:150,7,32
168,148,121171,5,0,0:0:0:0:
264,238,121337,1,0,0:0:0:0:
256,288,121420,1,0,0:0:0:0:
249,338,121503,1,0,0:0:0:0:
179,166,121669,1,0,0:0:0:0:
361,44,121834,1,0,0:0:0:0:
379,62,122497,1,0,0:0:0:0:
397,80,123160,5,0,0:0:0:0:
273,23,123326,1,0,0:0:0:0:
281,99,123492,1,0,0:0:0:0:
289,175,123658,1,0,0:0:0:0:
221,317,123823,5,0,0:0:0:0:
119,152,123989,1,0,0:0:0:0:
126,101,124072,1,0,0:0:0:0:
133,50,124155,1,0,0:0:0:0:
28,4,124321,1,0,0:0:0:0:
66,240,124486,1,0,0:0:0:0:
84,221,125149,1,0,0:0:0:0:
102,202,125812,5,0,0:0:0:0:
133,199,125895,1,0,0:0:0:0:
164,197,125978,1,0,0:0:0:0:
195,195,126061,1,0,0:0:0:0:
227,225,126144,5,0,0:0:0:0:
252,223,126227,1,0,0:0:0:0:
277,221,126310,1,0,0:0:0:0:
302,219,126392,1,0,0:0:0:0:
348,240,126475,5,0,0:0:0:0:
407,143,126641,1,0,0:0:0:0:
407,143,126724,1,0,0:0:0:0:
407,143,126807,1,0,0:0:0:0:
366,263,126973,1,0,0:0:0:0:
322,44,127138,1,0,0:0:0:0:
308,65,127470,1,0,0:0:0:0:
384,59,127636,1,0,0:0:0:0:
460,53,127801,1,0,0:0:0:0:
289,83,128464,5,0,0:0:0:0:
319,245,128630,1,0,0:0:0:0:
242,234,128796,1,0,0:0:0:0:
165,224,128962,1,0,0:0:0:0:
14,194,129127,5,0,0:0:0:0:
90,353,129293,1,0,0:0:0:0:
141,349,129376,1,0,0:0:0:0:
192,345,129459,1,0,0:0:0:0:
294,335,129625,1,0,0:0:0:0:
244,152,129790,6,0,L|236:247,1,96
244,257,130122,1,0,0:0:0:0:
252,266,130288,1,0,0:0:0:0:
259,40,130453,5,0,0:0:0:0:
220,42,130536,1,0,0:0:0:0:
181,45,130619,1,0,0:0:0:0:
142,48,130702,1,0,0:0:0:0:
107,86,130785,5,0,0:0:0:0:
76,77,130868,1,0,0:0:0:0:
45,84,130950,1,0,0:0:0:0:
25,109,131033,1,0,0:0:0:0:
50,146,131116,5,0,0:0:0:0:
131,255,131282,2,0,P|182:220|243:235,1,128
333,184,131779,6,0,L|316:35,1,149.333328776042
444,132,132111,2,0,L|427:280,1,149.333328776042
297,72,132442,2,0,L|313:220,1,149.333328776042
191,309,132774,2,0,L|199:234,1,74.6666643880209
154,156,132995,1,0,0:0:0:0:
164,318,133105,6,0,P|220:364|293:360,1,149.333328776042
395,243,133437,2,0,P|331:278|259:262,1,149.333328776042
230,134,133768,2,0,L|235:78,1,55.9999982910157
363,172,133934,2,0,L|368:227,1,55.9999982910157
254,102,134100,2,0,L|248:157,1,55.9999982910157
344,248,134265,2,0,L|339:193,1,55.9999982910157
453,77,134431,6,0,L|447:151,1,74.6666643880209
493,288,134652,1,0,0:0:0:0:
493,288,134763,2,0,L|418:282,1,74.6666643880209
291,349,134984,1,0,0:0:0:0:
291,349,135095,2,0,L|301:200,1,149.333328776042
204,115,135426,2,0,P|227:164|279:179,1,111.999996582031
373,138,135674,1,0,0:0:0:0:
373,138,135757,6,0,L|367:63,1,74.6666643880209
454,209,135978,1,0,0:0:0:0:
454,209,136089,2,0,L|448:283,1,74.6666643880209
360,341,136310,1,0,0:0:0:0:
359,341,136420,2,0,P|333:348|305:346,1,55.9999982910157
239,283,136586,2,0,P|212:275|184:277,1,55.9999982910157
348,353,136752,2,0,P|321:360|293:358,1,55.9999982910157
227,294,136918,2,0,P|200:286|172:288,1,55.9999982910157
87,348,137083,6,0,P|149:310|147:216,1,167.999994873047
0,144,137415,2,0,P|1:217|83:262,1,167.999994873047
222,169,137746,2,0,P|157:133|78:182,1,167.999994873047,0|0,2:0|2:0,2:0:0:0:
151,222,138078,1,0,0:0:0:0:
194,55,138243,1,0,0:0:0:0:
288,142,138409,6,0,B|300:261|300:261|280:238,1,149.333328776042
263,384,138741,2,0,B|360:314|360:314|349:342,1,149.333328776042
480,288,139072,2,0,B|370:238|370:238|400:233,1,149.333328776042
274,362,139404,2,0,B|262:243|262:243|281:265,1,149.333328776042
88,247,139735,6,0,B|185:177|185:177|174:205,1,149.333328776042
379,195,140067,2,0,B|281:264|281:264|292:236,1,149.333328776042
112,136,140398,6,0,B|230:155|230:155|203:168,1,149.333328776042
354,305,140730,2,0,B|236:286|236:286|263:273,1,149.333328776042
338,333,141061,6,0,L|412:324,1,74.6666643880209
501,314,141282,1,0,0:0:0:0:
501,314,141392,2,0,L|456:254,1,74.6666643880209
403,182,141613,1,0,0:0:0:0:
403,182,141724,2,0,L|373:250,1,74.6666643880209
337,332,141945,1,0,0:0:0:0:
284,260,142055,2,0,P|248:250|211:255,1,74.6666643880209
146,317,142276,1,0,0:0:0:0:
89,260,142387,6,0,P|67:169|103:82,1,191.999994140625
225,38,142884,1,0,0:0:0:0:
205,151,143050,2,0,P|252:154|296:135,1,95.9999970703126
363,223,143381,2,0,P|410:220|453:239,1,95.9999970703126
385,333,143713,6,0,B|398:193|398:193|389:142,1,191.999994140625
404,158,144376,1,0,0:0:0:0:
255,127,144542,1,0,0:0:0:0:
306,24,144707,1,0,0:0:0:0:
295,311,144873,1,0,0:0:0:0:
385,242,145039,6,0,L|373:146,1,95.9999970703126
493,7,145370,2,0,L|481:102,1,95.9999970703126
448,351,145702,1,0,0:0:0:0:
395,162,145868,1,0,0:0:0:0:
470,244,146033,1,0,0:0:0:0:
334,290,146199,1,0,0:0:0:0:
286,283,146282,1,0,0:0:0:0:
237,313,146365,6,0,L|332:311,1,95.9999970703126
448,313,146696,1,0,0:0:0:0:
435,335,147028,1,0,0:0:0:0:
461,133,147194,1,0,0:0:0:0:
298,197,147359,1,0,0:0:0:0:
470,144,147525,1,0,0:0:0:0:
399,52,147691,6,0,P|352:44|306:59,1,95.9999970703126
319,214,148022,2,0,P|365:221|411:206,1,95.9999970703126
250,139,148354,1,0,0:0:0:0:
274,329,148520,1,0,0:0:0:0:
233,221,148685,1,0,0:0:0:0:
334,275,148851,1,0,0:0:0:0:
382,273,148934,1,0,0:0:0:0:
424,312,149017,6,0,P|438:266|431:219,1,95.9999970703126
334,137,149348,2,0,P|319:91|326:44,1,95.9999970703126
410,227,149680,1,0,0:0:0:0:
456,90,149846,1,0,0:0:0:0:
415,246,150011,1,0,0:0:0:0:
348,151,150177,1,0,0:0:0:0:
180,304,150343,6,0,L|84:296,1,95.9999970703126
365,165,150674,2,0,L|460:157,1,95.9999970703126
100,321,151006,2,0,L|195:328,1,95.9999970703126
356,185,151337,1,0,0:0:0:0:
470,175,151503,1,0,0:0:0:0:
175,27,151669,5,0,0:0:0:0:
191,140,151834,1,0,0:0:0:0:
115,324,152000,1,0,0:0:0:0:
94,100,152165,1,0,0:0:0:0:
223,368,152332,1,0,0:0:0:0:
207,255,152497,1,0,0:0:0:0:
411,306,152663,2,0,P|365:320|318:313,1,95.9999970703126
355,220,152995,6,0,P|356:151|412:111,1,143.999995605469
462,193,153823,2,0,L|366:196,1,95.9999970703126
328,227,154321,2,0,P|286:203|239:208,1,95.9999970703126
171,276,154984,2,0,P|123:280|82:257,1,95.9999970703126
51,166,155647,6,0,L|59:70,1,95.9999970703126
101,95,156144,2,0,P|141:70|161:27,2,95.9999970703126
116,141,156973,2,0,P|163:136|204:159,1,95.9999970703126
270,229,157636,2,0,P|316:237|359:217,1,95.9999970703126
342,123,158299,6,0,L|294:119,1,47.9999985351563
211,147,158630,1,0,0:0:0:0:
299,124,158962,2,0,L|347:128,1,47.9999985351563
216,152,159293,2,0,L|168:148,1,47.9999985351563
352,133,159625,6,0,L|304:129,1,47.9999985351563
173,153,159956,2,0,L|221:157,1,47.9999985351563
309,134,160288,2,0,L|357:138,1,47.9999985351563
226,162,160619,2,0,L|178:158,1,47.9999985351563
134,235,160950,6,0,P|124:257|124:280,1,47.9999985351563
163,356,161282,1,0,0:0:0:0:
176,366,161613,2,0,P|198:356|221:356,1,47.9999985351563
291,296,161945,2,0,P|313:305|336:305,1,47.9999985351563
392,216,162276,6,0,P|388:192|376:171,1,47.9999985351563
438,93,162608,2,0,P|441:69|453:48,1,47.9999985351563
277,48,162939,1,0,0:0:0:0:
290,134,163105,1,0,0:0:0:0:
179,100,163271,2,0,L|181:139,1,40
121,217,163437,2,0,L|117:272,1,55.9999982910157
18,101,163602,6,0,P|106:67|199:85,1,191.999994140625
131,225,164100,1,0,0:0:0:0:
208,309,164265,1,0,0:0:0:0:
223,96,164431,2,0,P|226:50|208:5,1,95.9999970703126
143,234,164763,1,0,0:0:0:0:
143,234,164846,1,0,0:0:0:0:
174,255,164928,6,0,P|218:236|265:239,1,95.9999970703126
348,320,165260,1,0,0:0:0:0:
379,105,165426,1,0,0:0:0:0:
418,214,165591,2,0,P|350:273|265:239,1,191.999994140625
394,111,166089,1,0,0:0:0:0:
433,218,166254,6,0,B|419:361|419:361|449:323,1,191.999994140625
412,118,166752,1,0,0:0:0:0:
337,344,166917,1,0,0:0:0:0:
178,166,167083,2,0,L|82:157,1,95.9999970703126
232,80,167415,1,0,0:0:0:0:
232,80,167497,1,0,0:0:0:0:
244,106,167580,5,0,0:0:0:0:
331,24,167746,1,0,0:0:0:0:
356,265,167912,2,0,L|451:256,1,95.9999970703126
259,128,168243,2,0,L|163:119,1,95.9999970703126
466,271,168575,2,0,L|370:279,1,95.9999970703126
276,146,168906,6,0,P|273:100|291:55,1,95.9999970703126
404,179,169238,1,0,0:0:0:0:
388,293,169404,1,0,0:0:0:0:
509,128,169569,2,0,L|499:32,1,95.9999970703126
309,221,169901,1,0,0:0:0:0:
485,252,170067,1,0,0:0:0:0:
363,150,170232,6,0,P|334:187|324:234,1,95.9999970703126
408,310,170564,1,0,0:0:0:0:
408,310,170729,1,0,0:0:0:0:
241,338,170895,2,0,L|145:333,1,95.9999970703126
277,118,171227,1,0,0:0:0:0:
333,245,171392,1,0,0:0:0:0:
252,356,171558,6,0,L|156:351,1,95.9999970703126
352,265,171890,2,0,L|447:260,1,95.9999970703126
286,129,172221,1,0,0:0:0:0:
266,377,172387,1,0,0:0:0:0:
428,285,172553,2,0,P|434:237|419:192,1,95.9999970703126
296,154,172884,6,0,L|248:152,1,47.9999985351563
165,148,173050,1,0,0:0:0:0:
100,52,173216,1,0,0:0:0:0:
134,225,173381,1,0,0:0:0:0:
214,81,173547,1,0,0:0:0:0:
160,322,173713,1,0,0:0:0:0:
258,197,173879,1,0,0:0:0:0:
149,234,174044,1,0,0:0:0:0:
201,108,174210,6,0,L|296:106,1,95.9999970703126
484,169,174542,2,0,L|388:167,1,95.9999970703126
394,53,174873,1,0,0:0:0:0:
371,279,175039,1,0,0:0:0:0:
465,195,175205,1,0,0:0:0:0:
403,75,175370,1,0,0:0:0:0:
421,363,175536,6,0,P|468:364|512:346,1,95.9999970703126
376,178,175868,2,0,P|332:159|284:161,1,95.9999970703126
130,289,176199,2,0,B|177:277|224:289|224:289|271:300|319:289,1,191.999994140625
265,186,176696,1,0,0:0:0:0:
139,306,176862,2,0,P|48:315|0:238,1,191.999994140625
90,146,177359,1,0,0:0:0:0:
2,76,177525,1,0,0:0:0:0:
86,237,177691,2,0,L|181:232,1,95.9999970703126
251,110,178022,1,0,0:0:0:0:
251,110,178105,1,0,0:0:0:0:
242,147,178188,5,0,0:0:0:0:
167,58,178354,1,0,0:0:0:0:
339,96,178520,2,0,P|353:141|346:188,1,95.9999970703126
367,301,178851,2,0,L|271:293,1,95.9999970703126
451,107,179183,2,0,L|355:114,1,95.9999970703126
247,71,179514,5,0,0:0:0:0:
169,199,179680,1,0,0:0:0:0:
271,308,179846,2,0,L|366:300,1,95.9999970703126
432,205,180177,1,0,0:0:0:0:
369,96,180343,1,0,0:0:0:0:
388,316,180508,1,0,0:0:0:0:
388,316,180674,1,0,0:0:0:0:
419,205,180840,5,0,0:0:0:0:
418,337,181006,1,0,0:0:0:0:
347,118,181171,1,0,0:0:0:0:
499,164,181337,1,0,0:0:0:0:
337,245,181503,2,0,P|289:239|249:213,1,95.9999970703126
231,236,181752,2,0,P|190:210|143:206,1,95.9999970703126
121,187,182000,2,0,P|115:164|118:141,1,47.9999985351563
378,224,182166,5,0,0:0:0:0:
263,232,182332,1,0,0:0:0:0:
306,21,182497,1,0,0:0:0:0:
306,21,182663,1,0,0:0:0:0:
313,136,182829,1,0,0:0:0:0:
225,79,182995,1,0,0:0:0:0:
404,66,183160,1,0,0:0:0:0:
265,247,183326,1,0,0:0:0:0:
164,190,183492,6,0,P|158:166|161:143,1,47.9999985351563
201,62,183658,1,0,0:0:0:0:
246,271,183823,1,0,0:0:0:0:
86,250,183989,1,0,0:0:0:0:
137,126,184155,1,0,0:0:0:0:
163,328,184321,1,0,0:0:0:0:
237,240,184486,5,0,0:0:0:0:
265,239,184569,1,0,0:0:0:0:
293,238,184652,1,0,0:0:0:0:
321,237,184735,1,0,0:0:0:0:
363,259,184818,6,0,P|372:220|367:181,1,80
310,103,185149,1,0,0:0:0:0:
358,264,185481,2,0,P|367:225|362:186,1,80
305,108,185812,2,0,P|295:69|300:30,1,80
353,269,186144,6,0,P|362:230|357:191,1,80
300,113,186475,2,0,P|290:74|295:35,1,80
457,166,186807,1,0,0:0:0:0:
447,261,186973,1,0,0:0:0:0:
369,204,187138,1,0,0:0:0:0:
410,366,187304,1,0,0:0:0:0:
323,324,187470,5,0,0:0:0:0:
298,323,187553,1,0,0:0:0:0:
273,322,187636,1,0,0:0:0:0:
249,321,187718,1,0,0:0:0:0:
218,329,187801,6,0,P|221:310|221:290,3,40
162,229,188133,5,0,0:0:0:0:
141,188,188216,1,0,0:0:0:0:
140,143,188299,1,0,0:0:0:0:
163,105,188381,1,0,0:0:0:0:
209,137,188464,6,0,L|264:133,1,55.9999982910157
323,209,188630,2,0,L|378:212,1,55.9999982910157
501,140,188796,6,0,P|412:135|394:222,1,191.999994140625
394,222,190122,5,0,0:0:0:0:
