osu file format v14

[General]
AudioFilename: audio.mp3
AudioLeadIn: 0
PreviewTime: -1
Countdown: 0
SampleSet: None
StackLeniency: 0.7
Mode: 0
LetterboxInBreaks: 0
WidescreenStoryboard: 0

[Editor]
DistanceSpacing: 1
BeatDivisor: 4
GridSize: 8
TimelineZoom: 0.5

[Metadata]
Title:Castle in The Mist
TitleUnicode:Castle in The Mist
Artist:Ico
ArtistUnicode:Ico
Creator:Angie52Naoto
Version:Normal
Source:
Tags:
BeatmapID:1738974
BeatmapSetID:829943

[Difficulty]
HPDrainRate:3
CircleSize:5
OverallDifficulty:5
ApproachRate:5
SliderMultiplier:0.800000005960464
SliderTickRate:1

[Events]
//Background and Video events
0,0,"1-IcoShadow_Hero_EN.JPG",0,0
//Break Periods
2,90050,100166
//Storyboard Layer 0 (Background)
//Storyboard Layer 1 (Fail)
//Storyboard Layer 2 (Pass)
//Storyboard Layer 3 (Foreground)
//Storyboard Sound Samples

[TimingPoints]
7941.69891911085,400.534045393858,4,1,0,100,1,0

[HitObjects]
254,70,10344,5,0,2:2:0:0:
132,145,11546,1,0,2:2:0:0:
81,229,12347,1,0,2:2:0:0:
384,261,12748,1,0,2:2:0:0:
132,145,14049,1,0,2:2:0:0:
275,147,15151,5,0,2:2:0:0:
340,57,15551,1,0,2:2:0:0:
393,143,15952,1,0,2:2:0:0:
387,231,16352,1,0,2:2:0:0:
176,201,17153,1,0,2:2:0:0:
290,128,17554,1,0,2:2:0:0:
259,255,18356,1,0,2:2:0:0:
96,188,18756,1,0,2:2:0:0:
137,107,19957,5,0,2:2:0:0:
284,204,21159,1,0,2:2:0:0:
167,207,21960,1,0,2:2:0:0:
286,136,22360,1,0,2:2:0:0:
321,247,23562,1,0,2:2:0:0:
36,112,24663,2,0,B|527:40|481:249|423:320|365:359|357:274|416:165|31:183|31:182,1,900.000006705522,0|0,2:2|2:2,2:2:0:0:
35,291,29570,5,0,2:2:0:0:
171,178,30371,1,0,2:2:0:0:
50,193,30772,1,0,2:2:0:0:
171,266,31573,1,0,2:2:0:0:
257,175,31973,1,0,2:2:0:0:
319,260,32774,1,0,2:2:0:0:
367,182,33175,1,0,2:2:0:0:
185,129,34376,5,0,2:2:0:0:
163,219,35178,1,0,2:2:0:0:
78,162,35578,1,0,2:2:0:0:
74,229,36379,1,0,2:2:0:0:
184,253,36780,1,0,2:2:0:0:
237,160,37581,1,0,2:2:0:0:
278,253,37981,1,0,2:2:0:0:
51,193,39183,5,0,2:2:0:0:
216,191,39984,1,0,2:2:0:0:
342,191,40384,1,0,2:2:0:0:
226,183,41085,1,0,2:2:0:0:
115,153,41486,1,0,2:2:0:0:
104,204,41886,1,0,2:2:0:0:
177,163,42287,1,0,2:2:0:0:
94,91,42688,1,0,2:2:0:0:
12,162,43489,1,0,2:2:0:0:
143,218,43889,2,0,P|350:332|442:230,2,400.000002980232,0|0|0,2:2|2:2|2:2,2:2:0:0:
127,196,48796,5,0,2:2:0:0:
152,253,49597,1,0,2:2:0:0:
261,220,49997,1,0,2:2:0:0:
124,162,50698,1,0,2:2:0:0:
108,234,51099,1,0,2:2:0:0:
215,179,51900,1,0,2:2:0:0:
236,256,52300,1,0,2:2:0:0:
306,155,53502,5,0,2:2:0:0:
155,153,54403,1,0,2:2:0:0:
167,209,54804,1,0,2:2:0:0:
264,162,55605,1,0,2:2:0:0:
302,225,56005,1,0,2:2:0:0:
164,155,56706,1,0,2:2:0:0:
105,237,57107,1,0,2:2:0:0:
158,155,58308,5,0,2:2:0:0:
186,200,59109,1,0,2:2:0:0:
286,192,59510,1,0,2:2:0:0:
191,158,60311,1,0,2:2:0:0:
48,124,60712,1,0,2:2:0:0:
221,118,61112,1,0,2:2:0:0:
234,179,61513,1,0,2:2:0:0:
319,145,61913,1,0,2:2:0:0:
291,199,62714,1,0,2:2:0:0:
160,179,63215,2,0,B|127:338|333:353|360:329|436:248|363:54|67:51,1,700.000005215406,0|0,2:2|2:2,2:2:0:0:
161,226,68121,5,0,2:2:0:0:
219,214,69323,1,0,2:2:0:0:
271,221,70425,1,0,2:2:0:0:
331,228,71626,1,0,2:2:0:0:
241,234,72828,1,0,2:2:0:0:
135,217,74029,1,0,2:2:0:0:
130,247,75131,1,0,2:2:0:0:
236,253,76433,1,0,2:2:0:0:
293,237,77534,1,0,2:2:0:0:
400,183,78736,1,0,2:2:0:0:
293,234,79937,1,0,2:2:0:0:
86,182,81139,1,0,2:2:0:0:
293,234,82340,1,0,2:2:0:0:
448,237,83542,1,0,2:2:0:0:
166,213,84744,1,0,2:2:0:0:
416,158,85945,1,0,2:2:0:0:
153,137,87147,1,0,2:2:0:0:
290,233,89850,1,0,2:2:0:0:
290,233,101366,5,0,2:2:0:0:
364,236,101566,1,0,2:2:0:0:
437,236,101766,1,0,2:2:0:0:
507,113,102668,1,0,2:2:0:0:
294,78,103569,1,0,2:2:0:0:
139,69,103969,1,0,2:2:0:0:
290,233,105171,1,0,2:2:0:0:
290,233,106372,5,0,2:2:0:0:
131,208,106773,1,0,2:2:0:0:
162,328,107174,1,0,2:2:0:0:
290,233,107574,1,0,2:2:0:0:
385,327,108375,1,0,2:2:0:0:
512,228,108776,1,0,2:2:0:0:
362,115,109577,1,0,2:2:0:0:
290,233,109977,1,0,2:2:0:0:
170,199,111179,1,0,0:0:0:0:
28,89,112380,5,0,2:2:0:0:
30,218,113081,1,0,2:2:0:0:
167,228,113482,1,0,2:2:0:0:
290,233,114784,1,0,2:2:0:0:
68,122,115885,2,0,B|492:251|64:119|486:250|62:120,2,440.000003278255,0|0|0,2:2|2:2|2:2,2:2:0:0:
178,246,120692,5,0,2:2:0:0:
301,121,121593,1,0,2:2:0:0:
325,268,121993,1,0,2:2:0:0:
110,132,122794,1,0,2:2:0:0:
113,252,123195,1,0,2:2:0:0:
245,67,123896,1,0,2:2:0:0:
256,189,124296,1,0,2:2:0:0:
110,132,125498,5,0,2:2:0:0:
108,280,126399,1,0,2:2:0:0:
260,207,126800,1,0,2:2:0:0:
110,132,127501,1,0,2:2:0:0:
260,275,127901,1,0,2:2:0:0:
110,132,128802,1,0,2:2:0:0:
237,140,129203,1,0,2:2:0:0:
339,52,130404,5,0,2:2:0:0:
375,216,131105,1,0,2:2:0:0:
105,200,131506,1,0,2:2:0:0:
110,132,132407,1,0,2:2:0:0:
197,243,132808,1,0,2:2:0:0:
379,197,133208,1,0,2:2:0:0:
284,108,133509,1,0,2:2:0:0:
148,63,133909,1,0,2:2:0:0:
261,277,134710,1,0,2:2:0:0:
24,262,135111,1,0,2:2:0:0:
414,184,138716,5,0,2:2:0:0:
414,184,138816,1,0,2:2:0:0:
303,230,139216,1,0,2:2:0:0:
232,241,139617,1,0,2:2:0:0:
208,156,140017,1,0,2:2:0:0:
171,227,141119,1,0,2:2:0:0:
247,194,142320,1,0,2:2:0:0:
234,232,143522,1,0,2:2:0:0:
214,185,144724,1,0,2:2:0:0:
121,255,145925,1,0,2:2:0:0:
196,188,147127,1,0,2:2:0:0:
273,274,148328,1,0,2:2:0:0:
251,175,150131,5,0,2:2:0:0:
359,180,150531,1,0,2:2:0:0:
477,203,150832,1,0,2:2:0:0:
471,290,151232,1,0,2:2:0:0:
392,306,151633,1,0,2:2:0:0:
332,300,151933,1,0,2:2:0:0:
187,212,152334,1,0,2:2:0:0:
237,211,153535,1,0,2:2:0:0:
302,255,155137,5,0,2:2:0:0:
235,253,155338,1,0,2:2:0:0:
169,231,155738,1,0,2:2:0:0:
269,247,157140,1,0,2:2:0:0:
176,238,157441,1,0,2:2:0:0:
14,84,159243,6,0,L|233:275,3,280.000002086163,0|0|0|0,2:2|2:2|2:2|2:2,2:2:0:0:
349,236,163949,6,0,B|539:248|524:252,7,160.000001192093,0|0|0|0|0|0|0|0,2:2|2:2|2:2|2:2|2:2|2:2|2:2|2:2,2:2:0:0:
256,192,173762,12,0,184276,2:2:0:0:
