osu file format v14

[General]
AudioFilename: audio.mp3
AudioLeadIn: 0
PreviewTime: 66564
Countdown: 0
SampleSet: Soft
StackLeniency: 0.7
Mode: 2
LetterboxInBreaks: 0
WidescreenStoryboard: 0

[Editor]
Bookmarks: 1036,6365,8123,9003,9937,10816,11695,130861,131510,189888,191185
DistanceSpacing: 5
BeatDivisor: 4
GridSize: 4
TimelineZoom: 1.5

[Metadata]
Title:Kaleidoscope
TitleUnicode:カレイドスコープ
Artist:Ichinose Tokiya, Aijima Cecil & Hyuga Yamato
ArtistUnicode:一ノ瀬トキヤ,愛島セシル & 日向大和
Creator:4rcheR-
Version:Gladness
Source:うたの☆プリンスさまっ♪ マジLOVEキングダム
Tags:archer anime movie Uta no Prince-sama Maji Love Kingdom ST☆RISH HE★VENS idol 宮野真守 Miyano Mamoru 鳥海浩輔 Toriumi Kousuke 木村良平 Kimura Ryohei delight ballade vision
BeatmapID:2185961
BeatmapSetID:1045673

[Difficulty]
HPDrainRate:6
CircleSize:4.5
OverallDifficulty:9.5
ApproachRate:9.5
SliderMultiplier:2.2
SliderTickRate:2

[Events]
//Background and Video events
0,0,"YTC.jpg",0,0
//Break Periods
//Storyboard Layer 0 (Background)
//Storyboard Layer 1 (Fail)
//Storyboard Layer 2 (Pass)
//Storyboard Layer 3 (Foreground)
//Storyboard Layer 4 (Overlay)
//Storyboard Sound Samples

[TimingPoints]
1036,659.340659340659,4,2,1,30,1,0
13456,324.324324324324,4,2,1,50,1,0
13456,-100,4,2,1,50,0,0
14672,-100,4,2,1,5,0,0
14754,-100,4,2,1,50,0,0
19942,-100,4,2,1,50,0,0
30320,-100,4,2,1,50,0,0
38104,-100,4,2,1,50,0,0
40699,-100,4,2,1,50,0,0
51077,-100,4,2,1,50,0,0
64050,-200,4,2,1,50,0,0
64699,-100,4,2,1,50,0,0
65347,-200,4,2,1,50,0,0
65996,-100,4,2,1,50,0,0
66564,-100,4,2,1,5,0,0
66645,-100,4,2,1,100,0,1
77023,-100,4,2,1,100,0,1
92591,-100,4,2,1,100,0,0
102969,-100,4,2,1,50,0,0
110672,-100,4,2,1,5,0,0
110753,-100,4,2,1,70,0,0
113266,-100,4,2,1,5,0,0
113347,-100,4,2,1,100,0,0
139293,-100,4,2,1,100,0,1
162564,-100,4,2,1,5,0,1
162645,-100,4,2,1,100,0,1
165239,-100,4,2,1,100,0,0
167510,-66.6666666666667,4,2,1,100,0,0
167834,-100,4,2,1,100,0,0
193780,-200,4,2,1,50,0,0
195726,-100,4,2,1,50,0,0
196374,-133.333333333333,4,2,1,40,0,0
201564,-100,4,2,1,50,0,0
204158,-100,4,2,1,70,0,0
205455,-100,4,2,1,90,0,0
206753,-100,4,2,1,100,0,1
222320,-100,4,2,1,100,0,0
232699,-100,4,2,1,100,0,1
232780,-100,4,2,1,100,0,0
245510,-200,4,2,1,100,0,0
247942,-100,4,2,1,100,0,0

[Colours]
Combo1 : 255,0,128
Combo2 : 128,0,255
Combo3 : 0,255,64

[HitObjects]
412,340,1036,6,0,P|464:304|400:280,1,146.666666666667,2|2,0:0|0:0,0:0:0:0:
212,228,1695,2,0,L|168:76,1,146.666666666667,2|2,0:0|0:0,0:0:0:0:
392,88,2574,6,0,P|384:156|444:216,1,146.666666666667,2|0,0:0|0:0,0:0:0:0:
378,252,3233,2,0,L|224:248,1,146.666666666667,2|2,0:0|0:0,0:0:0:0:
104,256,3893,1,2,0:0:0:0:
252,260,4112,2,2,L|256:164,1,73.3333333333333
396,260,4552,6,0,P|440:216|352:112,1,220,2|2,0:0|0:0,0:0:0:0:
71,112,5431,2,0,L|96:340,1,220,2|2,0:0|0:0,0:0:0:0:
441,272,6365,6,0,L|416:120,1,146.666666666667,2|2,0:0|0:0,0:0:0:0:
280,124,7025,2,0,L|256:276,1,146.666666666667,2|2,0:0|0:0,0:0:0:0:
92,184,7684,2,2,L|40:112,1,73.3333333333333
328,48,8123,6,0,P|388:108|352:160,1,146.666666666667,2|2,0:0|0:0,0:0:0:0:
112,156,9003,2,0,P|84:196|120:280,1,146.666666666667,2|2,0:0|0:0,0:0:0:0:
380,296,9937,2,0,L|424:152,1,146.666666666667,2|2,0:0|0:0,0:0:0:0:
132,180,10816,2,2,L|440:180,1,293.333333333333
256,192,11805,12,0,13453,0:0:0:0:
421,193,13780,5,0,0:0:0:0:
244,192,14104,1,0,0:0:0:0:
420,193,14266,1,0,0:0:0:0:
458,154,14347,1,0,0:0:0:0:
265,154,14428,2,0,L|250:329,1,165,8|0,0:0|0:0,0:0:0:0:
56,318,14753,5,4,0:0:0:0:
20,280,14834,1,0,0:0:0:0:
32,228,14915,1,0,0:0:0:0:
80,196,14996,1,0,0:0:0:0:
272,188,15077,1,8,0:0:0:0:
352,176,15158,1,0,0:0:0:0:
272,156,15239,1,0,0:0:0:0:
192,144,15320,1,0,0:0:0:0:
384,244,15401,6,0,L|432:204,1,55,8|0,0:0|0:0,0:0:0:0:
232,196,15564,2,0,L|176:160,1,55
456,66,15726,1,8,0:0:0:0:
492,104,15807,1,0,0:0:0:0:
480,156,15888,1,0,0:0:0:0:
432,188,15969,1,0,0:0:0:0:
240,196,16050,5,8,0:0:0:0:
160,208,16131,1,0,0:0:0:0:
240,228,16212,1,0,0:0:0:0:
320,240,16293,1,0,0:0:0:0:
100,240,16374,2,0,L|84:308,1,55,8|0,0:0|0:0,0:0:0:0:
308,308,16537,2,0,L|372:328,1,55
184,320,16699,6,0,L|96:312,3,55,8|0|0|0,0:0|0:0|0:0|0:0,0:0:0:0:
344,272,17023,2,0,L|368:188,1,55,8|0,0:0|0:0,0:0:0:0:
168,208,17185,2,0,L|88:180,1,55
468,208,17347,6,0,L|476:88,1,110,4|8,0:0|0:0,0:0:0:0:
164,88,17672,1,0,0:0:0:0:
411,178,17834,2,0,L|404:288,1,110,0|8,0:0|0:0,0:0:0:0:
100,296,18159,1,0,0:0:0:0:
60,260,18239,1,0,0:0:0:0:
252,256,18320,2,0,L|284:128,1,110,8|0,0:0|0:0,0:0:0:0:
196,148,18564,1,0,0:0:0:0:
444,152,18645,6,0,L|464:88,1,55,4|0,0:0|0:0,0:0:0:0:
380,96,18807,2,0,L|388:28,1,55,8|0,0:0|0:0,0:0:0:0:
168,48,18969,1,0,0:0:0:0:
92,80,19050,1,0,0:0:0:0:
96,164,19131,1,0,0:0:0:0:
168,200,19212,1,0,0:0:0:0:
360,200,19293,6,0,L|416:240,1,55
196,244,19455,2,0,L|124:276,1,55
420,312,19618,2,0,L|369:334,1,55,8|0,0:0|0:0,0:0:0:0:
92,312,19780,2,0,L|116:368,1,55,8|0,0:0|0:0,0:0:0:0:
360,364,19942,6,0,P|448:296|364:216,1,220,4|8,0:0|0:0,0:0:0:0:
292,212,20428,1,0,0:0:0:0:
456,208,20591,2,0,L|432:84,1,110
128,100,20915,1,8,0:0:0:0:
372,160,21077,6,0,P|392:236|272:352,1,220,2|0,0:0|0:0,0:0:0:0:
68,344,21564,2,0,L|168:272,1,110,8|0,0:0|0:0,0:0:0:0:
300,276,21888,1,0,0:0:0:0:
340,236,21969,1,0,0:0:0:0:
380,196,22050,1,0,0:0:0:0:
104,192,22212,2,0,L|84:64,1,110,8|0,0:0|0:0,0:0:0:0:
360,128,22537,6,0,L|472:92,1,110,4|0,0:0|0:0,0:0:0:0:
220,220,22861,2,0,L|332:184,1,110,8|0,0:0|0:0,0:0:0:0:
160,180,23185,2,0,L|116:64,1,110
352,204,23510,1,8,0:0:0:0:
92,232,23672,6,0,P|64:280|188:328,1,220,2|0,0:0|0:0,0:0:0:0:
452,352,24158,2,0,L|476:224,1,110,8|0,0:0|0:0,0:0:0:0:
308,240,24483,1,0,0:0:0:0:
252,240,24564,1,0,0:0:0:0:
196,240,24645,1,0,0:0:0:0:
436,240,24807,2,0,L|496:200,1,55,8|0,0:0|0:0,0:0:0:0:
288,200,24969,2,0,L|248:156,1,55
52,184,25131,6,0,L|20:56,1,110,4|0,0:0|0:0,0:0:0:0:
248,244,25455,2,0,L|248:368,1,110,8|0,0:0|0:0,0:0:0:0:
472,184,25780,2,0,L|504:56,1,110,8|0,0:0|0:0,0:0:0:0:
192,72,26104,1,8,0:0:0:0:
256,72,26185,1,0,0:0:0:0:
320,72,26266,1,0,0:0:0:0:
256,72,26347,1,0,0:0:0:0:
460,200,26428,6,0,L|492:328,1,110,4|0,0:0|0:0,0:0:0:0:
264,140,26752,2,0,L|264:16,1,110,8|0,0:0|0:0,0:0:0:0:
40,200,27077,2,0,L|8:328,1,110,8|0,0:0|0:0,0:0:0:0:
320,312,27401,2,0,L|188:312,1,110,8|0,0:0|0:0,0:0:0:0:
452,308,27726,6,0,L|472:172,1,110,4|0,0:0|0:0,0:0:0:0:
196,192,28050,1,8,0:0:0:0:
324,164,28212,1,0,0:0:0:0:
43,184,28374,1,0,0:0:0:0:
316,192,28537,1,8,0:0:0:0:
188,220,28699,1,0,0:0:0:0:
469,200,28861,1,0,0:0:0:0:
164,176,29023,5,8,0:0:0:0:
108,140,29104,1,0,0:0:0:0:
108,76,29185,1,0,0:0:0:0:
168,44,29266,1,0,0:0:0:0:
332,44,29347,2,0,L|356:116,1,55,8|0,0:0|0:0,0:0:0:0:
180,340,29510,2,0,L|162:287,1,55
348,208,29672,5,8,0:0:0:0:
404,244,29753,1,0,0:0:0:0:
404,308,29834,1,0,0:0:0:0:
344,340,29915,1,0,0:0:0:0:
124,340,29996,2,0,L|64:288,1,55,8|0,0:0|0:0,0:0:0:0:
384,80,30158,2,0,L|342:43,1,55
124,48,30320,6,0,P|72:88|140:216,1,220,4|8,0:0|0:0,0:0:0:0:
252,224,30807,1,0,0:0:0:0:
384,228,30969,2,0,L|408:344,1,110
128,156,31293,2,0,L|104:40,1,110,8|0,0:0|0:0,0:0:0:0:
406,48,31618,6,0,P|466:92|447:235,1,220,2|8,0:0|0:0,0:0:0:0:
105,335,32104,2,0,P|46:292|65:149,1,220
332,158,32591,2,0,L|357:269,1,110,8|0,0:0|0:0,0:0:0:0:
49,265,32915,5,2,0:0:0:0:
197,193,33077,1,0,0:0:0:0:
471,193,33239,1,8,0:0:0:0:
321,126,33401,1,0,0:0:0:0:
431,126,33564,2,0,L|455:12,1,110
169,18,33888,2,0,L|55:4,1,110,8|0,0:0|0:0,0:0:0:0:
389,380,34212,6,0,P|423:316|308:235,1,220,2|0,0:0|0:0,0:0:0:0:
75,4,34699,2,0,P|41:68|156:149,1,220
409,154,35185,2,0,L|430:293,1,110,8|0,0:0|0:0,0:0:0:0:
149,262,35510,6,0,L|39:262,1,110,4|0,0:0|0:0,0:0:0:0:
313,262,35834,2,0,L|203:262,1,110,8|0,0:0|0:0,0:0:0:0:
477,262,36158,1,0,0:0:0:0:
325,197,36320,1,0,0:0:0:0:
48,197,36483,2,0,L|149:131,1,110,8|0,0:0|0:0,0:0:0:0:
447,136,36807,6,0,P|483:196|361:299,1,220,2|8,0:0|0:0,0:0:0:0:
65,248,37293,2,0,P|29:188|151:85,1,220
367,138,37780,2,0,L|476:80,1,110,8|0,0:0|0:0,0:0:0:0:
145,246,38104,6,0,L|36:304,1,110,8|0,0:0|0:0,0:0:0:0:
311,297,38428,2,0,L|328:161,1,110,8|0,0:0|0:0,0:0:0:0:
192,152,38753,1,8,0:0:0:0:
444,232,38915,1,0,0:0:0:0:
201,87,39077,6,0,L|184:223,1,110,8|0,0:0|0:0,0:0:0:0:
320,232,39402,1,8,0:0:0:0:
68,152,39564,1,0,0:0:0:0:
342,152,39726,6,0,L|451:114,1,110,8|0,0:0|0:0,0:0:0:0:
314,78,40050,1,8,0:0:0:0:
55,170,40212,1,0,0:0:0:0:
274,214,40374,1,8,0:0:0:0:
342,233,40455,1,0,0:0:0:0:
138,252,40537,1,8,0:0:0:0:
121,321,40618,1,0,0:0:0:0:
395,321,40699,6,0,P|465:277|386:186,1,220,4|8,0:0|0:0,0:0:0:0:
291,184,41185,1,0,0:0:0:0:
38,184,41347,2,0,P|21:125|150:69,1,220,0|8,0:0|0:0,0:0:0:0:
474,200,41834,6,0,L|338:195,2,110,0|2|0,0:0|0:0|0:0,0:0:0:0:
166,200,42320,1,8,0:0:0:0:
409,200,42483,2,0,P|420:271|298:318,1,220
82,320,42969,1,8,0:0:0:0:
70,266,43050,1,0,0:0:0:0:
56,212,43131,1,0,0:0:0:0:
346,200,43293,6,0,P|365:113|238:75,1,220,2|8,0:0|0:0,0:0:0:0:
117,142,43780,1,0,0:0:0:0:
257,228,43942,2,0,L|328:319,1,110
49,314,44266,1,8,0:0:0:0:
356,314,44428,1,0,0:0:0:0:
134,314,44591,6,0,P|87:255|182:162,1,220,2|8,0:0|0:0,0:0:0:0:
332,70,45077,2,0,P|379:129|284:222,1,220
55,223,45564,2,0,L|39:337,1,110,8|0,0:0|0:0,0:0:0:0:
457,161,45888,6,0,L|473:47,1,110,4|0,0:0|0:0,0:0:0:0:
197,52,46212,1,0,0:0:0:0:
306,52,46374,2,0,P|349:108|287:238,1,220
75,233,46861,2,0,L|31:358,1,110,8|0,0:0|0:0,0:0:0:0:
346,336,47185,6,0,L|477:364,1,110,4|0,0:0|0:0,0:0:0:0:
143,358,47510,1,8,0:0:0:0:
280,286,47672,2,0,P|199:238|286:179,1,220
49,173,48158,2,0,L|29:55,1,110,8|0,0:0|0:0,0:0:0:0:
362,64,48483,6,0,P|421:101|365:229,1,220,4|8,0:0|0:0,0:0:0:0:
128,224,48969,2,0,L|359:225,1,220
73,224,49455,2,0,L|36:112,1,110,8|0,0:0|0:0,0:0:0:0:
473,119,49780,5,4,0:0:0:0:
253,119,49942,1,8,0:0:0:0:
33,119,50104,1,0,0:0:0:0:
164,329,50428,1,8,0:0:0:0:
440,327,50591,1,8,0:0:0:0:
132,327,50753,1,8,0:0:0:0:
406,327,50915,1,0,0:0:0:0:
98,327,51077,6,0,P|58:273|133:157,1,220,4|8,0:0|0:0,0:0:0:0:
383,265,51564,2,0,L|422:27,1,220,4|0,0:0|0:0,0:0:0:0:
143,47,52050,6,0,P|60:213|255:358,1,440,4|0,0:0|0:0,0:0:0:0:
382,304,52861,1,0,0:0:0:0:
107,304,53023,2,8,L|123:177,1,110
362,194,53347,2,0,L|462:139,1,110,0|0,0:0|0:0,0:0:0:0:
126,140,53672,6,0,P|57:192|135:271,1,220,4|0,0:0|0:0,0:0:0:0:
239,271,54158,1,0,0:0:0:0:
480,271,54320,2,0,L|490:146,1,110,8|0,0:0|0:0,0:0:0:0:
190,161,54645,2,0,L|306:162,1,110
25,161,54969,6,0,L|140:120,2,110,2|8|0,0:0|0:0|0:0,0:0:0:0:
179,217,55455,1,0,0:0:0:0:
455,217,55618,2,0,L|350:156,1,110,8|0,0:0|0:0,0:0:0:0:
85,161,55942,1,8,0:0:0:0:
70,213,56023,1,0,0:0:0:0:
94,262,56104,1,8,0:0:0:0:
145,280,56185,1,0,0:0:0:0:
414,57,56266,6,0,P|454:111|379:227,1,220,4|8,0:0|0:0,0:0:0:0:
129,119,56753,2,0,L|90:357,1,220,4|0,0:0|0:0,0:0:0:0:
369,337,57239,6,0,P|452:171|257:26,1,440,4|0,0:0|0:0,0:0:0:0:
141,106,58050,1,0,0:0:0:0:
102,144,58131,1,0,0:0:0:0:
182,162,58212,2,0,L|281:196,1,55,8|8,0:0|0:0,0:0:0:0:
437,197,58374,2,0,L|457:289,1,55
271,250,58537,2,0,L|204:291,1,55
48,278,58699,2,0,L|28:198,1,55
254,224,58861,6,0,P|297:175|199:88,1,220,4|8,0:0|0:0,0:0:0:0:
102,114,59347,1,0,0:0:0:0:
249,189,59510,2,0,L|123:189,1,110
413,189,59834,2,0,L|460:306,1,110,8|0,0:0|0:0,0:0:0:0:
388,291,60077,1,0,0:0:0:0:
195,291,60158,6,0,L|324:291,1,110,4|0,0:0|0:0,0:0:0:0:
61,291,60483,1,8,0:0:0:0:
187,254,60645,2,0,P|240:202|143:131,1,220
426,127,61131,2,0,L|464:16,1,110,8|0,0:0|0:0,0:0:0:0:
86,257,61455,6,0,L|48:368,1,110,4|0,0:0|0:0,0:0:0:0:
326,361,61780,2,0,L|208:360,1,110
270,360,62023,1,0,0:0:0:0:
462,360,62104,2,0,L|477:233,1,110
167,250,62428,1,8,0:0:0:0:
421,250,62591,5,2,0:0:0:0:
479,191,62672,1,0,0:0:0:0:
296,130,62753,2,0,L|419:171,1,110
93,219,63077,2,0,L|197:253,1,110,8|0,0:0|0:0,0:0:0:0:
417,253,63401,2,0,L|432:367,1,110
122,362,63726,1,8,0:0:0:0:
375,362,63888,1,8,0:0:0:0:
100,362,64050,6,2,P|51:324|123:211,1,220
412,22,65347,2,2,P|461:60|389:173,1,220
285,173,66158,5,8,0:0:0:0:
230,173,66239,1,0,0:0:0:0:
37,173,66320,2,0,P|39:260|133:309,1,165,8|0,0:0|0:0,0:0:0:0:
318,305,66645,6,0,L|459:286,1,110,4|0,0:0|0:0,0:0:0:0:
152,94,66969,2,0,L|124:217,1,110,8|0,0:0|0:0,0:0:0:0:
270,201,67293,2,0,L|301:315,1,110,8|0,0:0|0:0,0:0:0:0:
55,307,67618,1,8,0:0:0:0:
205,239,67780,6,0,P|227:176|106:129,1,220
419,124,68266,2,0,L|506:12,1,110,8|0,0:0|0:0,0:0:0:0:
342,37,68591,2,0,L|267:133,1,110,8|0,0:0|0:0,0:0:0:0:
32,261,68915,1,8,0:0:0:0:
174,261,69077,1,0,0:0:0:0:
224,210,69158,1,0,0:0:0:0:
443,210,69239,6,0,P|471:138|377:46,1,220,4|8,0:0|0:0,0:0:0:0:
237,46,69726,1,0,0:0:0:0:
95,66,69888,2,0,L|145:183,1,110,8|0,0:0|0:0,0:0:0:0:
417,318,70212,2,0,L|367:201,1,110,8|0,0:0|0:0,0:0:0:0:
97,216,70537,5,4,0:0:0:0:
239,216,70699,1,0,0:0:0:0:
19,216,70861,2,0,L|41:96,1,110,8|0,0:0|0:0,0:0:0:0:
280,107,71185,2,0,L|416:78,1,110,8|0,0:0|0:0,0:0:0:0:
232,277,71510,2,0,L|96:306,1,110,8|0,0:0|0:0,0:0:0:0:
387,299,71834,6,0,P|448:215|385:115,1,220,4|8,0:0|0:0,0:0:0:0:
124,121,72320,1,0,0:0:0:0:
263,157,72483,2,0,L|139:157,1,110,8|0,0:0|0:0,0:0:0:0:
427,157,72807,2,0,L|448:288,1,110,8|0,0:0|0:0,0:0:0:0:
114,265,73131,6,0,B|17:210|17:210|139:148,1,220,4|8,0:0|0:0,0:0:0:0:
257,160,73618,1,0,0:0:0:0:
37,160,73780,2,0,L|70:49,1,110,8|0,0:0|0:0,0:0:0:0:
343,155,74104,1,8,0:0:0:0:
204,119,74266,1,0,0:0:0:0:
459,119,74428,6,0,L|354:150,2,110,8|0|0,0:0|0:0|0:0,0:0:0:0:
52,265,74915,2,0,L|157:234,2,110,8|0|0,0:0|0:0|0:0,0:0:0:0:
327,265,75401,2,0,L|381:147,1,110,8|0,0:0|0:0,0:0:0:0:
63,164,75726,5,8,0:0:0:0:
41,113,75807,1,0,0:0:0:0:
64,63,75888,1,0,0:0:0:0:
114,41,75969,1,0,0:0:0:0:
306,41,76050,2,0,L|374:40,1,55
415,40,76212,1,2,0:0:0:0:
360,40,76293,1,0,0:0:0:0:
167,40,76374,6,0,L|81:40,1,55,2|0,0:0|0:0,0:0:0:0:
345,55,76537,2,0,L|388:117,1,55,2|0,0:0|0:0,0:0:0:0:
190,344,76699,2,0,L|104:344,1,55,2|0,0:0|0:0,0:0:0:0:
415,328,76861,2,0,L|361:329,1,55,2|0,0:0|0:0,0:0:0:0:
140,55,77023,6,0,P|86:100|150:236,1,220,4|8,0:0|0:0,0:0:0:0:
346,227,77510,2,0,P|411:273|325:349,1,220
58,351,77996,2,0,L|24:227,1,110,8|0,0:0|0:0,0:0:0:0:
303,244,78320,6,0,B|446:226|446:226|348:188,1,220,2|8,0:0|0:0,0:0:0:0:
231,198,78807,1,0,0:0:0:0:
450,198,78969,2,0,L|323:192,1,110,2|0,0:0|0:0,0:0:0:0:
62,186,79293,2,0,L|189:192,1,110,8|0,0:0|0:0,0:0:0:0:
426,191,79618,6,0,P|458:250|378:362,1,220,4|8,0:0|0:0,0:0:0:0:
158,361,80104,1,0,0:0:0:0:
432,359,80266,2,0,P|386:285|503:248,1,220,2|8,0:0|0:0,0:0:0:0:
259,232,80753,1,0,0:0:0:0:
39,232,80915,6,0,L|156:198,2,110,2|0|8,0:0|0:0|0:0,0:0:0:0:
313,232,81401,2,0,P|387:206|319:107,1,220
26,105,81888,1,8,0:0:0:0:
300,105,82050,1,0,0:0:0:0:
80,105,82212,6,0,P|66:233|148:279,1,220,4|0,0:0|0:0,0:0:0:0:
432,279,82699,2,0,P|446:151|364:105,1,220,4|0,0:0|0:0,0:0:0:0:
51,40,83185,2,0,L|17:380,1,330,4|0,0:0|0:0,0:0:0:0:
294,368,83834,5,8,0:0:0:0:
162,311,83996,2,0,L|124:270,1,55
316,270,84158,2,0,L|368:213,1,55,8|0,0:0|0:0,0:0:0:0:
452,229,84320,2,0,L|395:178,1,55
310,192,84483,2,0,L|362:135,1,55,0|0,0:0|0:0,0:0:0:0:
446,151,84645,2,0,L|389:100,1,55
190,114,84807,5,4,0:0:0:0:
311,297,85131,1,0,0:0:0:0:
91,313,85455,1,8,0:0:0:0:
410,114,85780,2,0,P|455:294|340:357,1,330,4|8,0:0|0:0,0:0:0:0:
221,356,86428,6,0,L|341:358,1,110,2|0,0:0|0:0,0:0:0:0:
275,357,86672,1,0,0:0:0:0:
82,357,86753,1,8,0:0:0:0:
323,357,86915,1,8,0:0:0:0:
103,357,87077,1,8,0:0:0:0:
377,357,87239,1,8,0:0:0:0:
47,357,87401,6,0,P|30:299|141:191,1,220,4|8,0:0|0:0,0:0:0:0:
403,188,87888,2,0,P|479:131|371:100,1,220,4|0,0:0|0:0,0:0:0:0:
127,81,88374,6,0,P|26:208|148:244,1,330,4|0,0:0|0:0,0:0:0:0:
438,212,89023,2,0,L|443:335,1,110,8|0,0:0|0:0,0:0:0:0:
201,321,89347,2,0,L|311:321,1,110
34,321,89672,1,8,0:0:0:0:
176,321,89834,2,0,L|235:320,1,55
423,320,89996,6,0,P|475:273|414:159,1,220,4|0,0:0|0:0,0:0:0:0:
270,159,90483,1,0,0:0:0:0:
30,159,90645,1,8,0:0:0:0:
249,159,90807,1,8,0:0:0:0:
468,159,90969,1,8,0:0:0:0:
160,159,91131,1,8,0:0:0:0:
379,159,91293,5,8,0:0:0:0:
426,186,91374,1,0,0:0:0:0:
416,240,91455,1,0,0:0:0:0:
370,256,91537,1,0,0:0:0:0:
133,225,91618,1,8,0:0:0:0:
86,198,91699,1,0,0:0:0:0:
96,144,91780,1,0,0:0:0:0:
142,128,91862,1,0,0:0:0:0:
331,120,91942,6,0,L|321:57,1,55,8|0,0:0|0:0,0:0:0:0:
380,65,92104,2,0,L|453:65,1,55
206,342,92266,2,0,L|133:316,1,55,8|0,0:0|0:0,0:0:0:0:
457,337,92428,2,0,L|374:311,1,55
152,20,92591,6,0,P|64:88|148:168,1,220,4|8,0:0|0:0,0:0:0:0:
220,172,93077,1,0,0:0:0:0:
56,176,93240,2,0,L|80:300,1,110
384,284,93564,1,8,0:0:0:0:
140,224,93726,6,0,P|120:148|240:32,1,220,2|0,0:0|0:0,0:0:0:0:
444,40,94213,2,0,L|344:112,1,110,8|0,0:0|0:0,0:0:0:0:
212,108,94537,1,0,0:0:0:0:
172,148,94618,1,0,0:0:0:0:
132,188,94699,1,0,0:0:0:0:
408,192,94861,2,0,L|428:320,1,110,8|0,0:0|0:0,0:0:0:0:
152,256,95186,6,0,L|40:292,1,110,4|0,0:0|0:0,0:0:0:0:
292,164,95510,2,0,L|180:200,1,110,8|0,0:0|0:0,0:0:0:0:
352,204,95834,2,0,L|396:320,1,110
160,180,96159,1,8,0:0:0:0:
420,152,96321,6,0,P|448:104|324:56,1,220,2|0,0:0|0:0,0:0:0:0:
60,32,96807,2,0,L|36:160,1,110,8|0,0:0|0:0,0:0:0:0:
204,144,97132,1,0,0:0:0:0:
260,144,97213,1,0,0:0:0:0:
316,144,97294,1,0,0:0:0:0:
76,144,97456,2,0,L|16:184,1,55,8|0,0:0|0:0,0:0:0:0:
224,184,97618,2,0,L|264:228,1,55
460,200,97780,6,0,L|492:328,1,110,4|0,0:0|0:0,0:0:0:0:
264,140,98104,2,0,L|264:16,1,110,8|0,0:0|0:0,0:0:0:0:
40,200,98429,2,0,L|8:328,1,110,8|0,0:0|0:0,0:0:0:0:
320,312,98753,1,8,0:0:0:0:
256,312,98834,1,0,0:0:0:0:
192,312,98915,1,0,0:0:0:0:
256,312,98996,1,0,0:0:0:0:
52,184,99077,6,0,L|20:56,1,110,4|0,0:0|0:0,0:0:0:0:
248,244,99401,2,0,L|248:368,1,110,8|0,0:0|0:0,0:0:0:0:
472,184,99726,2,0,L|504:56,1,110,8|0,0:0|0:0,0:0:0:0:
192,72,100050,2,0,L|324:72,1,110,8|0,0:0|0:0,0:0:0:0:
60,76,100375,6,0,L|40:212,1,110,4|0,0:0|0:0,0:0:0:0:
316,192,100699,1,8,0:0:0:0:
188,220,100861,1,0,0:0:0:0:
469,200,101023,1,0,0:0:0:0:
196,192,101186,1,8,0:0:0:0:
324,164,101348,1,0,0:0:0:0:
43,184,101510,1,0,0:0:0:0:
317,184,101672,5,8,0:0:0:0:
466,146,101834,1,0,0:0:0:0:
466,146,101996,1,0,0:0:0:0:
195,200,102158,1,8,0:0:0:0:
46,238,102320,1,0,0:0:0:0:
46,238,102482,1,0,0:0:0:0:
322,238,102645,2,0,L|459:238,1,110,8|0,0:0|0:0,0:0:0:0:
135,238,102969,6,0,P|86:197|171:83,1,220,4|2,0:0|0:0,0:0:0:0:
281,82,103455,1,0,0:0:0:0:
413,82,103618,2,0,P|497:167|420:239,1,220,2|0,0:0|0:0,0:0:0:0:
318,232,104104,1,0,0:0:0:0:
43,232,104266,6,0,L|34:11,1,220,2|0,0:0|0:0,0:0:0:0:
310,12,104753,2,2,P|289:93|399:134,1,220,2|0,0:0|0:0,0:0:0:0:
121,135,105239,2,0,L|98:261,1,110,2|0,0:0|0:0,0:0:0:0:
410,243,105564,6,0,L|192:140,1,220,2|2,0:0|0:0,0:0:0:0:
342,149,106050,1,0,0:0:0:0:
67,149,106212,2,0,L|39:255,1,110,2|0,0:0|0:0,0:0:0:0:
171,255,106537,2,0,L|143:361,1,110,2|0,0:0|0:0,0:0:0:0:
450,361,106861,6,0,P|472:284|397:257,1,165,2|0,0:0|0:0,0:0:0:0:
198,253,107185,1,0,0:0:0:0:
329,253,107347,2,0,P|400:213|300:136,1,220,2|0,0:0|0:0,0:0:0:0:
58,123,107834,2,0,L|155:71,1,110,2|0,0:0|0:0,0:0:0:0:
454,261,108158,6,0,L|474:373,1,110,2|0,0:0|0:0,0:0:0:0:
155,312,108483,2,0,L|58:261,1,110,2|0,0:0|0:0,0:0:0:0:
356,71,108807,2,0,L|454:123,1,110,2|0,0:0|0:0,0:0:0:0:
58,123,109131,2,0,L|38:11,1,110,2|0,0:0|0:0,0:0:0:0:
313,14,109455,6,0,P|390:58|432:218,1,220,2|2,0:0|0:0,0:0:0:0:
199,370,109942,2,0,P|122:326|80:166,1,220,2|0,0:0|0:0,0:0:0:0:
381,208,110428,2,0,P|428:148|357:86,1,165,8|0,0:0|0:0,0:0:0:0:
158,87,110753,5,4,0:0:0:0:
119,125,110834,1,0,0:0:0:0:
104,177,110915,1,0,0:0:0:0:
130,224,110996,1,0,0:0:0:0:
322,224,111077,2,0,L|384:182,1,55,2|0,0:0|0:0,0:0:0:0:
121,256,111239,2,0,L|166:225,1,55,2|0,0:0|0:0,0:0:0:0:
397,297,111401,5,8,0:0:0:0:
436,259,111482,1,0,0:0:0:0:
451,207,111564,1,0,0:0:0:0:
425,160,111644,1,0,0:0:0:0:
233,160,111726,2,0,L|171:202,1,55,2|0,0:0|0:0,0:0:0:0:
434,128,111888,2,0,L|388:158,1,55,2|0,0:0|0:0,0:0:0:0:
113,158,112050,6,0,L|94:250,1,55,8|0,0:0|0:0,0:0:0:0:
399,226,112212,2,0,L|418:134,1,55
135,212,112374,2,0,L|59:193,1,55
276,198,112537,1,0,0:0:0:0:
468,198,112618,1,0,0:0:0:0:
276,198,112699,1,0,0:0:0:0:
81,198,112780,1,0,0:0:0:0:
276,198,112861,2,0,B|491:198|491:198|425:169,1,275,2|0,0:0|0:0,0:0:0:0:
215,77,113347,6,0,P|138:142|224:201,1,220,4|8,0:0|0:0,0:0:0:0:
362,146,113834,1,0,0:0:0:0:
87,146,113996,2,0,P|44:211|112:339,1,220,0|8,0:0|0:0,0:0:0:0:
250,331,114483,1,0,0:0:0:0:
482,331,114645,6,0,L|360:331,1,110,2|0,0:0|0:0,0:0:0:0:
64,331,114969,1,8,0:0:0:0:
217,331,115131,2,0,P|290:276|208:228,1,220
484,227,115618,1,8,0:0:0:0:
264,227,115780,1,0,0:0:0:0:
44,227,115942,6,0,P|43:130|168:86,1,220,2|8,0:0|0:0,0:0:0:0:
296,79,116428,1,0,0:0:0:0:
450,79,116591,2,0,L|423:195,1,110
62,305,116915,2,0,L|89:189,1,110,8|0,0:0|0:0,0:0:0:0:
394,197,117239,6,0,P|452:230|361:333,1,220,2|8,0:0|0:0,0:0:0:0:
239,339,117726,2,0,L|472:337,1,220
195,337,118212,2,0,L|336:337,1,110,8|0,0:0|0:0,0:0:0:0:
50,337,118537,6,0,P|29:264|81:102,1,220,4|8,0:0|0:0,0:0:0:0:
205,127,119023,1,0,0:0:0:0:
348,127,119185,2,0,L|236:126,1,110
481,133,119510,2,0,L|489:260,1,110,8|0,0:0|0:0,0:0:0:0:
158,242,119834,6,0,L|268:242,2,110,4|0|8,0:0|0:0|0:0,0:0:0:0:
432,242,120320,2,0,P|441:174|312:147,1,220
75,140,120807,2,0,L|182:202,1,110,8|0,0:0|0:0,0:0:0:0:
455,161,121131,6,0,L|479:384,1,220,4|8,0:0|0:0,0:0:0:0:
246,379,121618,2,0,L|128:345,2,110
21,379,122104,2,0,L|12:251,1,110,8|0,0:0|0:0,0:0:0:0:
79,269,122347,1,0,0:0:0:0:
298,269,122428,6,0,L|346:129,1,110,4|0,0:0|0:0,0:0:0:0:
57,164,122753,1,8,0:0:0:0:
210,164,122915,1,0,0:0:0:0:
484,164,123077,1,0,0:0:0:0:
429,164,123158,1,0,0:0:0:0:
374,164,123239,1,0,0:0:0:0:
99,164,123401,1,8,0:0:0:0:
342,164,123564,1,0,0:0:0:0:
67,164,123726,6,0,P|28:212|124:329,1,220,4|0,0:0|0:0,0:0:0:0:
445,220,124212,2,0,P|484:172|388:55,1,220,4|0,0:0|0:0,0:0:0:0:
80,55,124699,6,0,B|257:191|257:191|61:321,1,440,4|8,0:0|0:0,0:0:0:0:
209,310,125510,1,0,0:0:0:0:
450,310,125672,2,8,L|461:175,1,110
217,200,125996,2,0,L|110:165,1,110
442,165,126320,6,0,P|481:119|350:65,1,220,4|0,0:0|0:0,0:0:0:0:
253,33,126807,1,0,0:0:0:0:
33,33,126969,2,0,L|123:122,1,110,8|0,0:0|0:0,0:0:0:0:
243,110,127293,1,0,0:0:0:0:
89,171,127455,1,0,0:0:0:0:
365,171,127618,6,0,L|271:115,1,110,2|8,0:0|0:0,0:0:0:0:
424,114,127942,2,0,L|465:248,1,110
181,219,128266,1,8,0:0:0:0:
58,170,128428,1,0,0:0:0:0:
373,118,128591,1,8,0:0:0:0:
131,118,128753,1,0,0:0:0:0:
445,220,128915,6,0,P|484:172|388:55,1,220,4|0,0:0|0:0,0:0:0:0:
67,164,129401,2,0,P|28:212|124:329,1,220,4|0,0:0|0:0,0:0:0:0:
432,329,129888,6,0,B|255:193|255:193|451:63,1,440,4|8,0:0|0:0,0:0:0:0:
430,128,130618,1,0,0:0:0:0:
405,177,130699,1,0,0:0:0:0:
357,204,130780,1,0,0:0:0:0:
137,204,130861,2,0,L|239:183,2,73.3333333333333
375,180,131185,2,0,L|273:201,2,73.3333333333333
79,180,131510,6,0,P|45:233|128:348,1,220,4|8,0:0|0:0,0:0:0:0:
397,347,131996,1,0,0:0:0:0:
267,347,132158,2,0,L|269:228,1,110
48,248,132483,2,0,L|27:140,1,110,8|0,0:0|0:0,0:0:0:0:
356,140,132807,5,4,0:0:0:0:
202,140,132969,2,0,P|160:191|283:271,1,220
92,286,133455,2,0,L|39:178,1,110
353,187,133780,1,8,0:0:0:0:
133,187,133942,1,0,0:0:0:0:
176,187,134023,1,0,0:0:0:0:
395,187,134104,6,0,L|430:318,1,110,4|0,0:0|0:0,0:0:0:0:
117,197,134428,2,0,L|266:182,2,110,8|0|0,0:0|0:0|0:0,0:0:0:0:
272,255,134915,1,0,0:0:0:0:
52,255,135077,2,0,L|37:123,1,110,8|0,0:0|0:0,0:0:0:0:
105,145,135320,1,0,0:0:0:0:
324,145,135401,6,0,L|190:144,1,110
435,144,135726,2,0,L|474:11,1,110,8|0,0:0|0:0,0:0:0:0:
400,38,135969,1,0,0:0:0:0:
207,38,136050,2,0,L|336:36,1,110
75,36,136374,2,0,L|34:157,1,110,8|0,0:0|0:0,0:0:0:0:
426,140,136699,6,0,P|477:217|374:324,1,220,4|8,0:0|0:0,0:0:0:0:
307,316,137185,1,0,0:0:0:0:
32,316,137347,2,0,L|166:315,1,110,8|0,0:0|0:0,0:0:0:0:
418,315,137672,2,0,L|443:198,1,110,8|0,0:0|0:0,0:0:0:0:
111,207,137996,5,8,0:0:0:0:
385,207,138158,1,8,0:0:0:0:
143,207,138320,1,8,0:0:0:0:
419,207,138483,1,8,0:0:0:0:
177,207,138645,1,8,0:0:0:0:
117,234,138726,1,0,0:0:0:0:
112,299,138807,1,8,0:0:0:0:
169,331,138888,1,0,0:0:0:0:
361,331,138969,2,0,L|383:257,1,55,8|0,0:0|0:0,0:0:0:0:
156,106,139131,2,0,L|141:166,1,55,8|0,0:0|0:0,0:0:0:0:
389,159,139293,6,0,P|461:217|380:298,1,220,4|8,0:0|0:0,0:0:0:0:
112,299,139780,1,0,0:0:0:0:
353,299,139942,2,0,L|386:174,1,110,8|0,0:0|0:0,0:0:0:0:
139,192,140266,1,8,0:0:0:0:
270,192,140428,6,0,P|239:126|357:116,1,220
105,101,140915,2,0,L|55:208,1,110,8|0,0:0|0:0,0:0:0:0:
333,200,141239,2,0,L|464:242,1,110,8|0,0:0|0:0,0:0:0:0:
179,184,141564,2,0,L|48:142,1,110,8|0,0:0|0:0,0:0:0:0:
140,150,141807,1,0,0:0:0:0:
359,150,141888,6,0,P|435:119|330:58,1,220,4|8,0:0|0:0,0:0:0:0:
218,32,142374,1,0,0:0:0:0:
461,352,142537,2,0,L|489:218,1,110,8|0,0:0|0:0,0:0:0:0:
175,244,142861,1,8,0:0:0:0:
416,244,143023,1,0,0:0:0:0:
86,244,143185,6,0,L|44:120,1,110,4|0,0:0|0:0,0:0:0:0:
382,139,143510,2,0,L|477:58,1,110,8|0,0:0|0:0,0:0:0:0:
136,67,143834,2,0,L|114:189,1,110,8|0,0:0|0:0,0:0:0:0:
424,293,144158,1,8,0:0:0:0:
182,293,144320,1,0,0:0:0:0:
491,293,144483,6,0,P|415:235|318:332,1,220,4|8,0:0|0:0,0:0:0:0:
415,202,144969,1,0,0:0:0:0:
195,200,145131,2,0,L|84:219,1,110,8|0,0:0|0:0,0:0:0:0:
416,139,145455,2,0,L|307:157,1,110,8|0,0:0|0:0,0:0:0:0:
31,156,145780,6,0,P|38:249|155:289,1,220,4|8,0:0|0:0,0:0:0:0:
298,291,146266,1,0,0:0:0:0:
60,93,146428,2,0,L|42:216,1,110,8|0,0:0|0:0,0:0:0:0:
320,201,146753,2,0,L|449:169,1,110,8|0,0:0|0:0,0:0:0:0:
97,174,147077,5,8,0:0:0:0:
68,302,147239,1,0,0:0:0:0:
375,302,147401,1,0,0:0:0:0:
126,82,147564,1,8,0:0:0:0:
97,210,147726,1,0,0:0:0:0:
404,210,147888,1,0,0:0:0:0:
162,210,148050,2,0,L|193:102,1,110,8|0,0:0|0:0,0:0:0:0:
258,104,148293,1,0,0:0:0:0:
450,104,148374,5,8,0:0:0:0:
459,158,148455,1,0,0:0:0:0:
438,209,148537,1,0,0:0:0:0:
386,228,148618,1,0,0:0:0:0:
138,228,148699,2,0,L|126:306,1,55
321,282,148861,2,0,L|346:358,1,55
145,334,149023,6,0,L|75:335,1,55,2|0,0:0|0:0,0:0:0:0:
405,335,149185,2,0,L|350:334,1,55,2|0,0:0|0:0,0:0:0:0:
119,334,149347,2,0,L|64:249,1,55,2|0,0:0|0:0,0:0:0:0:
255,287,149510,1,2,0:0:0:0:
419,287,149591,1,0,0:0:0:0:
199,287,149672,6,0,B|50:288|50:288|126:253,1,220,4|8,0:0|0:0,0:0:0:0:
356,258,150158,2,0,P|417:217|344:118,1,220
41,117,150645,1,8,0:0:0:0:
193,140,150807,6,0,P|103:195|166:249,1,220,2|0,0:0|0:0,0:0:0:0:
438,249,151293,2,0,L|306:248,1,110,8|0,0:0|0:0,0:0:0:0:
471,305,151618,2,0,L|489:158,1,110,2|0,0:0|0:0,0:0:0:0:
41,79,151942,2,0,L|23:226,1,110,8|0,0:0|0:0,0:0:0:0:
357,188,152266,6,0,L|97:188,1,220,4|8,0:0|0:0,0:0:0:0:
291,188,152753,1,0,0:0:0:0:
71,188,152915,2,0,L|40:302,1,110,2|0,0:0|0:0,0:0:0:0:
371,294,153239,1,8,0:0:0:0:
217,294,153401,1,0,0:0:0:0:
438,294,153564,6,0,L|306:258,2,110,2|0|8,0:0|0:0|0:0,0:0:0:0:
163,293,154050,2,0,P|67:268|80:159,1,220,2|0,0:0|0:0,0:0:0:0:
383,164,154537,1,8,0:0:0:0:
141,164,154699,1,0,0:0:0:0:
470,164,154861,6,0,L|486:309,1,110,4|0,0:0|0:0,0:0:0:0:
262,273,155185,1,0,0:0:0:0:
42,220,155347,2,0,L|26:75,1,110,8|0,0:0|0:0,0:0:0:0:
250,111,155671,1,0,0:0:0:0:
467,111,155834,6,0,P|310:173|473:224,1,440,4|8,0:0|0:0,0:0:0:0:
194,226,156645,2,0,L|125:180,1,55,8|0,0:0|0:0,0:0:0:0:
395,195,156807,1,8,0:0:0:0:
120,195,156969,1,0,0:0:0:0:
361,195,157131,1,0,0:0:0:0:
141,195,157293,1,0,0:0:0:0:
470,195,157455,6,0,P|471:115|327:64,1,220,4|0,0:0|0:0,0:0:0:0:
204,52,157942,1,0,0:0:0:0:
478,52,158104,2,0,L|354:113,1,110,8|0,0:0|0:0,0:0:0:0:
34,332,158428,6,0,L|386:331,1,330,4|8,0:0|0:0,0:0:0:0:
87,331,159077,2,0,L|74:208,1,110
350,221,159401,1,8,0:0:0:0:
498,221,159564,1,8,0:0:0:0:
278,221,159726,1,8,0:0:0:0:
426,221,159889,1,8,0:0:0:0:
98,221,160050,6,0,P|40:189|66:53,1,220,4|8,0:0|0:0,0:0:0:0:
414,163,160537,2,0,P|472:195|446:331,1,220,2|0,0:0|0:0,0:0:0:0:
143,327,161023,1,8,0:0:0:0:
417,327,161185,6,0,L|165:326,1,220,4|0,0:0|0:0,0:0:0:0:
473,326,161672,2,0,L|482:210,1,110,8|0,0:0|0:0,0:0:0:0:
206,216,161996,2,0,L|76:206,1,110,2|0,0:0|0:0,0:0:0:0:
371,207,162320,2,0,P|428:153|358:130,1,165,8|0,0:0|0:0,0:0:0:0:
151,122,162645,6,0,L|23:148,1,110,4|0,0:0|0:0,0:0:0:0:
284,241,162969,2,0,L|156:215,1,110,8|0,0:0|0:0,0:0:0:0:
417,165,163293,2,0,L|289:191,1,110,8|8,0:0|0:0,0:0:0:0:
65,186,163618,1,8,0:0:0:0:
372,186,163780,1,8,0:0:0:0:
152,186,163942,5,8,0:0:0:0:
86,186,164023,1,0,0:0:0:0:
151,186,164104,1,0,0:0:0:0:
216,186,164185,1,0,0:0:0:0:
408,198,164266,1,8,0:0:0:0:
474,198,164347,1,0,0:0:0:0:
409,198,164428,1,0,0:0:0:0:
344,198,164509,1,0,0:0:0:0:
121,198,164591,6,0,L|186:166,1,55,8|0,0:0|0:0,0:0:0:0:
390,211,164753,2,0,L|340:253,1,55
128,137,164915,2,0,L|59:146,1,55,8|0,0:0|0:0,0:0:0:0:
384,247,165077,2,0,L|453:238,1,55,0|0,0:0|0:0,0:0:0:0:
128,247,165239,6,0,P|42:155|181:60,1,330,4|0,0:0|0:0,0:0:0:0:
416,56,165888,2,8,P|466:161|384:374,1,330,8|0,0:0|0:0,0:0:0:0:
161,355,166537,5,8,0:0:0:0:
314,355,166699,2,0,L|74:354,1,220,8|0,0:0|0:0,0:0:0:0:
401,354,167185,2,0,L|445:234,1,110,8|0,0:0|0:0,0:0:0:0:
129,250,167510,2,0,L|38:251,3,82.5000031471254,8|0|8|0,0:0|0:0|0:0|0:0,0:0:0:0:
238,250,167834,6,0,L|268:137,1,110,4|0,0:0|0:0,0:0:0:0:
46,143,168158,1,8,0:0:0:0:
265,143,168320,2,0,L|145:144,2,110
486,143,168807,2,0,L|483:284,1,110,8|0,0:0|0:0,0:0:0:0:
208,252,169131,6,0,L|88:232,1,110
341,233,169455,2,0,L|447:198,2,110,8|0|0,0:0|0:0|0:0,0:0:0:0:
64,151,169942,1,0,0:0:0:0:
371,151,170104,2,0,L|392:271,1,110,8|0,0:0|0:0,0:0:0:0:
60,259,170428,6,0,P|28:189|160:93,1,220,4|0,0:0|0:0,0:0:0:0:
264,88,170915,1,0,0:0:0:0:
483,88,171077,2,0,L|390:152,1,110,8|0,0:0|0:0,0:0:0:0:
238,150,171401,2,0,L|353:215,1,110
57,204,171726,5,0,0:0:0:0:
298,204,171888,2,0,P|374:253|292:339,1,220,8|0,0:0|0:0,0:0:0:0:
94,340,172374,2,0,L|62:218,1,110,8|0,0:0|0:0,0:0:0:0:
397,233,172699,2,0,L|341:217,1,55,8|0,0:0|0:0,0:0:0:0:
115,151,172861,2,0,L|171:167,1,55,8|0,0:0|0:0,0:0:0:0:
415,166,173023,5,4,0:0:0:0:
261,166,173185,1,0,0:0:0:0:
298,166,173266,1,0,0:0:0:0:
106,166,173347,2,0,L|79:58,1,110,8|0,0:0|0:0,0:0:0:0:
234,59,173672,2,0,L|106:63,1,110
398,322,173996,1,8,0:0:0:0:
90,322,174158,6,0,L|343:322,1,220
33,322,174645,2,0,L|22:207,1,110,8|0,0:0|0:0,0:0:0:0:
253,212,174969,2,0,L|121:213,1,110
450,212,175293,2,0,L|461:128,1,55,8|0,0:0|0:0,0:0:0:0:
248,157,175455,2,0,L|252:86,1,55,8|0,0:0|0:0,0:0:0:0:
39,102,175618,6,0,L|17:251,1,110,4|0,0:0|0:0,0:0:0:0:
297,210,175942,1,8,0:0:0:0:
146,244,176104,2,0,P|219:282|132:352,1,220
422,358,176591,1,8,0:0:0:0:
147,358,176753,6,0,P|70:297|159:249,1,220
364,243,177239,2,0,L|469:164,1,110,8|0,0:0|0:0,0:0:0:0:
286,176,177564,2,0,L|376:110,1,110
99,110,177888,1,8,0:0:0:0:
373,110,178050,1,0,0:0:0:0:
438,110,178131,1,0,0:0:0:0:
184,110,178212,6,0,L|137:242,1,110,4|0,0:0|0:0,0:0:0:0:
423,213,178537,2,0,L|461:352,1,110,8|0,0:0|0:0,0:0:0:0:
144,319,178861,1,0,0:0:0:0:
368,319,179023,1,0,0:0:0:0:
93,319,179185,1,8,0:0:0:0:
422,319,179347,6,0,P|481:240|405:160,1,220,0|0,0:0|0:0,0:0:0:0:
135,160,179834,1,8,0:0:0:0:
58,160,179915,1,0,0:0:0:0:
135,160,179996,1,0,0:0:0:0:
442,160,180158,5,8,0:0:0:0:
462,210,180239,1,0,0:0:0:0:
442,261,180320,1,0,0:0:0:0:
392,285,180401,1,0,0:0:0:0:
197,285,180483,2,0,L|126:263,1,55,8|0,0:0|0:0,0:0:0:0:
364,268,180645,2,0,L|293:246,1,55,8|0,0:0|0:0,0:0:0:0:
91,251,180807,6,0,L|34:127,1,110,4|0,0:0|0:0,0:0:0:0:
319,151,181131,2,0,L|341:33,1,110
31,42,181455,2,0,L|152:21,1,110,8|0,0:0|0:0,0:0:0:0:
294,303,181780,2,0,L|435:253,1,110
118,246,182104,6,0,L|72:127,1,110,8|0,0:0|0:0,0:0:0:0:
298,143,182428,1,0,0:0:0:0:
154,143,182591,1,0,0:0:0:0:
428,143,182753,2,0,L|472:253,1,110,8|0,0:0|0:0,0:0:0:0:
402,245,182996,1,0,0:0:0:0:
209,245,183077,2,0,L|113:306,1,110
421,133,183401,6,0,L|478:257,1,110,4|0,0:0|0:0,0:0:0:0:
193,233,183725,2,0,L|171:351,1,110
481,342,184049,2,0,L|360:363,1,110,8|0,0:0|0:0,0:0:0:0:
218,81,184374,2,0,L|77:131,1,110
394,138,184698,6,0,L|440:257,1,110,8|0,0:0|0:0,0:0:0:0:
214,241,185022,1,0,0:0:0:0:
358,241,185185,1,0,0:0:0:0:
84,241,185347,2,0,L|40:131,1,110,8|0,0:0|0:0,0:0:0:0:
110,139,185590,1,0,0:0:0:0:
332,139,185672,1,8,0:0:0:0:
403,180,185753,1,0,0:0:0:0:
398,262,185834,1,0,0:0:0:0:
326,302,185915,1,0,0:0:0:0:
51,302,185996,6,0,L|33:176,1,110,4|0,0:0|0:0,0:0:0:0:
299,193,186320,2,0,L|178:192,1,110,8|0,0:0|0:0,0:0:0:0:
465,192,186645,2,0,L|480:66,1,110,8|0,0:0|0:0,0:0:0:0:
203,193,186969,2,0,L|328:193,1,110,8|0,0:0|0:0,0:0:0:0:
258,193,187212,1,0,0:0:0:0:
65,193,187293,6,0,L|32:305,1,110,8|0,0:0|0:0,0:0:0:0:
288,298,187618,1,8,0:0:0:0:
134,298,187780,1,0,0:0:0:0:
447,191,187942,2,0,L|480:79,1,110,8|0,0:0|0:0,0:0:0:0:
224,86,188267,1,8,0:0:0:0:
378,86,188428,1,0,0:0:0:0:
46,86,188591,6,0,L|179:88,1,110,4|0,0:0|0:0,0:0:0:0:
430,87,188915,2,0,L|307:86,2,110,8|0|0,0:0|0:0|0:0,0:0:0:0:
82,297,189401,2,0,L|205:298,2,110,8|0|0,0:0|0:0|0:0,0:0:0:0:
466,298,189888,5,8,0:0:0:0:
368,265,189996,1,0,0:0:0:0:
377,162,190104,1,0,0:0:0:0:
476,135,190212,1,0,0:0:0:0:
256,135,190320,1,0,0:0:0:0:
129,172,190428,1,0,0:0:0:0:
121,216,190483,1,0,0:0:0:0:
114,259,190537,5,0,0:0:0:0:
341,259,190645,1,0,0:0:0:0:
403,196,190753,1,0,0:0:0:0:
183,196,190861,1,0,0:0:0:0:
73,158,190969,1,0,0:0:0:0:
181,116,191077,1,0,0:0:0:0:
474,116,191185,6,0,P|483:200|303:352,1,330,4|0,0:0|0:0,0:0:0:0:
95,351,191834,2,0,L|230:343,2,110,8|0|0,0:0|0:0|0:0,0:0:0:0:
402,351,192320,2,0,L|457:218,1,110,8|0,0:0|0:0,0:0:0:0:
110,33,192645,2,0,L|55:166,1,110,8|0,0:0|0:0,0:0:0:0:
375,134,192969,1,0,0:0:0:0:
155,134,193131,1,8,0:0:0:0:
407,134,193293,1,0,0:0:0:0:
121,134,193455,1,0,0:0:0:0:
441,134,193618,1,0,0:0:0:0:
89,134,193780,6,0,L|50:371,1,220,2|2,0:0|0:0,0:0:0:0:
423,250,195077,2,0,L|462:13,1,220,2|2,0:0|0:0,0:0:0:0:
314,32,195888,1,0,0:0:0:0:
259,32,195969,1,0,0:0:0:0:
66,32,196050,6,0,L|312:31,1,220,0|4,0:0|0:0,0:0:0:0:
87,31,196699,1,0,0:0:0:0:
235,31,196861,2,0,P|270:102|195:157,1,165.000006294251,2|0,0:0|0:0,0:0:0:0:
465,156,197510,6,0,L|474:355,1,165.000006294251,2|0,0:0|0:0,0:0:0:0:
324,320,197996,2,0,L|436:320,1,82.5000031471254,2|0,0:0|0:0,0:0:0:0:
94,307,198320,2,0,L|56:219,1,82.5000031471254,2|0,0:0|0:0,0:0:0:0:
210,231,198645,2,0,L|203:143,1,82.5000031471254,2|0,0:0|0:0,0:0:0:0:
434,148,198969,6,0,P|372:107|452:80,1,165.000006294251,2|0,0:0|0:0,0:0:0:0:
300,63,199455,1,0,0:0:0:0:
175,63,199618,2,0,P|237:104|157:131,1,165.000006294251,2|0,0:0|0:0,0:0:0:0:
61,147,200104,1,0,0:0:0:0:
291,147,200266,6,0,P|340:176|279:249,1,165.000006294251,2|0,0:0|0:0,0:0:0:0:
169,250,200753,1,0,0:0:0:0:
375,250,200915,1,2,0:0:0:0:
227,250,201077,1,0,0:0:0:0:
185,250,201158,1,0,0:0:0:0:
432,250,201239,2,0,L|448:133,1,82.5000031471254,2|0,0:0|0:0,0:0:0:0:
111,168,201564,6,0,L|12:122,1,110,4|0,0:0|0:0,0:0:0:0:
285,121,201888,2,0,L|165:174,1,110
459,165,202212,2,0,L|354:118,1,110
53,219,202537,2,0,L|158:266,1,110
401,216,202861,6,0,L|479:303,1,110,2|0,0:0|0:0,0:0:0:0:
166,297,203185,2,0,L|95:235,1,55
344,260,203347,2,0,L|381:123,1,110,8|0,0:0|0:0,0:0:0:0:
63,153,203672,1,0,0:0:0:0:
337,153,203834,1,0,0:0:0:0:
95,153,203996,1,0,0:0:0:0:
149,153,204077,1,0,0:0:0:0:
451,231,204158,5,8,0:0:0:0:
209,231,204320,1,0,0:0:0:0:
430,231,204483,1,0,0:0:0:0:
61,153,204645,1,8,0:0:0:0:
303,153,204807,1,0,0:0:0:0:
82,153,204970,1,0,0:0:0:0:
451,153,205131,2,0,L|330:153,1,110,8|0,0:0|0:0,0:0:0:0:
61,153,205455,6,0,L|39:239,1,55,8|0,0:0|0:0,0:0:0:0:
242,206,205618,2,0,L|315:214,1,55
214,211,205780,2,0,L|197:277,1,55
451,231,205942,2,0,L|473:145,1,55,8|0,0:0|0:0,0:0:0:0:
270,178,206104,6,0,L|197:170,1,55
298,173,206266,2,0,L|315:107,1,55
36,119,206428,2,0,L|31:191,1,55,8|0,0:0|0:0,0:0:0:0:
199,173,206591,2,0,L|205:257,1,55,8|0,0:0|0:0,0:0:0:0:
372,329,206753,6,0,P|426:284|362:148,1,220,4|8,0:0|0:0,0:0:0:0:
166,157,207240,2,0,P|101:111|187:35,1,220
454,33,207726,2,0,L|488:157,1,110,8|0,0:0|0:0,0:0:0:0:
209,140,208050,6,0,B|66:158|66:158|164:196,1,220,2|8,0:0|0:0,0:0:0:0:
281,186,208537,1,0,0:0:0:0:
62,186,208699,2,0,L|189:192,1,110,2|0,0:0|0:0,0:0:0:0:
450,198,209023,2,0,L|323:192,1,110,8|0,0:0|0:0,0:0:0:0:
86,193,209348,6,0,P|54:134|134:22,1,220,4|8,0:0|0:0,0:0:0:0:
354,23,209834,1,0,0:0:0:0:
80,25,209996,2,0,P|126:99|9:136,1,220,2|8,0:0|0:0,0:0:0:0:
253,152,210483,1,0,0:0:0:0:
473,152,210645,6,0,L|356:186,2,110,2|0|8,0:0|0:0|0:0,0:0:0:0:
199,152,211131,2,0,P|125:178|193:277,1,220
486,279,211618,1,8,0:0:0:0:
212,279,211780,1,0,0:0:0:0:
432,279,211942,6,0,P|446:151|364:105,1,220,4|0,0:0|0:0,0:0:0:0:
80,105,212429,2,0,P|66:233|148:279,1,220,4|0,0:0|0:0,0:0:0:0:
461,344,212915,2,0,L|495:4,1,330,4|0,0:0|0:0,0:0:0:0:
218,16,213564,5,8,0:0:0:0:
350,73,213726,2,0,L|388:114,1,55
196,114,213888,2,0,L|144:171,1,55,8|0,0:0|0:0,0:0:0:0:
60,155,214050,2,0,L|117:206,1,55
202,192,214213,2,0,L|150:249,1,55,0|0,0:0|0:0,0:0:0:0:
66,233,214375,2,0,L|123:284,1,55
322,270,214537,5,4,0:0:0:0:
201,87,214861,1,0,0:0:0:0:
421,71,215185,1,8,0:0:0:0:
102,270,215510,2,0,P|57:90|172:27,1,330,4|8,0:0|0:0,0:0:0:0:
291,28,216158,6,0,L|171:26,1,110,2|0,0:0|0:0,0:0:0:0:
237,27,216402,1,0,0:0:0:0:
430,27,216483,1,8,0:0:0:0:
189,27,216645,1,8,0:0:0:0:
409,27,216807,1,8,0:0:0:0:
135,27,216969,1,8,0:0:0:0:
465,27,217131,6,0,P|482:85|371:193,1,220,4|8,0:0|0:0,0:0:0:0:
109,196,217618,2,0,P|33:253|141:284,1,220,4|0,0:0|0:0,0:0:0:0:
385,303,218104,6,0,P|486:176|364:140,1,330,4|0,0:0|0:0,0:0:0:0:
74,172,218753,2,0,L|69:49,1,110,8|0,0:0|0:0,0:0:0:0:
311,63,219077,2,0,L|201:63,1,110
478,63,219402,1,8,0:0:0:0:
336,63,219564,2,0,L|277:64,1,55
89,64,219726,6,0,P|37:111|98:225,1,220,4|0,0:0|0:0,0:0:0:0:
242,225,220213,1,0,0:0:0:0:
482,225,220375,1,8,0:0:0:0:
263,225,220537,1,8,0:0:0:0:
44,225,220699,1,8,0:0:0:0:
352,225,220861,1,8,0:0:0:0:
133,225,221023,5,8,0:0:0:0:
86,198,221104,1,0,0:0:0:0:
96,144,221185,1,0,0:0:0:0:
142,128,221267,1,0,0:0:0:0:
379,159,221348,1,8,0:0:0:0:
426,186,221429,1,0,0:0:0:0:
416,240,221510,1,0,0:0:0:0:
370,256,221592,1,0,0:0:0:0:
181,264,221672,6,0,L|191:327,1,55,8|0,0:0|0:0,0:0:0:0:
132,319,221834,2,0,L|59:319,1,55
306,42,221996,2,0,L|379:68,1,55,8|0,0:0|0:0,0:0:0:0:
55,47,222158,2,0,L|138:73,1,55
404,63,222320,6,0,P|459:175|390:258,1,220,4|0,0:0|0:0,0:0:0:0:
280,246,222807,1,0,0:0:0:0:
60,246,222969,2,0,L|178:277,2,110,8|0|0,0:0|0:0|0:0,0:0:0:0:
389,246,223455,6,0,P|431:187|323:119,1,220,4|0,0:0|0:0,0:0:0:0:
180,113,223942,2,0,L|131:232,1,110
412,214,224266,2,0,L|281:215,2,110,8|0|0,0:0|0:0|0:0,0:0:0:0:
268,214,224753,1,0,0:0:0:0:
221,167,224834,1,0,0:0:0:0:
28,167,224915,6,0,L|149:166,2,110,4|0|0,0:0|0:0|0:0,0:0:0:0:
181,167,225401,1,0,0:0:0:0:
457,167,225564,2,0,L|477:321,1,110,8|0,0:0|0:0,0:0:0:0:
317,276,225888,2,0,L|442:278,1,110
152,277,226212,6,0,L|40:229,2,110,2|8|0,0:0|0:0|0:0,0:0:0:0:
306,277,226699,1,0,0:0:0:0:
86,277,226861,2,0,L|57:162,1,110,8|0,0:0|0:0,0:0:0:0:
366,170,227185,1,8,0:0:0:0:
146,170,227347,1,8,0:0:0:0:
426,107,227510,6,0,P|468:169|405:301,1,220,4|0,0:0|0:0,0:0:0:0:
86,277,227996,1,2,0:0:0:0:
305,277,228158,2,0,L|183:277,1,110,8|0,0:0|0:0,0:0:0:0:
349,277,228483,2,0,L|374:157,1,110,2|0,0:0|0:0,0:0:0:0:
63,169,228807,6,0,P|28:126|111:4,1,220,2|2,0:0|0:0,0:0:0:0:
321,4,229455,2,0,L|181:17,2,110,8|0|2,0:0|0:0|0:0,0:0:0:0:
166,4,229942,1,0,0:0:0:0:
473,4,230104,5,4,0:0:0:0:
313,45,230266,1,0,0:0:0:0:
464,110,230428,1,0,0:0:0:0:
301,145,230591,1,0,0:0:0:0:
26,145,230753,2,0,L|47:275,1,110,8|0,0:0|0:0,0:0:0:0:
208,253,231077,2,0,L|92:268,1,110
486,239,231401,6,0,L|465:109,1,110,8|0,0:0|0:0,0:0:0:0:
192,130,231726,2,0,L|128:164,1,55,8|0,0:0|0:0,0:0:0:0:
319,155,231888,1,0,0:0:0:0:
181,229,232050,1,8,0:0:0:0:
115,229,232131,1,0,0:0:0:0:
49,229,232212,1,0,0:0:0:0:
323,229,232374,2,0,L|261:202,1,55,8|0,0:0|0:0,0:0:0:0:
45,156,232537,2,0,L|129:186,1,55,8|0,0:0|0:0,0:0:0:0:
344,174,232699,6,0,L|487:208,1,110,4|0,0:0|0:0,0:0:0:0:
176,199,233023,2,0,L|41:257,1,110,8|0,0:0|0:0,0:0:0:0:
316,242,233347,2,0,L|195:264,1,110,8|0,0:0|0:0,0:0:0:0:
458,286,233672,2,0,L|337:287,1,110,8|0,0:0|0:0,0:0:0:0:
282,286,233915,1,0,0:0:0:0:
62,286,233996,6,0,L|28:149,1,110,4|0,0:0|0:0,0:0:0:0:
343,179,234320,2,0,L|481:126,1,110,8|0,0:0|0:0,0:0:0:0:
169,179,234645,2,0,L|31:126,1,110,8|0,0:0|0:0,0:0:0:0:
450,286,234969,2,0,L|484:149,1,110,8|0,0:0|0:0,0:0:0:0:
410,179,235212,1,0,0:0:0:0:
168,210,235293,6,0,L|25:176,1,110,4|0,0:0|0:0,0:0:0:0:
336,185,235617,2,0,L|471:127,1,110,8|0,0:0|0:0,0:0:0:0:
196,142,235941,2,0,L|317:120,1,110,8|0,0:0|0:0,0:0:0:0:
54,98,236266,2,0,L|175:97,1,110,8|0,0:0|0:0,0:0:0:0:
230,98,236510,1,0,0:0:0:0:
450,98,236591,6,0,L|484:235,1,110,4|0,0:0|0:0,0:0:0:0:
169,205,236915,2,0,L|31:258,1,110,8|0,0:0|0:0,0:0:0:0:
343,205,237240,2,0,L|481:258,1,110,8|0,0:0|0:0,0:0:0:0:
62,98,237564,2,0,L|28:235,1,110,8|0,0:0|0:0,0:0:0:0:
102,205,237807,1,0,0:0:0:0:
349,205,237888,6,0,L|374:327,1,110,4|0,0:0|0:0,0:0:0:0:
151,312,238212,1,8,0:0:0:0:
425,312,238374,1,0,0:0:0:0:
163,179,238537,2,0,L|138:57,1,110,8|0,0:0|0:0,0:0:0:0:
361,72,238861,1,8,0:0:0:0:
87,72,239023,1,0,0:0:0:0:
306,72,239185,5,8,0:0:0:0:
359,109,239266,1,0,0:0:0:0:
387,168,239347,1,0,0:0:0:0:
355,226,239428,1,0,0:0:0:0:
104,226,239510,2,0,L|37:201,1,55,8|0,0:0|0:0,0:0:0:0:
228,206,239672,2,0,L|228:265,1,55
408,158,239834,6,0,L|475:183,1,55,8|0,0:0|0:0,0:0:0:0:
284,178,239996,2,0,L|284:119,1,55
91,123,240158,1,8,0:0:0:0:
245,123,240239,1,0,0:0:0:0:
91,123,240320,1,8,0:0:0:0:
245,123,240401,1,0,0:0:0:0:
452,308,240483,6,0,L|472:172,1,110,4|0,0:0|0:0,0:0:0:0:
196,192,240807,1,8,0:0:0:0:
324,164,240969,1,0,0:0:0:0:
43,184,241131,1,0,0:0:0:0:
316,192,241294,1,8,0:0:0:0:
188,220,241456,1,0,0:0:0:0:
469,200,241618,1,0,0:0:0:0:
195,200,241780,5,8,0:0:0:0:
46,238,241942,1,0,0:0:0:0:
46,238,242104,1,0,0:0:0:0:
317,184,242266,1,8,0:0:0:0:
466,146,242428,1,0,0:0:0:0:
466,146,242590,1,0,0:0:0:0:
190,146,242753,2,0,L|53:146,1,110,8|0,0:0|0:0,0:0:0:0:
409,146,243077,5,4,0:0:0:0:
244,146,243239,1,0,0:0:0:0:
79,146,243401,1,0,0:0:0:0:
409,146,243564,1,8,0:0:0:0:
268,238,243726,1,0,0:0:0:0:
433,238,243888,1,0,0:0:0:0:
103,238,244051,1,8,0:0:0:0:
268,238,244212,1,0,0:0:0:0:
48,238,244374,5,8,0:0:0:0:
24,176,244455,1,0,0:0:0:0:
57,118,244537,1,0,0:0:0:0:
116,89,244618,1,0,0:0:0:0:
464,146,244699,1,8,0:0:0:0:
488,208,244780,1,0,0:0:0:0:
455,266,244862,1,0,0:0:0:0:
396,295,244943,1,0,0:0:0:0:
168,295,245023,6,0,L|76:299,1,55,8|0,0:0|0:0,0:0:0:0:
360,87,245185,2,0,L|452:83,1,55,8|0,0:0|0:0,0:0:0:0:
140,84,245347,2,0,L|85:50,1,55,8|0,0:0|0:0,0:0:0:0:
454,306,245510,6,0,P|468:241|83:334,1,825,4|0,0:0|0:0,0:0:0:0:
133,325,248023,1,0,0:0:0:0:
187,325,248104,2,0,L|185:208,1,110
