osu file format v14

[General]
AudioFilename: audio.mp3
AudioLeadIn: 0
PreviewTime: 35326
Countdown: 0
SampleSet: Normal
StackLeniency: 0.7
Mode: 1
LetterboxInBreaks: 0
WidescreenStoryboard: 1

[Editor]
Bookmarks: 66423,97155
DistanceSpacing: 1
BeatDivisor: 3
GridSize: 32
TimelineZoom: 1.2

[Metadata]
Title:In the Fog
TitleUnicode:きりのなか
Artist:Ichinose Go, Adachi Minako
ArtistUnicode:一之瀬剛, 足立美奈子
Creator:Default Guy
Version:Kantan
Source:ポケットモンスター ソード・シールド
Tags:video game 霧の中 kiri no naka instrumental theme pokemon pokémon galar legendary zacian zamazenta slumbering weald gen eight 8 encounter switch nintendo company freak pocket monsters sentou battle 戦闘 being forest altar slap bass sword and & shield 謎のポケモン nazo bgm soundtrack ost
BeatmapID:3302477
BeatmapSetID:1617154

[Difficulty]
HPDrainRate:8
CircleSize:2
OverallDifficulty:3
ApproachRate:10
SliderMultiplier:1.6
SliderTickRate:1

[Events]
//Background and Video events
0,0,"the furry altar.jpg",0,-100
//Break Periods
//Storyboard Layer 0 (Background)
//Storyboard Layer 1 (Fail)
//Storyboard Layer 2 (Pass)
//Storyboard Layer 3 (Foreground)
//Storyboard Layer 4 (Overlay)
//Storyboard Sound Samples

[TimingPoints]
571,731.707317073171,4,1,0,20,1,0
12043,-90.9090909090909,4,1,0,35,0,0
34229,365.853658536585,4,1,0,60,1,8
34229,-133.333333333333,4,1,0,60,0,8
35692,365.853658536585,4,1,0,60,1,0
35692,-133.333333333333,4,1,0,60,0,8

[HitObjects]
105,146,571,5,12,0:0:0:0:
256,192,2034,12,0,10814,0:0:0:0:
228,153,12278,5,4,0:0:0:0:
228,153,15205,1,4,0:0:0:0:
228,153,18131,1,4,0:0:0:0:
210,201,19595,1,0,0:0:0:0:
211,201,21058,1,12,0:0:0:0:
211,201,22522,1,8,0:0:0:0:
211,201,23985,1,4,0:0:0:0:
211,201,24717,1,8,0:0:0:0:
229,118,26912,1,12,0:0:0:0:
223,163,27278,1,8,0:0:0:0:
259,47,27644,1,0,0:0:0:0:
90,147,28010,1,8,0:0:0:0:
178,138,28375,1,8,0:0:0:0:
358,220,28924,1,0,0:0:0:0:
295,182,29473,1,8,0:0:0:0:
197,124,29839,1,4,0:0:0:0:
235,135,31302,1,0,0:0:0:0:
235,135,32766,1,12,0:0:0:0:
208,104,34229,5,12,0:0:0:0:
328,171,34960,1,12,0:0:0:0:
193,148,35692,5,4,0:0:0:0:
333,199,36332,1,8,0:0:0:0:
333,199,36789,1,0,0:0:0:0:
333,199,37155,1,0,0:0:0:0:
333,199,37887,1,8,0:0:0:0:
46,128,38252,1,8,0:0:0:0:
333,199,38618,1,0,0:0:0:0:
230,170,40082,1,0,0:0:0:0:
441,199,40448,1,8,0:0:0:0:
158,158,40813,1,0,0:0:0:0:
174,162,41545,1,0,0:0:0:0:
174,162,42460,1,0,0:0:0:0:
179,161,42826,1,8,0:0:0:0:
179,161,43191,1,8,0:0:0:0:
179,161,43740,1,0,0:0:0:0:
179,161,44472,1,0,0:0:0:0:
179,161,45204,1,0,0:0:0:0:
179,161,45935,1,0,0:0:0:0:
179,161,46301,1,8,0:0:0:0:
179,161,46667,1,0,0:0:0:0:
179,161,47399,1,8,0:0:0:0:
104,151,48131,1,8,0:0:0:0:
94,174,48496,1,0,0:0:0:0:
173,61,48862,1,0,0:0:0:0:
373,218,49594,1,8,0:0:0:0:
373,218,49960,1,0,0:0:0:0:
236,177,50326,1,8,0:0:0:0:
222,118,51423,1,0,0:0:0:0:
127,158,51789,1,8,0:0:0:0:
127,158,52155,1,8,0:0:0:0:
114,184,52521,1,8,0:0:0:0:
135,137,53252,1,0,0:0:0:0:
438,262,53984,1,0,0:0:0:0:
154,183,54350,1,8,0:0:0:0:
161,175,54899,1,0,0:0:0:0:
251,203,56179,1,0,0:0:0:0:
101,148,56911,1,0,0:0:0:0:
112,189,57277,1,8,0:0:0:0:
112,189,57643,1,0,0:0:0:0:
114,203,58374,1,0,0:0:0:0:
88,182,59106,1,8,0:0:0:0:
91,183,59838,1,0,0:0:0:0:
148,166,60204,1,8,0:0:0:0:
147,161,60752,1,8,0:0:0:0:
173,118,61301,1,0,0:0:0:0:
173,118,61667,1,8,0:0:0:0:
155,177,62033,1,0,0:0:0:0:
96,162,63131,1,8,0:0:0:0:
216,170,63679,1,8,0:0:0:0:
216,170,64228,5,0,0:0:0:0:
193,132,64594,1,8,0:0:0:0:
162,161,64960,1,8,0:0:0:0:
198,157,65691,1,8,0:0:0:0:
193,148,66423,5,4,0:0:0:0:
333,199,67063,1,8,0:0:0:0:
333,199,67520,1,0,0:0:0:0:
333,199,67886,1,0,0:0:0:0:
333,199,68618,1,8,0:0:0:0:
46,128,68983,1,8,0:0:0:0:
333,199,69349,1,0,0:0:0:0:
230,170,70813,1,0,0:0:0:0:
441,199,71179,1,8,0:0:0:0:
158,158,71544,1,0,0:0:0:0:
174,162,72276,1,0,0:0:0:0:
174,162,73191,1,0,0:0:0:0:
179,161,73557,1,8,0:0:0:0:
179,161,73922,1,8,0:0:0:0:
179,161,74471,1,0,0:0:0:0:
179,161,75203,1,0,0:0:0:0:
179,161,75935,1,0,0:0:0:0:
179,161,76666,1,0,0:0:0:0:
179,161,77032,1,8,0:0:0:0:
179,161,77398,1,0,0:0:0:0:
179,161,78130,1,8,0:0:0:0:
104,151,78862,1,8,0:0:0:0:
94,174,79227,1,0,0:0:0:0:
173,61,79593,1,0,0:0:0:0:
373,218,80325,1,8,0:0:0:0:
373,218,80691,1,0,0:0:0:0:
236,177,81057,1,8,0:0:0:0:
222,118,82154,1,0,0:0:0:0:
127,158,82520,1,8,0:0:0:0:
127,158,82886,1,8,0:0:0:0:
114,184,83252,1,8,0:0:0:0:
135,137,83983,1,0,0:0:0:0:
438,262,84715,1,0,0:0:0:0:
154,183,85081,1,8,0:0:0:0:
161,175,85630,1,0,0:0:0:0:
251,203,86910,1,0,0:0:0:0:
101,148,87642,1,0,0:0:0:0:
112,189,88008,1,8,0:0:0:0:
112,189,88374,1,0,0:0:0:0:
114,203,89105,1,0,0:0:0:0:
88,182,89837,1,8,0:0:0:0:
91,183,90569,1,0,0:0:0:0:
148,166,90935,1,8,0:0:0:0:
147,161,91483,1,8,0:0:0:0:
173,118,92032,1,0,0:0:0:0:
173,118,92398,1,8,0:0:0:0:
155,177,92764,1,0,0:0:0:0:
96,162,93862,1,8,0:0:0:0:
216,170,94410,1,8,0:0:0:0:
216,170,94959,1,0,0:0:0:0:
193,132,95325,1,8,0:0:0:0:
162,161,95691,1,8,0:0:0:0:
198,157,96422,1,8,0:0:0:0:
193,148,97154,5,4,0:0:0:0:
