osu file format v14

[General]
AudioFilename: audio.mp3
AudioLeadIn: 0
PreviewTime: 35326
Countdown: 0
SampleSet: Normal
StackLeniency: 0.7
Mode: 1
LetterboxInBreaks: 0
WidescreenStoryboard: 1

[Editor]
Bookmarks: 66423,97155
DistanceSpacing: 1
BeatDivisor: 8
GridSize: 32
TimelineZoom: 1.9

[Metadata]
Title:In the Fog
TitleUnicode:きりのなか
Artist:Ichinose Go, Adachi Minako
ArtistUnicode:一之瀬剛, 足立美奈子
Creator:Default Guy
Version:Futsuu
Source:ポケットモンスター ソード・シールド
Tags:video game 霧の中 kiri no naka instrumental theme pokemon pokémon galar legendary zacian zamazenta slumbering weald gen eight 8 encounter switch nintendo company freak pocket monsters sentou battle 戦闘 being forest altar slap bass sword and & shield 謎のポケモン nazo bgm soundtrack ost
BeatmapID:3302476
BeatmapSetID:1617154

[Difficulty]
HPDrainRate:7
CircleSize:2
OverallDifficulty:4
ApproachRate:10
SliderMultiplier:1.6
SliderTickRate:1

[Events]
//Background and Video events
0,0,"the furry altar.jpg",0,-100
//Break Periods
//Storyboard Layer 0 (Background)
//Storyboard Layer 1 (Fail)
//Storyboard Layer 2 (Pass)
//Storyboard Layer 3 (Foreground)
//Storyboard Layer 4 (Overlay)
//Storyboard Sound Samples

[TimingPoints]
571,731.707317073171,4,1,0,20,1,0
12043,-83.3333333333333,4,1,0,35,0,0
34229,365.853658536585,4,1,0,60,1,8
35692,365.853658536585,4,1,0,60,1,0

[HitObjects]
105,146,571,5,12,0:0:0:0:
256,192,2034,12,0,10814,0:0:0:0:
228,153,12278,5,4,0:0:0:0:
228,153,15205,1,4,0:0:0:0:
228,153,18131,1,4,0:0:0:0:
210,201,19595,1,0,0:0:0:0:
210,201,19778,1,0,0:0:0:0:
211,201,21058,1,12,0:0:0:0:
211,201,22522,1,8,0:0:0:0:
211,201,22705,1,0,0:0:0:0:
211,201,23985,1,4,0:0:0:0:
211,201,24717,1,8,0:0:0:0:
211,201,24900,1,8,0:0:0:0:
229,118,26912,1,12,0:0:0:0:
223,163,27278,1,8,0:0:0:0:
229,165,27461,1,8,0:0:0:0:
259,47,27644,1,0,0:0:0:0:
90,147,28010,1,8,0:0:0:0:
129,156,28192,1,0,0:0:0:0:
178,138,28375,1,8,0:0:0:0:
193,151,28650,1,0,0:0:0:0:
358,220,28924,1,0,0:0:0:0:
171,221,29107,1,0,0:0:0:0:
295,182,29290,1,0,0:0:0:0:
295,182,29473,1,8,0:0:0:0:
197,124,29839,1,4,0:0:0:0:
235,135,31302,1,0,0:0:0:0:
235,135,31485,1,0,0:0:0:0:
235,135,32766,1,12,0:0:0:0:
208,104,34229,5,12,0:0:0:0:
328,171,34503,1,12,0:0:0:0:
328,171,34777,1,12,0:0:0:0:
328,171,34960,1,12,0:0:0:0:
353,183,35204,1,12,0:0:0:0:
193,148,35692,5,4,0:0:0:0:
333,199,36332,1,8,0:0:0:0:
333,199,36606,1,8,0:0:0:0:
333,199,36789,1,0,0:0:0:0:
333,199,36972,1,8,0:0:0:0:
333,199,37155,1,8,0:0:0:0:
333,199,37338,1,0,0:0:0:0:
333,199,37887,1,8,0:0:0:0:
333,199,38161,1,8,0:0:0:0:
333,199,38435,1,8,0:0:0:0:
333,199,38618,1,0,0:0:0:0:
333,199,39350,1,0,0:0:0:0:
230,170,39624,1,8,0:0:0:0:
392,157,39899,1,8,0:0:0:0:
230,170,40082,1,0,0:0:0:0:
441,199,40265,1,8,0:0:0:0:
441,199,40448,1,8,0:0:0:0:
158,158,40813,1,0,0:0:0:0:
189,166,40996,1,8,0:0:0:0:
158,158,41179,1,0,0:0:0:0:
174,162,41545,1,0,0:0:0:0:
174,162,42277,1,0,0:0:0:0:
174,162,42460,1,8,0:0:0:0:
179,161,42826,1,8,0:0:0:0:
179,161,43009,1,0,0:0:0:0:
179,161,43191,1,8,0:0:0:0:
179,161,43557,1,8,0:0:0:0:
179,161,43740,1,0,0:0:0:0:
179,161,44106,1,8,0:0:0:0:
174,162,44289,1,8,0:0:0:0:
179,161,44472,1,0,0:0:0:0:
179,161,45204,1,0,0:0:0:0:
174,162,45387,1,8,0:0:0:0:
179,161,45570,1,8,0:0:0:0:
164,138,45752,1,0,0:0:0:0:
179,161,45935,1,0,0:0:0:0:
179,161,46210,1,8,0:0:0:0:
179,161,46484,1,8,0:0:0:0:
179,161,46667,1,0,0:0:0:0:
179,161,47033,1,0,0:0:0:0:
179,161,47399,1,8,0:0:0:0:
179,161,47765,1,0,0:0:0:0:
104,151,48131,1,8,0:0:0:0:
132,129,48313,1,8,0:0:0:0:
94,174,48496,1,0,0:0:0:0:
173,61,48679,1,8,0:0:0:0:
173,61,48862,1,0,0:0:0:0:
280,216,49045,1,8,0:0:0:0:
373,218,49594,1,8,0:0:0:0:
373,218,49777,1,0,0:0:0:0:
373,218,49960,1,0,0:0:0:0:
373,218,50143,1,8,0:0:0:0:
236,177,50326,1,8,0:0:0:0:
236,177,51057,1,0,0:0:0:0:
222,118,51423,1,8,0:0:0:0:
127,158,51789,1,8,0:0:0:0:
127,158,52063,1,8,0:0:0:0:
127,158,52246,1,8,0:0:0:0:
114,184,52521,1,8,0:0:0:0:
155,173,52704,1,8,0:0:0:0:
172,137,52887,1,0,0:0:0:0:
272,114,53070,1,0,0:0:0:0:
135,137,53252,1,0,0:0:0:0:
438,262,53984,1,0,0:0:0:0:
154,183,54350,1,8,0:0:0:0:
154,183,54624,1,8,0:0:0:0:
161,175,54899,1,0,0:0:0:0:
108,158,55265,1,8,0:0:0:0:
163,215,55631,1,0,0:0:0:0:
180,156,55813,1,8,0:0:0:0:
180,156,55996,1,8,0:0:0:0:
251,203,56179,1,0,0:0:0:0:
101,148,56911,1,0,0:0:0:0:
101,148,57094,1,0,0:0:0:0:
112,189,57277,1,8,0:0:0:0:
112,189,57643,1,0,0:0:0:0:
112,189,57826,1,0,0:0:0:0:
112,189,58009,1,8,0:0:0:0:
378,229,58191,1,0,0:0:0:0:
114,203,58374,1,0,0:0:0:0:
119,205,58740,1,8,0:0:0:0:
88,182,59106,1,8,0:0:0:0:
88,181,59472,1,8,0:0:0:0:
91,183,59655,1,8,0:0:0:0:
91,183,59838,1,0,0:0:0:0:
148,166,60021,1,0,0:0:0:0:
148,166,60204,1,8,0:0:0:0:
147,161,60570,1,0,0:0:0:0:
147,161,60752,1,8,0:0:0:0:
173,118,61027,1,8,0:0:0:0:
173,118,61301,1,0,0:0:0:0:
173,118,61484,1,8,0:0:0:0:
173,118,61667,1,8,0:0:0:0:
155,177,62033,1,0,0:0:0:0:
154,133,62765,1,0,0:0:0:0:
95,119,62948,1,0,0:0:0:0:
96,162,63131,1,8,0:0:0:0:
96,162,63496,1,0,0:0:0:0:
216,170,63679,1,8,0:0:0:0:
216,170,63954,1,8,0:0:0:0:
216,170,64228,1,0,0:0:0:0:
169,149,64411,1,8,0:0:0:0:
193,132,64594,1,8,0:0:0:0:
162,161,64960,1,8,0:0:0:0:
198,157,65234,1,8,0:0:0:0:
198,157,65509,1,8,0:0:0:0:
435,244,65691,1,0,0:0:0:0:
435,244,65874,1,8,0:0:0:0:
193,148,66423,5,4,0:0:0:0:
333,199,67063,1,8,0:0:0:0:
333,199,67338,1,8,0:0:0:0:
333,199,67521,1,0,0:0:0:0:
333,199,67704,1,8,0:0:0:0:
333,199,67887,1,8,0:0:0:0:
333,199,68070,1,0,0:0:0:0:
333,199,68618,1,8,0:0:0:0:
333,199,68893,1,8,0:0:0:0:
333,199,69167,1,8,0:0:0:0:
333,199,69350,1,0,0:0:0:0:
333,199,70082,1,0,0:0:0:0:
230,170,70356,1,8,0:0:0:0:
392,157,70631,1,8,0:0:0:0:
230,170,70813,1,0,0:0:0:0:
441,199,70996,1,8,0:0:0:0:
441,199,71179,1,8,0:0:0:0:
158,158,71545,1,0,0:0:0:0:
189,166,71728,1,8,0:0:0:0:
158,158,71911,1,0,0:0:0:0:
174,162,72277,1,0,0:0:0:0:
174,162,73009,1,0,0:0:0:0:
174,162,73191,1,8,0:0:0:0:
179,161,73557,1,8,0:0:0:0:
179,161,73740,1,0,0:0:0:0:
179,161,73923,1,8,0:0:0:0:
179,161,74289,1,8,0:0:0:0:
179,161,74472,1,0,0:0:0:0:
179,161,74838,1,8,0:0:0:0:
174,162,75021,1,8,0:0:0:0:
179,161,75204,1,0,0:0:0:0:
179,161,75935,1,0,0:0:0:0:
174,162,76118,1,8,0:0:0:0:
179,161,76301,1,8,0:0:0:0:
164,138,76484,1,0,0:0:0:0:
179,161,76667,1,0,0:0:0:0:
179,161,76941,1,8,0:0:0:0:
179,161,77216,1,8,0:0:0:0:
179,161,77399,1,0,0:0:0:0:
179,161,77765,1,0,0:0:0:0:
179,161,78131,1,8,0:0:0:0:
179,161,78496,1,0,0:0:0:0:
104,151,78862,1,8,0:0:0:0:
132,129,79045,1,8,0:0:0:0:
94,174,79228,1,0,0:0:0:0:
173,61,79411,1,8,0:0:0:0:
173,61,79594,1,0,0:0:0:0:
280,216,79777,1,8,0:0:0:0:
373,218,80326,1,8,0:0:0:0:
373,218,80509,1,0,0:0:0:0:
373,218,80691,1,0,0:0:0:0:
373,218,80874,1,8,0:0:0:0:
236,177,81057,1,8,0:0:0:0:
236,177,81789,1,0,0:0:0:0:
222,118,82155,1,8,0:0:0:0:
127,158,82521,1,8,0:0:0:0:
127,158,82795,1,8,0:0:0:0:
127,158,82978,1,8,0:0:0:0:
114,184,83252,1,8,0:0:0:0:
155,173,83435,1,8,0:0:0:0:
172,137,83618,1,0,0:0:0:0:
272,114,83801,1,0,0:0:0:0:
135,137,83984,1,0,0:0:0:0:
438,262,84716,1,0,0:0:0:0:
154,183,85082,1,8,0:0:0:0:
154,183,85356,1,8,0:0:0:0:
161,175,85631,1,0,0:0:0:0:
108,158,85996,1,8,0:0:0:0:
163,215,86362,1,0,0:0:0:0:
180,156,86545,1,8,0:0:0:0:
180,156,86728,1,8,0:0:0:0:
251,203,86911,1,0,0:0:0:0:
101,148,87643,1,0,0:0:0:0:
101,148,87826,1,0,0:0:0:0:
112,189,88009,1,8,0:0:0:0:
112,189,88374,1,0,0:0:0:0:
112,189,88557,1,0,0:0:0:0:
112,189,88740,1,8,0:0:0:0:
378,229,88923,1,0,0:0:0:0:
114,203,89106,1,0,0:0:0:0:
119,205,89472,1,8,0:0:0:0:
88,182,89838,1,8,0:0:0:0:
88,181,90204,1,8,0:0:0:0:
91,183,90387,1,8,0:0:0:0:
91,183,90570,1,0,0:0:0:0:
148,166,90752,1,0,0:0:0:0:
148,166,90935,1,8,0:0:0:0:
147,161,91301,1,0,0:0:0:0:
147,161,91484,1,8,0:0:0:0:
173,118,91759,1,8,0:0:0:0:
173,118,92033,1,0,0:0:0:0:
173,118,92216,1,8,0:0:0:0:
173,118,92490,1,8,0:0:0:0:
155,177,92765,1,0,0:0:0:0:
154,133,93496,1,0,0:0:0:0:
95,119,93679,1,0,0:0:0:0:
96,162,93862,1,8,0:0:0:0:
96,162,94228,1,0,0:0:0:0:
216,170,94411,1,8,0:0:0:0:
216,170,94685,1,8,0:0:0:0:
216,170,94960,1,0,0:0:0:0:
169,149,95143,1,8,0:0:0:0:
193,132,95326,1,8,0:0:0:0:
162,161,95691,1,8,0:0:0:0:
198,157,95966,1,8,0:0:0:0:
198,157,96240,1,8,0:0:0:0:
435,244,96423,1,0,0:0:0:0:
435,244,96606,1,8,0:0:0:0:
193,148,97155,5,4,0:0:0:0:
