osu file format v14

[General]
AudioFilename: audio.mp3
AudioLeadIn: 0
PreviewTime: 15
Countdown: 0
SampleSet: Soft
StackLeniency: 0.7
Mode: 0
LetterboxInBreaks: 0
EpilepsyWarning: 1
WidescreenStoryboard: 1

[Editor]
DistanceSpacing: 1
BeatDivisor: 4
GridSize: 32
TimelineZoom: 0.9999999

[Metadata]
Title:Cycling
TitleUnicode:サイクリング
Artist:Ichinose Go, Adachi Minako
ArtistUnicode:一之瀬剛, 足立美奈子
Creator:Slyme
Version:Normal
Source:ポケットモンスター オメガルビー・アルファサファイア
Tags:pokémon pocket monsters gameboy pokemon sapphire and ruby emerald omega & alpha instrumental gba boy advance nintendo game freak mari_0hara mari 0hara ohara video game ゲームボーイアドバンス ポケモンルビー&サファイア ミュージック・スーパーコンプリート super collection complete & music vgm original soundtrack ost ポケットモンスターエメラルド gamefreak ポケットモンスター アルファサファイア ポケットモンスター オメガルビー wanpachi gorou orchestral
BeatmapID:3928468
BeatmapSetID:1905176

[Difficulty]
HPDrainRate:4
CircleSize:3.2
OverallDifficulty:4
ApproachRate:5
SliderMultiplier:1.2
SliderTickRate:1

[Events]
//Background and Video events
0,0,"Cycling.jpg",0,0
//Break Periods
//Storyboard Layer 0 (Background)
Sprite,Background,Centre,"Cycling.jpg",320,240 M,0,113,,320,240 S,0,113,1140,0.4007272 S,0,1140,1859,0.4007272
Sprite,Background,Centre,"Cycling.jpg",320,240 M,0,43765,,319.4182,278.4 S,0,43765,50749,0.4239998,0.3949088 F,0,50749,51622,1,0
Sprite,Background,Centre,"Cycling.jpg",320,240 M,0,15828,,322.3273,297.0182 R,0,15828,,0 S,1,15828,29796,0.4472725,0.4181816
Sprite,Background,Centre,"Cycling.jpg",320,240 M,0,36781,43765,451.4909,204.5092,396.2182,203.9273 S,0,36781,43765,0.5578182,0.5112728
Sprite,Background,Centre,"Cycling.jpg",320,240 M,0,29796,36781,211.7818,366.8364,224,350.5455 S,0,29796,36781,0.5287273,0.4996364
Sprite,Background,Centre,"Cycling.jpg",320,240 M,0,8843,15828,369.6168,401.1509,382.2546,387.2 S,0,8843,15828,0.5636363,0.5403634 F,0,9716,,1
Sprite,Background,Centre,"Cycling.jpg",320,240 F,0,1859,,1 M,0,1859,8843,166.4,81.16367,192.5818,109.0909 S,0,1859,8843,0.5578182,0.5170909
Sprite,Background,Centre,"sb\flare2.png",320,240 M,0,1859,8843,538.7636,237.0908,514.3273,199.2727 R,0,1859,8843,0.442182,0.6865457 C,0,5788,,255,255,0 V,0,5788,,0.2745453,0.3192728 R,0,8843,15828,0.6865457,0.4305457
Sprite,Background,Centre,"sb\flare2.png",320,240 M,0,29796,36780,538.7636,237.0908,514.3273,199.2727 R,0,29796,36780,0.442182,0.6865457 C,0,33725,,255,255,0 V,0,33725,,0.2745453,0.3192728 R,0,36780,43765,0.6865457,0.4305457 R,0,43765,50749,0.4305457,0.5771455 F,0,48567,50749,1,0
Sprite,Background,Centre,"sb\black screen idk.png",320,240 S,0,15828,,0.6858182 F,0,15828,29796,0.7120001
Sprite,Background,Centre,"sb\box1.png",320,240 F,0,15828,,1 C,0,15828,,0,0,0 S,2,15828,16701,0.8429091,0.7498182 S,1,16701,17574,0.7498182,0.6567273 S,0,17574,29796,0.6567273,0.6567274
Sprite,Background,Centre,"sb\particle2.png",0,0 L,496,2 F,1,0,1160,0,1 M,0,0,5800,130.4256,35.11683,126.7259,275.0883 F,2,4640,5800,1,0 S,0,496,,0.05 R,0,496,,1.586212 C,0,496,,253,208,117
Sprite,Background,Centre,"sb\particle2.png",0,0 L,593,2 F,1,0,1160,0,1 M,0,0,5800,507.1886,70.57877,520.2571,310.2227 F,2,4640,5800,1,0 S,0,593,,0.05 R,0,593,,1.516317 C,0,593,,249,220,160
Sprite,Background,Centre,"sb\particle2.png",0,0 L,690,2 F,1,0,1160,0,1 M,0,0,5800,-89.16296,175.4745,-59.72932,413.6628 F,2,4640,5800,1,0 S,0,690,,0.05 R,0,690,,1.447847 C,0,690,,254,246,229
Sprite,Background,Centre,"sb\particle2.png",0,0 L,786,2 F,1,0,1160,0,1 M,0,0,5800,200.8945,-101.2779,181.0054,137.8966 F,2,4640,5800,1,0 S,0,786,,0.05 R,0,786,,1.653763 C,0,786,,254,246,228
Sprite,Background,Centre,"sb\particle2.png",0,0 L,883,2 F,1,0,1160,0,1 M,0,0,5800,627.6436,168.1206,625.9921,408.1149 F,2,4640,5800,1,0 S,0,883,,0.05 R,0,883,,1.577677 C,0,883,,254,225,166
Sprite,Background,Centre,"sb\particle2.png",0,0 L,980,2 F,1,0,1160,0,1 M,0,0,5800,190.9737,66.97179,210.6103,306.1671 F,2,4640,5800,1,0 S,0,980,,0.05 R,0,980,,1.488886 C,0,980,,245,196,95
Sprite,Background,Centre,"sb\particle2.png",0,0 L,1076,2 F,1,0,1160,0,1 M,0,0,5800,619.8433,76.93734,603.3339,316.3688 F,2,4640,5800,1,0 S,0,1076,,0.05 R,0,1076,,1.63964 C,0,1076,,240,200,118
Sprite,Background,Centre,"sb\particle2.png",0,0 L,1173,2 F,1,0,1160,0,1 M,0,0,5800,83.79573,426.2645,83.47348,666.2643 F,2,4640,5800,1,0 S,0,1173,,0.05 R,0,1173,,1.572139 C,0,1173,,249,185,56
Sprite,Background,Centre,"sb\particle2.png",0,0 L,1270,2 F,1,0,1160,0,1 M,0,0,5800,244.0675,476.8385,225.5652,716.1243 F,2,4640,5800,1,0 S,0,1270,,0.05 R,0,1270,,1.647966 C,0,1270,,246,207,128
Sprite,Background,Centre,"sb\particle2.png",0,0 L,1366,2 F,1,0,1160,0,1 M,0,0,5800,413.6221,250.0013,419.2718,489.9348 F,2,4640,5800,1,0 S,0,1366,,0.05 R,0,1366,,1.547254 C,0,1366,,252,220,155
Sprite,Background,Centre,"sb\particle2.png",0,0 L,1463,2 F,1,0,1160,0,1 M,0,0,5800,123.9084,113.3378,100.1847,352.1624 F,2,4640,5800,1,0 S,0,1463,,0.05 R,0,1463,,1.669807 C,0,1463,,253,228,177
Sprite,Background,Centre,"sb\particle2.png",0,0 L,1560,2 F,1,0,1160,0,1 M,0,0,5800,507.3582,-156.4418,499.514,83.42996 F,2,4640,5800,1,0 S,0,1560,,0.05 R,0,1560,,1.603486 C,0,1560,,251,238,212
Sprite,Background,Centre,"sb\particle2.png",0,0 L,1656,2 F,1,0,1160,0,1 M,0,0,5800,393.6483,28.70644,372.4026,267.7642 F,2,4640,5800,1,0 S,0,1656,,0.05 R,0,1656,,1.659436 C,0,1656,,246,219,165
Sprite,Background,Centre,"sb\particle2.png",0,0 L,1753,2 F,1,0,1160,0,1 M,0,0,5800,386.9154,-65.87866,355.5909,172.0683 F,2,4640,5800,1,0 S,0,1753,,0.05 R,0,1753,,1.701689 C,0,1753,,250,221,164
Sprite,Background,Centre,"sb\particle2.png",0,0 L,2043,2 F,1,0,1160,0,1 M,0,0,5800,443.9818,2.383156,445.4389,242.3788 F,2,4640,5800,1,0 S,0,2043,,0.05 R,0,2043,,1.564725 C,0,2043,,247,198,99
Sprite,Background,Centre,"sb\particle2.png",0,0 L,2140,2 F,1,0,1160,0,1 M,0,0,5800,169.6813,-140.7502,148.7537,98.33562 F,2,4640,5800,1,0 S,0,2140,,0.05 R,0,2140,,1.658106 C,0,2140,,253,232,189
Sprite,Background,Centre,"sb\particle2.png",0,0 L,2333,2 F,1,0,1160,0,1 M,0,0,5800,-22.46268,53.51686,-11.9473,293.2864 F,2,4640,5800,1,0 S,0,2333,,0.05 R,0,2333,,1.526968 C,0,2333,,250,233,197
Sprite,Background,Centre,"sb\particle2.png",0,0 L,2430,2 F,1,0,1160,0,1 M,0,0,5800,329.7099,270.3431,356.763,508.8135 F,2,4640,5800,1,0 S,0,2430,,0.05 R,0,2430,,1.457835 C,0,2430,,251,224,170
Sprite,Background,Centre,"sb\particle2.png",0,0 L,2526,2 F,1,0,1160,0,1 M,0,0,5800,36.97101,-181.492,54.46407,57.86964 F,2,4640,5800,1,0 S,0,2526,,0.05 R,0,2526,,1.497844 C,0,2526,,253,183,41
Sprite,Background,Centre,"sb\particle2.png",0,0 L,2623,2 F,1,0,1160,0,1 M,0,0,5800,566.6864,-93.49216,592.1495,145.1533 F,2,4640,5800,1,0 S,0,2623,,0.05 R,0,2623,,1.4645 C,0,2623,,237,180,65
Sprite,Background,Centre,"sb\particle2.png",0,0 L,2720,2 F,1,0,1160,0,1 M,0,0,5800,-1.0849,-148.6659,-0.4958549,91.33339 F,2,4640,5800,1,0 S,0,2720,,0.05 R,0,2720,,1.568342 C,0,2720,,247,222,171
Sprite,Background,Centre,"sb\particle2.png",0,0 L,2816,2 F,1,0,1160,0,1 M,0,0,5800,128.0972,19.29102,120.6728,259.1761 F,2,4640,5800,1,0 S,0,2816,,0.05 R,0,2816,,1.601736 C,0,2816,,239,198,115
Sprite,Background,Centre,"sb\particle2.png",0,0 L,2913,2 F,1,0,1160,0,1 M,0,0,5800,358.9342,19.40159,372.6463,259.0096 F,2,4640,5800,1,0 S,0,2913,,0.05 R,0,2913,,1.513632 C,0,2913,,254,243,222
Sprite,Background,Centre,"sb\particle2.png",0,0 L,3010,2 F,1,0,1160,0,1 M,0,0,5800,548.2667,82.51961,546.838,322.5154 F,2,4640,5800,1,0 S,0,3010,,0.05 R,0,3010,,1.57675 C,0,3010,,245,210,138
Sprite,Background,Centre,"sb\particle2.png",0,0 L,3106,2 F,1,0,1160,0,1 M,0,0,5800,206.3681,81.17411,220.1488,320.7782 F,2,4640,5800,1,0 S,0,3106,,0.05 R,0,3106,,1.513345 C,0,3106,,252,235,201
Sprite,Background,Centre,"sb\particle2.png",0,0 L,3203,2 F,1,0,1160,0,1 M,0,0,5800,202.1832,15.7548,186.9674,255.272 F,2,4640,5800,1,0 S,0,3203,,0.05 R,0,3203,,1.634238 C,0,3203,,252,241,218
Sprite,Background,Centre,"sb\particle2.png",0,0 L,3300,2 F,1,0,1160,0,1 M,0,0,5800,527.964,344.9016,520.7138,584.7921 F,2,4640,5800,1,0 S,0,3300,,0.05 R,0,3300,,1.60101 C,0,3300,,253,224,167
Sprite,Background,Centre,"sb\particle2.png",0,0 L,3396,2 F,1,0,1160,0,1 M,0,0,5800,149.4479,29.45289,169.2468,268.6349 F,2,4640,5800,1,0 S,0,3396,,0.05 R,0,3396,,1.488207 C,0,3396,,248,193,84
Sprite,Background,Centre,"sb\particle2.png",0,0 L,3493,2 F,1,0,1160,0,1 M,0,0,5800,601.5964,94.53197,628.9669,332.9662 F,2,4640,5800,1,0 S,0,3493,,0.05 R,0,3493,,1.456504 C,0,3493,,250,234,202
Sprite,Background,Centre,"sb\particle2.png",0,0 L,3590,2 F,1,0,1160,0,1 M,0,0,5800,7.478363,-33.37729,6.450047,206.6205 F,2,4640,5800,1,0 S,0,3590,,0.05 R,0,3590,,1.575081 C,0,3590,,254,184,42
Sprite,Background,Centre,"sb\particle2.png",0,0 L,3686,2 F,1,0,1160,0,1 M,0,0,5800,142.6552,87.1517,122.97,326.343 F,2,4640,5800,1,0 S,0,3686,,0.05 R,0,3686,,1.65291 C,0,3686,,251,216,147
Sprite,Background,Centre,"sb\particle2.png",0,0 L,3783,2 F,1,0,1160,0,1 M,0,0,5800,-10.09421,-6.957245,-41.08073,231.034 F,2,4640,5800,1,0 S,0,3783,,0.05 R,0,3783,,1.700268 C,0,3783,,239,178,54
Sprite,Background,Centre,"sb\particle2.png",0,0 L,3880,2 F,1,0,1160,0,1 M,0,0,5800,28.41608,159.4477,46.22472,398.7861 F,2,4640,5800,1,0 S,0,3880,,0.05 R,0,3880,,1.496525 C,0,3880,,238,189,89
Sprite,Background,Centre,"sb\particle2.png",0,0 L,3976,2 F,1,0,1160,0,1 M,0,0,5800,456.0412,317.1523,459.1149,557.1327 F,2,4640,5800,1,0 S,0,3976,,0.05 R,0,3976,,1.557989 C,0,3976,,240,200,119
Sprite,Background,Centre,"sb\particle2.png",0,0 L,4073,2 F,1,0,1160,0,1 M,0,0,5800,372.5882,-64.76537,346.6498,173.8289 F,2,4640,5800,1,0 S,0,4073,,0.05 R,0,4073,,1.679084 C,0,4073,,242,209,142
Sprite,Background,Centre,"sb\particle2.png",0,0 L,4170,2 F,1,0,1160,0,1 M,0,0,5800,687.9225,7.87188,718.1976,245.9547 F,2,4640,5800,1,0 S,0,4170,,0.05 R,0,4170,,1.444313 C,0,4170,,249,196,88
Sprite,Background,Centre,"sb\particle2.png",0,0 L,4266,2 F,1,0,1160,0,1 M,0,0,5800,600.1683,37.18436,583.0798,276.5752 F,2,4640,5800,1,0 S,0,4266,,0.05 R,0,4266,,1.642058 C,0,4266,,245,204,121
Sprite,Background,Centre,"sb\particle2.png",0,0 L,4363,2 F,1,0,1160,0,1 M,0,0,5800,671.8499,40.94433,642.2134,279.1075 F,2,4640,5800,1,0 S,0,4363,,0.05 R,0,4363,,1.694598 C,0,4363,,239,183,68
Sprite,Background,Centre,"sb\particle2.png",0,0 L,4460,2 F,1,0,1160,0,1 M,0,0,5800,434.8814,-1.599167,410.8639,237.1961 F,2,4640,5800,1,0 S,0,4460,,0.05 R,0,4460,,1.671037 C,0,4460,,251,231,189
Sprite,Background,Centre,"sb\particle2.png",0,0 L,4556,2 F,1,0,1160,0,1 M,0,0,5800,63.47583,79.07946,32.66373,317.0934 F,2,4640,5800,1,0 S,0,4556,,0.05 R,0,4556,,1.699535 C,0,4556,,246,223,175
Sprite,Background,Centre,"sb\particle2.png",0,0 L,4653,2 F,1,0,1160,0,1 M,0,0,5800,427.8276,221.8435,428.0464,461.8434 F,2,4640,5800,1,0 S,0,4653,,0.05 R,0,4653,,1.569884 C,0,4653,,247,194,86
Sprite,Background,Centre,"sb\particle2.png",0,0 L,4750,2 F,1,0,1160,0,1 M,0,0,5800,227.1249,282.8414,209.2923,522.178 F,2,4640,5800,1,0 S,0,4750,,0.05 R,0,4750,,1.645167 C,0,4750,,245,217,159
Sprite,Background,Centre,"sb\particle2.png",0,0 L,4846,2 F,1,0,1160,0,1 M,0,0,5800,-1.666016,-17.88427,8.319609,221.9079 F,2,4640,5800,1,0 S,0,4846,,0.05 R,0,4846,,1.529178 C,0,4846,,234,178,66
Sprite,Background,Centre,"sb\particle2.png",0,0 L,4943,2 F,1,0,1160,0,1 M,0,0,5800,542.7949,-134.0731,518.1993,104.6633 F,2,4640,5800,1,0 S,0,4943,,0.05 R,0,4943,,1.673458 C,0,4943,,248,194,84
Sprite,Background,Centre,"sb\particle2.png",0,0 L,5040,2 F,1,0,1160,0,1 M,0,0,5800,274.3707,374.1991,293.4574,613.439 F,2,4640,5800,1,0 S,0,5040,,0.05 R,0,5040,,1.491184 C,0,5040,,253,211,127
Sprite,Background,Centre,"sb\particle2.png",0,0 L,5136,2 F,1,0,1160,0,1 M,0,0,5800,153.4628,-72.28114,161.6939,167.5777 F,2,4640,5800,1,0 S,0,5136,,0.05 R,0,5136,,1.536493 C,0,5136,,253,245,231
Sprite,Background,Centre,"sb\particle2.png",0,0 L,5233,2 F,1,0,1160,0,1 M,0,0,5800,286.8693,89.0668,256.5757,327.1473 F,2,4640,5800,1,0 S,0,5233,,0.05 R,0,5233,,1.697357 C,0,5233,,254,189,58
Sprite,Background,Centre,"sb\particle2.png",0,0 L,5330,2 F,1,0,1160,0,1 M,0,0,5800,316.8448,-19.66772,336.2442,219.547 F,2,4640,5800,1,0 S,0,5330,,0.05 R,0,5330,,1.489877 C,0,5330,,235,180,67
Sprite,Background,Centre,"sb\particle2.png",0,0 L,5426,2 F,1,0,1160,0,1 M,0,0,5800,286.2236,-26.95679,264.8997,212.094 F,2,4640,5800,1,0 S,0,5426,,0.05 R,0,5426,,1.659763 C,0,5426,,250,216,146
Sprite,Background,Centre,"sb\particle2.png",0,0 L,5523,2 F,1,0,1160,0,1 M,0,0,5800,319.2296,465.4875,296.6699,704.4249 F,2,4640,5800,1,0 S,0,5523,,0.05 R,0,5523,,1.664934 C,0,5523,,252,239,213
Sprite,Background,Centre,"sb\particle2.png",0,0 L,5620,2 F,1,0,1160,0,1 M,0,0,5800,388.9773,-156.3633,398.9972,83.42744 F,2,4640,5800,1,0 S,0,5620,,0.05 R,0,5620,,1.529035 C,0,5620,,251,207,116
Sprite,Background,Centre,"sb\particle2.png",0,0 L,5716,2 F,1,0,1160,0,1 M,0,0,5800,59.29588,-219.2217,52.4524,20.68071 F,2,4640,5800,1,0 S,0,5716,,0.05 R,0,5716,,1.599315 C,0,5716,,245,218,162
Sprite,Background,Centre,"sb\particle2.png",0,0 L,5813,2 F,1,0,1160,0,1 M,0,0,5800,673.1283,78.05655,670.6437,318.0437 F,2,4640,5800,1,0 S,0,5813,,0.05 R,0,5813,,1.581149 C,0,5813,,235,172,46
Sprite,Background,Centre,"sb\particle2.png",0,0 L,5910,2 F,1,0,1160,0,1 M,0,0,5800,-6.803467,-15.85518,0.7830634,224.0249 F,2,4640,5800,1,0 S,0,5910,,0.05 R,0,5910,,1.539181 C,0,5910,,252,200,94
Sprite,Background,Centre,"sb\particle2.png",0,0 L,6006,2 F,1,0,1160,0,1 M,0,0,5800,365.8079,-180.8254,345.1219,58.28143 F,2,4640,5800,1,0 S,0,6006,,0.05 R,0,6006,,1.657095 C,0,6006,,249,212,138
Sprite,Background,Centre,"sb\particle2.png",0,0 L,6103,2 F,1,0,1160,0,1 M,0,0,5800,465.7394,372.0296,462.3947,612.0063 F,2,4640,5800,1,0 S,0,6103,,0.05 R,0,6103,,1.584733 C,0,6103,,242,191,89
Sprite,Background,Centre,"sb\rain1.png",0,0 L,15828,2 F,1,0,1337,0,1 M,0,0,6686,266.2213,-957.603,266.2209,8042.397 F,2,5348,6686,1,0 R,0,15828,,3.141593 C,0,15828,,173,173,173 V,0,15828,,0.2,1.4
Sprite,Background,Centre,"sb\rain1.png",0,0 L,15850,2 F,1,0,1337,0,1 M,0,0,6686,-34.97821,-737.6765,-34.9786,8262.323 F,2,5348,6686,1,0 R,0,15850,,3.141593 C,0,15850,,166,166,166 V,0,15850,,0.2,1.4
Sprite,Background,Centre,"sb\rain1.png",0,0 L,15872,2 F,1,0,1337,0,1 M,0,0,6686,248.8305,-335.9825,248.8301,8664.018 F,2,5348,6686,1,0 R,0,15872,,3.141593 C,0,15872,,253,253,253 V,0,15872,,0.2,1.4
Sprite,Background,Centre,"sb\rain1.png",0,0 L,15894,2 F,1,0,1337,0,1 M,0,0,6686,684.7146,-529.555,684.7142,8470.445 F,2,5348,6686,1,0 R,0,15894,,3.141593 C,0,15894,,181,181,181 V,0,15894,,0.2,1.4
Sprite,Background,Centre,"sb\rain1.png",0,0 L,15917,2 F,1,0,1337,0,1 M,0,0,6686,470.335,-936.2852,470.3346,8063.715 F,2,5348,6686,1,0 R,0,15917,,3.141593 C,0,15917,,231,231,231 V,0,15917,,0.2,1.4
Sprite,Background,Centre,"sb\rain1.png",0,0 L,15939,2 F,1,0,1337,0,1 M,0,0,6686,-61.31876,-663.5529,-61.31915,8336.447 F,2,5348,6686,1,0 R,0,15939,,3.141593 C,0,15939,,161,161,161 V,0,15939,,0.2,1.4
Sprite,Background,Centre,"sb\rain1.png",0,0 L,15961,2 F,1,0,1337,0,1 M,0,0,6686,423.6503,-351.4261,423.6499,8648.574 F,2,5348,6686,1,0 R,0,15961,,3.141593 C,0,15961,,211,211,211 V,0,15961,,0.2,1.4
Sprite,Background,Centre,"sb\rain1.png",0,0 L,15984,2 F,1,0,1337,0,1 M,0,0,6686,325.6739,-669.5046,325.6735,8330.495 F,2,5348,6686,1,0 R,0,15984,,3.141593 C,0,15984,,251,251,251 V,0,15984,,0.2,1.4
Sprite,Background,Centre,"sb\rain1.png",0,0 L,16006,2 F,1,0,1337,0,1 M,0,0,6686,-18.28488,-610.9059,-18.28527,8389.094 F,2,5348,6686,1,0 R,0,16006,,3.141593 C,0,16006,,246,246,246 V,0,16006,,0.2,1.4
Sprite,Background,Centre,"sb\rain1.png",0,0 L,16028,2 F,1,0,1337,0,1 M,0,0,6686,384.4705,-823.1349,384.4701,8176.865 F,2,5348,6686,1,0 R,0,16028,,3.141593 C,0,16028,,190,190,190 V,0,16028,,0.2,1.4
Sprite,Background,Centre,"sb\rain1.png",0,0 L,16050,2 F,1,0,1337,0,1 M,0,0,6686,33.59546,-418.4271,33.59507,8581.573 F,2,5348,6686,1,0 R,0,16050,,3.141593 C,0,16050,,175,175,175 V,0,16050,,0.2,1.4
Sprite,Background,Centre,"sb\rain1.png",0,0 L,16073,2 F,1,0,1337,0,1 M,0,0,6686,582.0715,-851.7662,582.0711,8148.234 F,2,5348,6686,1,0 R,0,16073,,3.141593 C,0,16073,,217,217,217 V,0,16073,,0.2,1.4
Sprite,Background,Centre,"sb\rain1.png",0,0 L,16095,2 F,1,0,1337,0,1 M,0,0,6686,187.7051,-732.0725,187.7047,8267.928 F,2,5348,6686,1,0 R,0,16095,,3.141593 C,0,16095,,147,147,147 V,0,16095,,0.2,1.4
Sprite,Background,Centre,"sb\rain1.png",0,0 L,16117,2 F,1,0,1337,0,1 M,0,0,6686,407.1607,-740.0923,407.1603,8259.907 F,2,5348,6686,1,0 R,0,16117,,3.141593 C,0,16117,,165,165,165 V,0,16117,,0.2,1.4
Sprite,Background,Centre,"sb\rain1.png",0,0 L,16140,2 F,1,0,1337,0,1 M,0,0,6686,597.5221,-600.0476,597.5217,8399.952 F,2,5348,6686,1,0 R,0,16140,,3.141593 C,0,16140,,234,234,234 V,0,16140,,0.2,1.4
Sprite,Background,Centre,"sb\rain1.png",0,0 L,16162,2 F,1,0,1337,0,1 M,0,0,6686,595.1335,-397.6226,595.1331,8602.377 F,2,5348,6686,1,0 R,0,16162,,3.141593 C,0,16162,,247,247,247 V,0,16162,,0.2,1.4
Sprite,Background,Centre,"sb\rain1.png",0,0 L,16184,2 F,1,0,1337,0,1 M,0,0,6686,423.0904,-343.7541,423.09,8656.246 F,2,5348,6686,1,0 R,0,16184,,3.141593 C,0,16184,,224,224,224 V,0,16184,,0.2,1.4
Sprite,Background,Centre,"sb\rain1.png",0,0 L,16206,2 F,1,0,1337,0,1 M,0,0,6686,-38.00873,-527.9636,-38.00912,8472.036 F,2,5348,6686,1,0 R,0,16206,,3.141593 C,0,16206,,228,228,228 V,0,16206,,0.2,1.4
Sprite,Background,Centre,"sb\rain1.png",0,0 L,16229,2 F,1,0,1337,0,1 M,0,0,6686,520.738,-683.0887,520.7377,8316.911 F,2,5348,6686,1,0 R,0,16229,,3.141593 C,0,16229,,183,183,183 V,0,16229,,0.2,1.4
Sprite,Background,Centre,"sb\rain1.png",0,0 L,16251,2 F,1,0,1337,0,1 M,0,0,6686,237.1334,-247.2526,237.133,8752.747 F,2,5348,6686,1,0 R,0,16251,,3.141593 C,0,16251,,175,175,175 V,0,16251,,0.2,1.4
Sprite,Background,Centre,"sb\rain1.png",0,0 L,16273,2 F,1,0,1337,0,1 M,0,0,6686,83.97789,-834.9059,83.97749,8165.094 F,2,5348,6686,1,0 R,0,16273,,3.141593 C,0,16273,,162,162,162 V,0,16273,,0.2,1.4
Sprite,Background,Centre,"sb\rain1.png",0,0 L,16296,2 F,1,0,1337,0,1 M,0,0,6686,412.9886,-644.683,412.9883,8355.317 F,2,5348,6686,1,0 R,0,16296,,3.141593 C,0,16296,,157,157,157 V,0,16296,,0.2,1.4
Sprite,Background,Centre,"sb\rain1.png",0,0 L,16318,2 F,1,0,1337,0,1 M,0,0,6686,397.4969,-494.5969,397.4966,8505.403 F,2,5348,6686,1,0 R,0,16318,,3.141593 C,0,16318,,193,193,193 V,0,16318,,0.2,1.4
Sprite,Background,Centre,"sb\rain1.png",0,0 L,16340,2 F,1,0,1337,0,1 M,0,0,6686,516.7781,-335.9995,516.7777,8664 F,2,5348,6686,1,0 R,0,16340,,3.141593 C,0,16340,,221,221,221 V,0,16340,,0.2,1.4
Sprite,Background,Centre,"sb\rain1.png",0,0 L,16362,2 F,1,0,1337,0,1 M,0,0,6686,560.1903,-592.3275,560.1899,8407.673 F,2,5348,6686,1,0 R,0,16362,,3.141593 C,0,16362,,197,197,197 V,0,16362,,0.2,1.4
Sprite,Background,Centre,"sb\rain1.png",0,0 L,16385,2 F,1,0,1337,0,1 M,0,0,6686,210.6822,-976.0618,210.6818,8023.938 F,2,5348,6686,1,0 R,0,16385,,3.141593 C,0,16385,,210,210,210 V,0,16385,,0.2,1.4
Sprite,Background,Centre,"sb\rain1.png",0,0 L,16407,2 F,1,0,1337,0,1 M,0,0,6686,266.0816,-320.4557,266.0812,8679.544 F,2,5348,6686,1,0 R,0,16407,,3.141593 C,0,16407,,198,198,198 V,0,16407,,0.2,1.4
Sprite,Background,Centre,"sb\rain1.png",0,0 L,16429,2 F,1,0,1337,0,1 M,0,0,6686,-47.89166,-590.9341,-47.89206,8409.066 F,2,5348,6686,1,0 R,0,16429,,3.141593 C,0,16429,,234,234,234 V,0,16429,,0.2,1.4
Sprite,Background,Centre,"sb\rain1.png",0,0 L,16452,2 F,1,0,1337,0,1 M,0,0,6686,4.700317,-376.5522,4.699924,8623.448 F,2,5348,6686,1,0 R,0,16452,,3.141593 C,0,16452,,213,213,213 V,0,16452,,0.2,1.4
Sprite,Background,Centre,"sb\rain1.png",0,0 L,16474,2 F,1,0,1337,0,1 M,0,0,6686,480.5378,-889.5649,480.5374,8110.435 F,2,5348,6686,1,0 R,0,16474,,3.141593 C,0,16474,,186,186,186 V,0,16474,,0.2,1.4
Sprite,Background,Centre,"sb\rain1.png",0,0 L,16496,2 F,1,0,1337,0,1 M,0,0,6686,164.956,-726.8113,164.9556,8273.188 F,2,5348,6686,1,0 R,0,16496,,3.141593 C,0,16496,,158,158,158 V,0,16496,,0.2,1.4
Sprite,Background,Centre,"sb\rain1.png",0,0 L,16518,2 F,1,0,1337,0,1 M,0,0,6686,288.471,-234.1919,288.4706,8765.808 F,2,5348,6686,1,0 R,0,16518,,3.141593 C,0,16518,,203,203,203 V,0,16518,,0.2,1.4
Sprite,Background,Centre,"sb\rain1.png",0,0 L,16541,2 F,1,0,1337,0,1 M,0,0,6686,429.5471,-620.8065,429.5467,8379.193 F,2,5348,6686,1,0 R,0,16541,,3.141593 C,0,16541,,239,239,239 V,0,16541,,0.2,1.4
Sprite,Background,Centre,"sb\rain1.png",0,0 L,16563,2 F,1,0,1337,0,1 M,0,0,6686,130.3214,-836.8226,130.321,8163.177 F,2,5348,6686,1,0 R,0,16563,,3.141593 C,0,16563,,254,254,254 V,0,16563,,0.2,1.4
Sprite,Background,Centre,"sb\rain1.png",0,0 L,16585,2 F,1,0,1337,0,1 M,0,0,6686,287.6251,-503.748,287.6247,8496.252 F,2,5348,6686,1,0 R,0,16585,,3.141593 C,0,16585,,177,177,177 V,0,16585,,0.2,1.4
Sprite,Background,Centre,"sb\rain1.png",0,0 L,16608,2 F,1,0,1337,0,1 M,0,0,6686,492.7894,-516.4396,492.789,8483.561 F,2,5348,6686,1,0 R,0,16608,,3.141593 C,0,16608,,201,201,201 V,0,16608,,0.2,1.4
Sprite,Background,Centre,"sb\rain1.png",0,0 L,16630,2 F,1,0,1337,0,1 M,0,0,6686,567.4901,-568.9727,567.4897,8431.027 F,2,5348,6686,1,0 R,0,16630,,3.141593 C,0,16630,,247,247,247 V,0,16630,,0.2,1.4
Sprite,Background,Centre,"sb\rain1.png",0,0 L,16652,2 F,1,0,1337,0,1 M,0,0,6686,600.5903,-547.247,600.59,8452.753 F,2,5348,6686,1,0 R,0,16652,,3.141593 C,0,16652,,134,134,134 V,0,16652,,0.2,1.4
Sprite,Background,Centre,"sb\rain1.png",0,0 L,16674,2 F,1,0,1337,0,1 M,0,0,6686,199.7654,-773.4254,199.765,8226.574 F,2,5348,6686,1,0 R,0,16674,,3.141593 C,0,16674,,231,231,231 V,0,16674,,0.2,1.4
Sprite,Background,Centre,"sb\rain1.png",0,0 L,16697,2 F,1,0,1337,0,1 M,0,0,6686,203.4638,-368.2947,203.4634,8631.705 F,2,5348,6686,1,0 R,0,16697,,3.141593 C,0,16697,,251,251,251 V,0,16697,,0.2,1.4
Sprite,Background,Centre,"sb\rain1.png",0,0 L,16719,2 F,1,0,1337,0,1 M,0,0,6686,315.2711,-454.604,315.2708,8545.396 F,2,5348,6686,1,0 R,0,16719,,3.141593 C,0,16719,,245,245,245 V,0,16719,,0.2,1.4
Sprite,Background,Centre,"sb\rain1.png",0,0 L,16741,2 F,1,0,1337,0,1 M,0,0,6686,-20.55093,-698.1443,-20.55133,8301.855 F,2,5348,6686,1,0 R,0,16741,,3.141593 C,0,16741,,254,254,254 V,0,16741,,0.2,1.4
Sprite,Background,Centre,"sb\rain1.png",0,0 L,16764,2 F,1,0,1337,0,1 M,0,0,6686,645.363,-530.6075,645.3626,8469.393 F,2,5348,6686,1,0 R,0,16764,,3.141593 C,0,16764,,211,211,211 V,0,16764,,0.2,1.4
Sprite,Background,Centre,"sb\rain1.png",0,0 L,16786,2 F,1,0,1337,0,1 M,0,0,6686,141.5011,-700.0223,141.5007,8299.978 F,2,5348,6686,1,0 R,0,16786,,3.141593 C,0,16786,,236,236,236 V,0,16786,,0.2,1.4
Sprite,Background,Centre,"sb\rain1.png",0,0 L,16808,2 F,1,0,1337,0,1 M,0,0,6686,529.8709,-367.7183,529.8705,8632.281 F,2,5348,6686,1,0 R,0,16808,,3.141593 C,0,16808,,184,184,184 V,0,16808,,0.2,1.4
Sprite,Background,Centre,"sb\rain1.png",0,0 L,16830,2 F,1,0,1337,0,1 M,0,0,6686,443.4269,-581.7914,443.4265,8418.209 F,2,5348,6686,1,0 R,0,16830,,3.141593 C,0,16830,,243,243,243 V,0,16830,,0.2,1.4
Sprite,Background,Centre,"sb\rain1.png",0,0 L,16853,2 F,1,0,1337,0,1 M,0,0,6686,202.5043,-764.4506,202.5039,8235.55 F,2,5348,6686,1,0 R,0,16853,,3.141593 C,0,16853,,175,175,175 V,0,16853,,0.2,1.4
Sprite,Background,Centre,"sb\rain1.png",0,0 L,16875,2 F,1,0,1337,0,1 M,0,0,6686,533.3545,-782.0258,533.3541,8217.975 F,2,5348,6686,1,0 R,0,16875,,3.141593 C,0,16875,,197,197,197 V,0,16875,,0.2,1.4
Sprite,Background,Centre,"sb\rain1.png",0,0 L,16897,2 F,1,0,1337,0,1 M,0,0,6686,333.709,-201.1525,333.7086,8798.848 F,2,5348,6686,1,0 R,0,16897,,3.141593 C,0,16897,,253,253,253 V,0,16897,,0.2,1.4
Sprite,Background,Centre,"sb\rain1.png",0,0 L,16920,2 F,1,0,1337,0,1 M,0,0,6686,474.0177,-637.7026,474.0173,8362.298 F,2,5348,6686,1,0 R,0,16920,,3.141593 C,0,16920,,189,189,189 V,0,16920,,0.2,1.4
Sprite,Background,Centre,"sb\rain1.png",0,0 L,16942,2 F,1,0,1337,0,1 M,0,0,6686,442.6003,-549.215,442.5999,8450.785 F,2,5348,6686,1,0 R,0,16942,,3.141593 C,0,16942,,241,241,241 V,0,16942,,0.2,1.4
Sprite,Background,Centre,"sb\rain1.png",0,0 L,16964,2 F,1,0,1337,0,1 M,0,0,6686,130.9424,-836.502,130.942,8163.498 F,2,5348,6686,1,0 R,0,16964,,3.141593 C,0,16964,,238,238,238 V,0,16964,,0.2,1.4
Sprite,Background,Centre,"sb\rain1.png",0,0 L,16986,2 F,1,0,1337,0,1 M,0,0,6686,-40.33444,-476.3043,-40.33484,8523.695 F,2,5348,6686,1,0 R,0,16986,,3.141593 C,0,16986,,190,190,190 V,0,16986,,0.2,1.4
Sprite,Background,Centre,"sb\rain1.png",0,0 L,17009,2 F,1,0,1337,0,1 M,0,0,6686,365.9609,-857.2755,365.9605,8142.725 F,2,5348,6686,1,0 R,0,17009,,3.141593 C,0,17009,,207,207,207 V,0,17009,,0.2,1.4
Sprite,Background,Centre,"sb\rain1.png",0,0 L,17031,2 F,1,0,1337,0,1 M,0,0,6686,587.0657,-431.2089,587.0653,8568.791 F,2,5348,6686,1,0 R,0,17031,,3.141593 C,0,17031,,201,201,201 V,0,17031,,0.2,1.4
Sprite,Background,Centre,"sb\rain1.png",0,0 L,17053,2 F,1,0,1337,0,1 M,0,0,6686,331.5988,-586.3954,331.5984,8413.604 F,2,5348,6686,1,0 R,0,17053,,3.141593 C,0,17053,,188,188,188 V,0,17053,,0.2,1.4
Sprite,Background,Centre,"sb\rain1.png",0,0 L,17076,2 F,1,0,1337,0,1 M,0,0,6686,472.0601,-769.9481,472.0597,8230.052 F,2,5348,6686,1,0 R,0,17076,,3.141593 C,0,17076,,237,237,237 V,0,17076,,0.2,1.4
Sprite,Background,Centre,"sb\rain1.png",0,0 L,17098,2 F,1,0,1337,0,1 M,0,0,6686,40.49539,-674.0195,40.495,8325.98 F,2,5348,6686,1,0 R,0,17098,,3.141593 C,0,17098,,207,207,207 V,0,17098,,0.2,1.4
Sprite,Background,Centre,"sb\rain1.png",0,0 L,17120,2 F,1,0,1337,0,1 M,0,0,6686,241.0282,-416.2732,241.0278,8583.727 F,2,5348,6686,1,0 R,0,17120,,3.141593 C,0,17120,,247,247,247 V,0,17120,,0.2,1.4
Sprite,Background,Centre,"sb\rain1.png",0,0 L,17142,2 F,1,0,1337,0,1 M,0,0,6686,228.4576,-450.3994,228.4572,8549.601 F,2,5348,6686,1,0 R,0,17142,,3.141593 C,0,17142,,170,170,170 V,0,17142,,0.2,1.4
Sprite,Background,Centre,"sb\rain1.png",0,0 L,17165,2 F,1,0,1337,0,1 M,0,0,6686,41.19031,-662.1317,41.18991,8337.868 F,2,5348,6686,1,0 R,0,17165,,3.141593 C,0,17165,,166,166,166 V,0,17165,,0.2,1.4
Sprite,Background,Centre,"sb\rain1.png",0,0 L,17187,2 F,1,0,1337,0,1 M,0,0,6686,191.9153,-548.0377,191.9149,8451.962 F,2,5348,6686,1,0 R,0,17187,,3.141593 C,0,17187,,224,224,224 V,0,17187,,0.2,1.4
Sprite,Background,Centre,"sb\rain1.png",0,0 L,17209,2 F,1,0,1337,0,1 M,0,0,6686,288.4097,-638.5166,288.4093,8361.483 F,2,5348,6686,1,0 R,0,17209,,3.141593 C,0,17209,,254,254,254 V,0,17209,,0.2,1.4
Sprite,Background,Centre,"sb\rain1.png",0,0 L,17232,2 F,1,0,1337,0,1 M,0,0,6686,419.8091,-503.4697,419.8087,8496.53 F,2,5348,6686,1,0 R,0,17232,,3.141593 C,0,17232,,233,233,233 V,0,17232,,0.2,1.4
Sprite,Background,Centre,"sb\rain1.png",0,0 L,17254,2 F,1,0,1337,0,1 M,0,0,6686,312.7383,-394.6104,312.7379,8605.39 F,2,5348,6686,1,0 R,0,17254,,3.141593 C,0,17254,,186,186,186 V,0,17254,,0.2,1.4
Sprite,Background,Centre,"sb\rain1.png",0,0 L,17276,2 F,1,0,1337,0,1 M,0,0,6686,513.991,-906.7266,513.9906,8093.273 F,2,5348,6686,1,0 R,0,17276,,3.141593 C,0,17276,,159,159,159 V,0,17276,,0.2,1.4
Sprite,Background,Centre,"sb\rain1.png",0,0 L,17298,2 F,1,0,1337,0,1 M,0,0,6686,667.6368,-724.2028,667.6365,8275.797 F,2,5348,6686,1,0 R,0,17298,,3.141593 C,0,17298,,239,239,239 V,0,17298,,0.2,1.4
Sprite,Background,Centre,"sb\rain1.png",0,0 L,17321,2 F,1,0,1337,0,1 M,0,0,6686,136.1269,-366.6009,136.1265,8633.399 F,2,5348,6686,1,0 R,0,17321,,3.141593 C,0,17321,,196,196,196 V,0,17321,,0.2,1.4
Sprite,Background,Centre,"sb\rain1.png",0,0 L,17343,2 F,1,0,1337,0,1 M,0,0,6686,32.86633,-446.3292,32.86594,8553.671 F,2,5348,6686,1,0 R,0,17343,,3.141593 C,0,17343,,244,244,244 V,0,17343,,0.2,1.4
Sprite,Background,Centre,"sb\rain1.png",0,0 L,17365,2 F,1,0,1337,0,1 M,0,0,6686,219.8077,-285.607,219.8073,8714.393 F,2,5348,6686,1,0 R,0,17365,,3.141593 C,0,17365,,235,235,235 V,0,17365,,0.2,1.4
Sprite,Background,Centre,"sb\rain1.png",0,0 L,17388,2 F,1,0,1337,0,1 M,0,0,6686,398.7516,-226.8442,398.7512,8773.156 F,2,5348,6686,1,0 R,0,17388,,3.141593 C,0,17388,,249,249,249 V,0,17388,,0.2,1.4
Sprite,Background,Centre,"sb\rain1.png",0,0 L,17410,2 F,1,0,1337,0,1 M,0,0,6686,283.0556,-320.4429,283.0552,8679.557 F,2,5348,6686,1,0 R,0,17410,,3.141593 C,0,17410,,192,192,192 V,0,17410,,0.2,1.4
Sprite,Background,Centre,"sb\rain1.png",0,0 L,17432,2 F,1,0,1337,0,1 M,0,0,6686,90.3244,-803.6462,90.32401,8196.354 F,2,5348,6686,1,0 R,0,17432,,3.141593 C,0,17432,,232,232,232 V,0,17432,,0.2,1.4
Sprite,Background,Centre,"sb\rain1.png",0,0 L,17454,2 F,1,0,1337,0,1 M,0,0,6686,353.4766,-734.0934,353.4762,8265.906 F,2,5348,6686,1,0 R,0,17454,,3.141593 C,0,17454,,217,217,217 V,0,17454,,0.2,1.4
Sprite,Background,Centre,"sb\rain1.png",0,0 L,17477,2 F,1,0,1337,0,1 M,0,0,6686,-6.435913,-755.0256,-6.436306,8244.975 F,2,5348,6686,1,0 R,0,17477,,3.141593 C,0,17477,,200,200,200 V,0,17477,,0.2,1.4
Sprite,Background,Centre,"sb\rain1.png",0,0 L,17499,2 F,1,0,1337,0,1 M,0,0,6686,47.96249,-779.3001,47.9621,8220.7 F,2,5348,6686,1,0 R,0,17499,,3.141593 C,0,17499,,254,254,254 V,0,17499,,0.2,1.4
Sprite,Background,Centre,"sb\rain1.png",0,0 L,17521,2 F,1,0,1337,0,1 M,0,0,6686,469.6843,-366.5893,469.6839,8633.411 F,2,5348,6686,1,0 R,0,17521,,3.141593 C,0,17521,,253,253,253 V,0,17521,,0.2,1.4
Sprite,Background,Centre,"sb\rain1.png",0,0 L,17544,2 F,1,0,1337,0,1 M,0,0,6686,544.5225,-547.8201,544.5222,8452.18 F,2,5348,6686,1,0 R,0,17544,,3.141593 C,0,17544,,212,212,212 V,0,17544,,0.2,1.4
Sprite,Background,Centre,"sb\rain1.png",0,0 L,17566,2 F,1,0,1337,0,1 M,0,0,6686,440.0336,-746.5596,440.0332,8253.44 F,2,5348,6686,1,0 R,0,17566,,3.141593 C,0,17566,,236,236,236 V,0,17566,,0.2,1.4
Sprite,Background,Centre,"sb\rain1.png",0,0 L,17588,2 F,1,0,1337,0,1 M,0,0,6686,492.9383,-901.4326,492.9379,8098.567 F,2,5348,6686,1,0 R,0,17588,,3.141593 C,0,17588,,180,180,180 V,0,17588,,0.2,1.4
Sprite,Background,Centre,"sb\rain1.png",0,0 L,17610,2 F,1,0,1337,0,1 M,0,0,6686,449.9706,-325.0771,449.9702,8674.923 F,2,5348,6686,1,0 R,0,17610,,3.141593 C,0,17610,,166,166,166 V,0,17610,,0.2,1.4
Sprite,Background,Centre,"sb\rain1.png",0,0 L,17633,2 F,1,0,1337,0,1 M,0,0,6686,251.4533,-550.6498,251.4529,8449.351 F,2,5348,6686,1,0 R,0,17633,,3.141593 C,0,17633,,191,191,191 V,0,17633,,0.2,1.4
Sprite,Background,Centre,"sb\rain1.png",0,0 L,17655,2 F,1,0,1337,0,1 M,0,0,6686,118.6124,-761.2501,118.612,8238.75 F,2,5348,6686,1,0 R,0,17655,,3.141593 C,0,17655,,178,178,178 V,0,17655,,0.2,1.4
Sprite,Background,Centre,"sb\rain1.png",0,0 L,17677,2 F,1,0,1337,0,1 M,0,0,6686,511.8005,-382.6821,511.8001,8617.318 F,2,5348,6686,1,0 R,0,17677,,3.141593 C,0,17677,,228,228,228 V,0,17677,,0.2,1.4
Sprite,Background,Centre,"sb\rain1.png",0,0 L,17700,2 F,1,0,1337,0,1 M,0,0,6686,207.426,-568.7126,207.4256,8431.287 F,2,5348,6686,1,0 R,0,17700,,3.141593 C,0,17700,,237,237,237 V,0,17700,,0.2,1.4
Sprite,Background,Centre,"sb\rain1.png",0,0 L,17722,2 F,1,0,1337,0,1 M,0,0,6686,129.7038,-324.7229,129.7034,8675.277 F,2,5348,6686,1,0 R,0,17722,,3.141593 C,0,17722,,210,210,210 V,0,17722,,0.2,1.4
Sprite,Background,Centre,"sb\rain1.png",0,0 L,17744,2 F,1,0,1337,0,1 M,0,0,6686,456.567,-821.4836,456.5666,8178.517 F,2,5348,6686,1,0 R,0,17744,,3.141593 C,0,17744,,237,237,237 V,0,17744,,0.2,1.4
Sprite,Background,Centre,"sb\rain1.png",0,0 L,17766,2 F,1,0,1337,0,1 M,0,0,6686,17.48874,-769.4812,17.48835,8230.519 F,2,5348,6686,1,0 R,0,17766,,3.141593 C,0,17766,,205,205,205 V,0,17766,,0.2,1.4
Sprite,Background,Centre,"sb\rain1.png",0,0 L,17789,2 F,1,0,1337,0,1 M,0,0,6686,411.1453,-604.726,411.1449,8395.274 F,2,5348,6686,1,0 R,0,17789,,3.141593 C,0,17789,,252,252,252 V,0,17789,,0.2,1.4
Sprite,Background,Centre,"sb\rain1.png",0,0 L,17811,2 F,1,0,1337,0,1 M,0,0,6686,74.20686,-508.3998,74.20647,8491.601 F,2,5348,6686,1,0 R,0,17811,,3.141593 C,0,17811,,226,226,226 V,0,17811,,0.2,1.4
Sprite,Background,Centre,"sb\rain1.png",0,0 L,17833,2 F,1,0,1337,0,1 M,0,0,6686,177.9523,-226.2763,177.952,8773.724 F,2,5348,6686,1,0 R,0,17833,,3.141593 C,0,17833,,222,222,222 V,0,17833,,0.2,1.4
Sprite,Background,Centre,"sb\rain1.png",0,0 L,17856,2 F,1,0,1337,0,1 M,0,0,6686,650.4707,-377.2556,650.4703,8622.744 F,2,5348,6686,1,0 R,0,17856,,3.141593 C,0,17856,,245,245,245 V,0,17856,,0.2,1.4
Sprite,Background,Centre,"sb\rain1.png",0,0 L,17878,2 F,1,0,1337,0,1 M,0,0,6686,249.2412,-821.3193,249.2408,8178.681 F,2,5348,6686,1,0 R,0,17878,,3.141593 C,0,17878,,197,197,197 V,0,17878,,0.2,1.4
Sprite,Background,Centre,"sb\rain1.png",0,0 L,17900,2 F,1,0,1337,0,1 M,0,0,6686,434.6284,-338.2906,434.628,8661.709 F,2,5348,6686,1,0 R,0,17900,,3.141593 C,0,17900,,210,210,210 V,0,17900,,0.2,1.4
Sprite,Background,Centre,"sb\rain1.png",0,0 L,17922,2 F,1,0,1337,0,1 M,0,0,6686,159.6126,-455.7683,159.6122,8544.231 F,2,5348,6686,1,0 R,0,17922,,3.141593 C,0,17922,,224,224,224 V,0,17922,,0.2,1.4
Sprite,Background,Centre,"sb\rain1.png",0,0 L,17945,2 F,1,0,1337,0,1 M,0,0,6686,78.04169,-435.1072,78.04129,8564.893 F,2,5348,6686,1,0 R,0,17945,,3.141593 C,0,17945,,201,201,201 V,0,17945,,0.2,1.4
Sprite,Background,Centre,"sb\rain1.png",0,0 L,17967,2 F,1,0,1337,0,1 M,0,0,6686,624.7692,-777.0612,624.7689,8222.938 F,2,5348,6686,1,0 R,0,17967,,3.141593 C,0,17967,,167,167,167 V,0,17967,,0.2,1.4
Sprite,Background,Centre,"sb\rain1.png",0,0 L,17989,2 F,1,0,1337,0,1 M,0,0,6686,478.3278,-853.3531,478.3274,8146.647 F,2,5348,6686,1,0 R,0,17989,,3.141593 C,0,17989,,224,224,224 V,0,17989,,0.2,1.4
Sprite,Background,Centre,"sb\rain1.png",0,0 L,18012,2 F,1,0,1337,0,1 M,0,0,6686,235.0268,-652.8936,235.0264,8347.106 F,2,5348,6686,1,0 R,0,18012,,3.141593 C,0,18012,,245,245,245 V,0,18012,,0.2,1.4
Sprite,Background,Centre,"sb\rain1.png",0,0 L,18034,2 F,1,0,1337,0,1 M,0,0,6686,210.0592,-760.3029,210.0588,8239.697 F,2,5348,6686,1,0 R,0,18034,,3.141593 C,0,18034,,231,231,231 V,0,18034,,0.2,1.4
Sprite,Background,Centre,"sb\rain1.png",0,0 L,18056,2 F,1,0,1337,0,1 M,0,0,6686,397.7505,-634.7955,397.7502,8365.204 F,2,5348,6686,1,0 R,0,18056,,3.141593 C,0,18056,,179,179,179 V,0,18056,,0.2,1.4
Sprite,Background,Centre,"sb\rain1.png",0,0 L,18078,2 F,1,0,1337,0,1 M,0,0,6686,482.4753,-582.5629,482.4749,8417.438 F,2,5348,6686,1,0 R,0,18078,,3.141593 C,0,18078,,173,173,173 V,0,18078,,0.2,1.4
Sprite,Background,Centre,"sb\rain1.png",0,0 L,18101,2 F,1,0,1337,0,1 M,0,0,6686,38.79376,-708.3989,38.79337,8291.602 F,2,5348,6686,1,0 R,0,18101,,3.141593 C,0,18101,,251,251,251 V,0,18101,,0.2,1.4
Sprite,Background,Centre,"sb\rain1.png",0,0 L,18123,2 F,1,0,1337,0,1 M,0,0,6686,614.3737,-751.6667,614.3733,8248.333 F,2,5348,6686,1,0 R,0,18123,,3.141593 C,0,18123,,220,220,220 V,0,18123,,0.2,1.4
Sprite,Background,Centre,"sb\rain1.png",0,0 L,18145,2 F,1,0,1337,0,1 M,0,0,6686,251.8448,-669.408,251.8444,8330.592 F,2,5348,6686,1,0 R,0,18145,,3.141593 C,0,18145,,247,247,247 V,0,18145,,0.2,1.4
Sprite,Background,Centre,"sb\rain1.png",0,0 L,18168,2 F,1,0,1337,0,1 M,0,0,6686,263.4182,-481.347,263.4178,8518.653 F,2,5348,6686,1,0 R,0,18168,,3.141593 C,0,18168,,145,145,145 V,0,18168,,0.2,1.4
Sprite,Background,Centre,"sb\rain1.png",0,0 L,18190,2 F,1,0,1337,0,1 M,0,0,6686,508.3347,-264.2288,508.3343,8735.771 F,2,5348,6686,1,0 R,0,18190,,3.141593 C,0,18190,,201,201,201 V,0,18190,,0.2,1.4
Sprite,Background,Centre,"sb\rain1.png",0,0 L,18212,2 F,1,0,1337,0,1 M,0,0,6686,452.1793,-739.1952,452.1789,8260.805 F,2,5348,6686,1,0 R,0,18212,,3.141593 C,0,18212,,175,175,175 V,0,18212,,0.2,1.4
Sprite,Background,Centre,"sb\rain1.png",0,0 L,18234,2 F,1,0,1337,0,1 M,0,0,6686,189.1635,-845.265,189.1631,8154.735 F,2,5348,6686,1,0 R,0,18234,,3.141593 C,0,18234,,172,172,172 V,0,18234,,0.2,1.4
Sprite,Background,Centre,"sb\rain1.png",0,0 L,18257,2 F,1,0,1337,0,1 M,0,0,6686,585.4055,-564.871,585.4051,8435.129 F,2,5348,6686,1,0 R,0,18257,,3.141593 C,0,18257,,251,251,251 V,0,18257,,0.2,1.4
Sprite,Background,Centre,"sb\rain1.png",0,0 L,18279,2 F,1,0,1337,0,1 M,0,0,6686,513.7349,-638.2744,513.7346,8361.726 F,2,5348,6686,1,0 R,0,18279,,3.141593 C,0,18279,,153,153,153 V,0,18279,,0.2,1.4
Sprite,Background,Centre,"sb\rain1.png",0,0 L,18301,2 F,1,0,1337,0,1 M,0,0,6686,498.4026,-780.9156,498.4022,8219.084 F,2,5348,6686,1,0 R,0,18301,,3.141593 C,0,18301,,248,248,248 V,0,18301,,0.2,1.4
Sprite,Background,Centre,"sb\rain1.png",0,0 L,18324,2 F,1,0,1337,0,1 M,0,0,6686,526.2534,-732.6893,526.2531,8267.311 F,2,5348,6686,1,0 R,0,18324,,3.141593 C,0,18324,,158,158,158 V,0,18324,,0.2,1.4
Sprite,Background,Centre,"sb\rain1.png",0,0 L,18346,2 F,1,0,1337,0,1 M,0,0,6686,81.19086,-861.5572,81.19046,8138.443 F,2,5348,6686,1,0 R,0,18346,,3.141593 C,0,18346,,172,172,172 V,0,18346,,0.2,1.4
Sprite,Background,Centre,"sb\rain1.png",0,0 L,18368,2 F,1,0,1337,0,1 M,0,0,6686,216.1353,-882.8532,216.1349,8117.147 F,2,5348,6686,1,0 R,0,18368,,3.141593 C,0,18368,,157,157,157 V,0,18368,,0.2,1.4
Sprite,Background,Centre,"sb\rain1.png",0,0 L,18390,2 F,1,0,1337,0,1 M,0,0,6686,463.4362,-418.6564,463.4358,8581.344 F,2,5348,6686,1,0 R,0,18390,,3.141593 C,0,18390,,246,246,246 V,0,18390,,0.2,1.4
Sprite,Background,Centre,"sb\rain1.png",0,0 L,18413,2 F,1,0,1337,0,1 M,0,0,6686,543.5436,-829.6481,543.5433,8170.352 F,2,5348,6686,1,0 R,0,18413,,3.141593 C,0,18413,,147,147,147 V,0,18413,,0.2,1.4
Sprite,Background,Centre,"sb\rain1.png",0,0 L,18435,2 F,1,0,1337,0,1 M,0,0,6686,370.413,-625.7244,370.4126,8374.275 F,2,5348,6686,1,0 R,0,18435,,3.141593 C,0,18435,,215,215,215 V,0,18435,,0.2,1.4
Sprite,Background,Centre,"sb\rain1.png",0,0 L,18457,2 F,1,0,1337,0,1 M,0,0,6686,91.53932,-552.537,91.53893,8447.463 F,2,5348,6686,1,0 R,0,18457,,3.141593 C,0,18457,,182,182,182 V,0,18457,,0.2,1.4
Sprite,Background,Centre,"sb\rain1.png",0,0 L,18480,2 F,1,0,1337,0,1 M,0,0,6686,255.9265,-384.9572,255.9261,8615.043 F,2,5348,6686,1,0 R,0,18480,,3.141593 C,0,18480,,210,210,210 V,0,18480,,0.2,1.4
Sprite,Background,Centre,"sb\rain1.png",0,0 L,18502,2 F,1,0,1337,0,1 M,0,0,6686,331.6388,-458.5749,331.6384,8541.425 F,2,5348,6686,1,0 R,0,18502,,3.141593 C,0,18502,,165,165,165 V,0,18502,,0.2,1.4
Sprite,Background,Centre,"sb\rain1.png",0,0 L,18524,2 F,1,0,1337,0,1 M,0,0,6686,25.39691,-390.1595,25.39652,8609.841 F,2,5348,6686,1,0 R,0,18524,,3.141593 C,0,18524,,136,136,136 V,0,18524,,0.2,1.4
Sprite,Background,Centre,"sb\rain1.png",0,0 L,18546,2 F,1,0,1337,0,1 M,0,0,6686,129.1511,-648.7017,129.1507,8351.299 F,2,5348,6686,1,0 R,0,18546,,3.141593 C,0,18546,,153,153,153 V,0,18546,,0.2,1.4
Sprite,Background,Centre,"sb\rain1.png",0,0 L,18569,2 F,1,0,1337,0,1 M,0,0,6686,285.1993,-276.9228,285.1989,8723.077 F,2,5348,6686,1,0 R,0,18569,,3.141593 C,0,18569,,170,170,170 V,0,18569,,0.2,1.4
Sprite,Background,Centre,"sb\rain1.png",0,0 L,18591,2 F,1,0,1337,0,1 M,0,0,6686,21.27142,-854.2001,21.27103,8145.8 F,2,5348,6686,1,0 R,0,18591,,3.141593 C,0,18591,,213,213,213 V,0,18591,,0.2,1.4
Sprite,Background,Centre,"sb\rain1.png",0,0 L,18613,2 F,1,0,1337,0,1 M,0,0,6686,265.0066,-527.8913,265.0062,8472.108 F,2,5348,6686,1,0 R,0,18613,,3.141593 C,0,18613,,230,230,230 V,0,18613,,0.2,1.4
Sprite,Background,Centre,"sb\rain1.png",0,0 L,18636,2 F,1,0,1337,0,1 M,0,0,6686,417.0638,-779.722,417.0634,8220.278 F,2,5348,6686,1,0 R,0,18636,,3.141593 C,0,18636,,215,215,215 V,0,18636,,0.2,1.4
Sprite,Background,Centre,"sb\rain1.png",0,0 L,18658,2 F,1,0,1337,0,1 M,0,0,6686,314.7231,-880.1959,314.7227,8119.804 F,2,5348,6686,1,0 R,0,18658,,3.141593 C,0,18658,,223,223,223 V,0,18658,,0.2,1.4
Sprite,Background,Centre,"sb\rain1.png",0,0 L,18680,2 F,1,0,1337,0,1 M,0,0,6686,561.5291,-407.1073,561.5287,8592.893 F,2,5348,6686,1,0 R,0,18680,,3.141593 C,0,18680,,254,254,254 V,0,18680,,0.2,1.4
Sprite,Background,Centre,"sb\rain1.png",0,0 L,18702,2 F,1,0,1337,0,1 M,0,0,6686,380.9641,-216.1902,380.9637,8783.81 F,2,5348,6686,1,0 R,0,18702,,3.141593 C,0,18702,,156,156,156 V,0,18702,,0.2,1.4
Sprite,Background,Centre,"sb\rain1.png",0,0 L,18725,2 F,1,0,1337,0,1 M,0,0,6686,239.7849,-692.3237,239.7845,8307.677 F,2,5348,6686,1,0 R,0,18725,,3.141593 C,0,18725,,247,247,247 V,0,18725,,0.2,1.4
Sprite,Background,Centre,"sb\rain1.png",0,0 L,18747,2 F,1,0,1337,0,1 M,0,0,6686,258.5066,-216.8711,258.5062,8783.129 F,2,5348,6686,1,0 R,0,18747,,3.141593 C,0,18747,,246,246,246 V,0,18747,,0.2,1.4
Sprite,Background,Centre,"sb\rain1.png",0,0 L,18769,2 F,1,0,1337,0,1 M,0,0,6686,285.475,-552.5406,285.4746,8447.459 F,2,5348,6686,1,0 R,0,18769,,3.141593 C,0,18769,,183,183,183 V,0,18769,,0.2,1.4
Sprite,Background,Centre,"sb\rain1.png",0,0 L,18792,2 F,1,0,1337,0,1 M,0,0,6686,270.3521,-330.6122,270.3517,8669.388 F,2,5348,6686,1,0 R,0,18792,,3.141593 C,0,18792,,202,202,202 V,0,18792,,0.2,1.4
Sprite,Background,Centre,"sb\rain1.png",0,0 L,18814,2 F,1,0,1337,0,1 M,0,0,6686,383.0411,-979.2206,383.0407,8020.779 F,2,5348,6686,1,0 R,0,18814,,3.141593 C,0,18814,,146,146,146 V,0,18814,,0.2,1.4
Sprite,Background,Centre,"sb\rain1.png",0,0 L,18836,2 F,1,0,1337,0,1 M,0,0,6686,441.0211,-588.5132,441.0207,8411.486 F,2,5348,6686,1,0 R,0,18836,,3.141593 C,0,18836,,187,187,187 V,0,18836,,0.2,1.4
Sprite,Background,Centre,"sb\rain1.png",0,0 L,18858,2 F,1,0,1337,0,1 M,0,0,6686,159.6532,-497.9301,159.6528,8502.07 F,2,5348,6686,1,0 R,0,18858,,3.141593 C,0,18858,,178,178,178 V,0,18858,,0.2,1.4
Sprite,Background,Centre,"sb\rain1.png",0,0 L,18881,2 F,1,0,1337,0,1 M,0,0,6686,288.4524,-941.1532,288.452,8058.847 F,2,5348,6686,1,0 R,0,18881,,3.141593 C,0,18881,,207,207,207 V,0,18881,,0.2,1.4
Sprite,Background,Centre,"sb\rain1.png",0,0 L,18903,2 F,1,0,1337,0,1 M,0,0,6686,369.0646,-733.783,369.0642,8266.217 F,2,5348,6686,1,0 R,0,18903,,3.141593 C,0,18903,,182,182,182 V,0,18903,,0.2,1.4
Sprite,Background,Centre,"sb\rain1.png",0,0 L,18925,2 F,1,0,1337,0,1 M,0,0,6686,522.2527,-479.1358,522.2523,8520.864 F,2,5348,6686,1,0 R,0,18925,,3.141593 C,0,18925,,220,220,220 V,0,18925,,0.2,1.4
Sprite,Background,Centre,"sb\rain1.png",0,0 L,18948,2 F,1,0,1337,0,1 M,0,0,6686,330.7079,-885.6895,330.7075,8114.311 F,2,5348,6686,1,0 R,0,18948,,3.141593 C,0,18948,,190,190,190 V,0,18948,,0.2,1.4
Sprite,Background,Centre,"sb\rain1.png",0,0 L,18970,2 F,1,0,1337,0,1 M,0,0,6686,250.5265,-889.4626,250.5261,8110.538 F,2,5348,6686,1,0 R,0,18970,,3.141593 C,0,18970,,246,246,246 V,0,18970,,0.2,1.4
Sprite,Background,Centre,"sb\rain1.png",0,0 L,18992,2 F,1,0,1337,0,1 M,0,0,6686,473.5723,-257.2024,473.5719,8742.798 F,2,5348,6686,1,0 R,0,18992,,3.141593 C,0,18992,,195,195,195 V,0,18992,,0.2,1.4
Sprite,Background,Centre,"sb\rain1.png",0,0 L,19014,2 F,1,0,1337,0,1 M,0,0,6686,572.8177,-349.436,572.8174,8650.564 F,2,5348,6686,1,0 R,0,19014,,3.141593 C,0,19014,,208,208,208 V,0,19014,,0.2,1.4
Sprite,Background,Centre,"sb\rain1.png",0,0 L,19037,2 F,1,0,1337,0,1 M,0,0,6686,-47.08661,-707.5919,-47.087,8292.408 F,2,5348,6686,1,0 R,0,19037,,3.141593 C,0,19037,,203,203,203 V,0,19037,,0.2,1.4
Sprite,Background,Centre,"sb\rain1.png",0,0 L,19059,2 F,1,0,1337,0,1 M,0,0,6686,146.34,-836.8574,146.3396,8163.143 F,2,5348,6686,1,0 R,0,19059,,3.141593 C,0,19059,,252,252,252 V,0,19059,,0.2,1.4
Sprite,Background,Centre,"sb\rain1.png",0,0 L,19081,2 F,1,0,1337,0,1 M,0,0,6686,185.8469,-837.2579,185.8465,8162.742 F,2,5348,6686,1,0 R,0,19081,,3.141593 C,0,19081,,226,226,226 V,0,19081,,0.2,1.4
Sprite,Background,Centre,"sb\rain1.png",0,0 L,19104,2 F,1,0,1337,0,1 M,0,0,6686,527.7751,-753.0652,527.7748,8246.935 F,2,5348,6686,1,0 R,0,19104,,3.141593 C,0,19104,,181,181,181 V,0,19104,,0.2,1.4
Sprite,Background,Centre,"sb\rain1.png",0,0 L,19126,2 F,1,0,1337,0,1 M,0,0,6686,356.8813,-519.6939,356.881,8480.306 F,2,5348,6686,1,0 R,0,19126,,3.141593 C,0,19126,,189,189,189 V,0,19126,,0.2,1.4
Sprite,Background,Centre,"sb\rain1.png",0,0 L,19148,2 F,1,0,1337,0,1 M,0,0,6686,586.4095,-737.6369,586.4092,8262.363 F,2,5348,6686,1,0 R,0,19148,,3.141593 C,0,19148,,186,186,186 V,0,19148,,0.2,1.4
Sprite,Background,Centre,"sb\rain1.png",0,0 L,19171,2 F,1,0,1337,0,1 M,0,0,6686,268.2822,-417.1009,268.2818,8582.899 F,2,5348,6686,1,0 R,0,19171,,3.141593 C,0,19171,,172,172,172 V,0,19171,,0.2,1.4
Sprite,Background,Centre,"sb\rain1.png",0,0 L,19193,2 F,1,0,1337,0,1 M,0,0,6686,396.1906,-717.7405,396.1902,8282.26 F,2,5348,6686,1,0 R,0,19193,,3.141593 C,0,19193,,212,212,212 V,0,19193,,0.2,1.4
Sprite,Background,Centre,"sb\rain1.png",0,0 L,19215,2 F,1,0,1337,0,1 M,0,0,6686,483.9662,-286.0883,483.9658,8713.912 F,2,5348,6686,1,0 R,0,19215,,3.141593 C,0,19215,,190,190,190 V,0,19215,,0.2,1.4
Sprite,Background,Centre,"sb\rain1.png",0,0 L,19237,2 F,1,0,1337,0,1 M,0,0,6686,251.5473,-943.1613,251.547,8056.839 F,2,5348,6686,1,0 R,0,19237,,3.141593 C,0,19237,,219,219,219 V,0,19237,,0.2,1.4
Sprite,Background,Centre,"sb\rain1.png",0,0 L,19260,2 F,1,0,1337,0,1 M,0,0,6686,226.0601,-948.0284,226.0597,8051.972 F,2,5348,6686,1,0 R,0,19260,,3.141593 C,0,19260,,171,171,171 V,0,19260,,0.2,1.4
Sprite,Background,Centre,"sb\rain1.png",0,0 L,19282,2 F,1,0,1337,0,1 M,0,0,6686,32.16101,-593.7935,32.16062,8406.206 F,2,5348,6686,1,0 R,0,19282,,3.141593 C,0,19282,,215,215,215 V,0,19282,,0.2,1.4
Sprite,Background,Centre,"sb\rain1.png",0,0 L,19304,2 F,1,0,1337,0,1 M,0,0,6686,429.7437,-532.9166,429.7433,8467.083 F,2,5348,6686,1,0 R,0,19304,,3.141593 C,0,19304,,226,226,226 V,0,19304,,0.2,1.4
Sprite,Background,Centre,"sb\rain1.png",0,0 L,19327,2 F,1,0,1337,0,1 M,0,0,6686,305.1244,-594.358,305.124,8405.642 F,2,5348,6686,1,0 R,0,19327,,3.141593 C,0,19327,,231,231,231 V,0,19327,,0.2,1.4
Sprite,Background,Centre,"sb\rain1.png",0,0 L,19349,2 F,1,0,1337,0,1 M,0,0,6686,350.7908,-786.6231,350.7904,8213.377 F,2,5348,6686,1,0 R,0,19349,,3.141593 C,0,19349,,183,183,183 V,0,19349,,0.2,1.4
Sprite,Background,Centre,"sb\rain1.png",0,0 L,19371,2 F,1,0,1337,0,1 M,0,0,6686,24.56564,-378.3864,24.56525,8621.613 F,2,5348,6686,1,0 R,0,19371,,3.141593 C,0,19371,,195,195,195 V,0,19371,,0.2,1.4
Sprite,Background,Centre,"sb\rain1.png",0,0 L,19393,2 F,1,0,1337,0,1 M,0,0,6686,383.9593,-500.8482,383.9589,8499.151 F,2,5348,6686,1,0 R,0,19393,,3.141593 C,0,19393,,203,203,203 V,0,19393,,0.2,1.4
Sprite,Background,Centre,"sb\rain1.png",0,0 L,19416,2 F,1,0,1337,0,1 M,0,0,6686,-70.57599,-554.8434,-70.57639,8445.156 F,2,5348,6686,1,0 R,0,19416,,3.141593 C,0,19416,,226,226,226 V,0,19416,,0.2,1.4
Sprite,Background,Centre,"sb\rain1.png",0,0 L,19438,2 F,1,0,1337,0,1 M,0,0,6686,153.3999,-264.4612,153.3995,8735.539 F,2,5348,6686,1,0 R,0,19438,,3.141593 C,0,19438,,215,215,215 V,0,19438,,0.2,1.4
Sprite,Background,Centre,"sb\rain1.png",0,0 L,19460,2 F,1,0,1337,0,1 M,0,0,6686,512.0743,-509.6298,512.0739,8490.37 F,2,5348,6686,1,0 R,0,19460,,3.141593 C,0,19460,,234,234,234 V,0,19460,,0.2,1.4
Sprite,Background,Centre,"sb\rain1.png",0,0 L,19483,2 F,1,0,1337,0,1 M,0,0,6686,288.8516,-748.4438,288.8512,8251.557 F,2,5348,6686,1,0 R,0,19483,,3.141593 C,0,19483,,237,237,237 V,0,19483,,0.2,1.4
Sprite,Background,Centre,"sb\rain1.png",0,0 L,19505,2 F,1,0,1337,0,1 M,0,0,6686,18.94803,-570.4716,18.94764,8429.528 F,2,5348,6686,1,0 R,0,19505,,3.141593 C,0,19505,,241,241,241 V,0,19505,,0.2,1.4
Sprite,Background,Centre,"sb\rain1.png",0,0 L,19527,2 F,1,0,1337,0,1 M,0,0,6686,183.8388,-773.5161,183.8384,8226.484 F,2,5348,6686,1,0 R,0,19527,,3.141593 C,0,19527,,187,187,187 V,0,19527,,0.2,1.4
Sprite,Background,Centre,"sb\rain1.png",0,0 L,19549,2 F,1,0,1337,0,1 M,0,0,6686,713.8442,-599.2293,713.8438,8400.771 F,2,5348,6686,1,0 R,0,19549,,3.141593 C,0,19549,,166,166,166 V,0,19549,,0.2,1.4
Sprite,Background,Centre,"sb\rain1.png",0,0 L,19572,2 F,1,0,1337,0,1 M,0,0,6686,89.0856,-565.0975,89.08521,8434.902 F,2,5348,6686,1,0 R,0,19572,,3.141593 C,0,19572,,209,209,209 V,0,19572,,0.2,1.4
Sprite,Background,Centre,"sb\rain1.png",0,0 L,19594,2 F,1,0,1337,0,1 M,0,0,6686,531.5441,-755.9661,531.5437,8244.034 F,2,5348,6686,1,0 R,0,19594,,3.141593 C,0,19594,,158,158,158 V,0,19594,,0.2,1.4
Sprite,Background,Centre,"sb\rain1.png",0,0 L,19616,2 F,1,0,1337,0,1 M,0,0,6686,605.502,-345.2515,605.5016,8654.748 F,2,5348,6686,1,0 R,0,19616,,3.141593 C,0,19616,,237,237,237 V,0,19616,,0.2,1.4
Sprite,Background,Centre,"sb\rain1.png",0,0 L,19639,2 F,1,0,1337,0,1 M,0,0,6686,612.1593,-572.3191,612.1589,8427.681 F,2,5348,6686,1,0 R,0,19639,,3.141593 C,0,19639,,144,144,144 V,0,19639,,0.2,1.4
Sprite,Background,Centre,"sb\rain1.png",0,0 L,19661,2 F,1,0,1337,0,1 M,0,0,6686,648.8864,-809.358,648.886,8190.642 F,2,5348,6686,1,0 R,0,19661,,3.141593 C,0,19661,,164,164,164 V,0,19661,,0.2,1.4
Sprite,Background,Centre,"sb\rain1.png",0,0 L,19683,2 F,1,0,1337,0,1 M,0,0,6686,611.3777,-564.4927,611.3773,8435.508 F,2,5348,6686,1,0 R,0,19683,,3.141593 C,0,19683,,203,203,203 V,0,19683,,0.2,1.4
Sprite,Background,Centre,"sb\rain1.png",0,0 L,19705,2 F,1,0,1337,0,1 M,0,0,6686,535.0756,-442.6423,535.0752,8557.357 F,2,5348,6686,1,0 R,0,19705,,3.141593 C,0,19705,,193,193,193 V,0,19705,,0.2,1.4
Sprite,Background,Centre,"sb\rain1.png",0,0 L,19728,2 F,1,0,1337,0,1 M,0,0,6686,72.99513,-356.7192,72.99474,8643.281 F,2,5348,6686,1,0 R,0,19728,,3.141593 C,0,19728,,249,249,249 V,0,19728,,0.2,1.4
Sprite,Background,Centre,"sb\rain1.png",0,0 L,19750,2 F,1,0,1337,0,1 M,0,0,6686,583.3171,-509.4541,583.3168,8490.546 F,2,5348,6686,1,0 R,0,19750,,3.141593 C,0,19750,,230,230,230 V,0,19750,,0.2,1.4
Sprite,Background,Centre,"sb\rain1.png",0,0 L,19772,2 F,1,0,1337,0,1 M,0,0,6686,279.6507,-904.8295,279.6503,8095.17 F,2,5348,6686,1,0 R,0,19772,,3.141593 C,0,19772,,206,206,206 V,0,19772,,0.2,1.4
Sprite,Background,Centre,"sb\rain1.png",0,0 L,19795,2 F,1,0,1337,0,1 M,0,0,6686,96.14742,-545.5743,96.14702,8454.426 F,2,5348,6686,1,0 R,0,19795,,3.141593 C,0,19795,,177,177,177 V,0,19795,,0.2,1.4
Sprite,Background,Centre,"sb\rain1.png",0,0 L,19817,2 F,1,0,1337,0,1 M,0,0,6686,106.6752,-635.3596,106.6748,8364.641 F,2,5348,6686,1,0 R,0,19817,,3.141593 C,0,19817,,208,208,208 V,0,19817,,0.2,1.4
Sprite,Background,Centre,"sb\rain1.png",0,0 L,19839,2 F,1,0,1337,0,1 M,0,0,6686,131.5551,-373.3043,131.5547,8626.695 F,2,5348,6686,1,0 R,0,19839,,3.141593 C,0,19839,,171,171,171 V,0,19839,,0.2,1.4
Sprite,Background,Centre,"sb\rain1.png",0,0 L,19861,2 F,1,0,1337,0,1 M,0,0,6686,160.939,-898.514,160.9386,8101.486 F,2,5348,6686,1,0 R,0,19861,,3.141593 C,0,19861,,187,187,187 V,0,19861,,0.2,1.4
Sprite,Background,Centre,"sb\rain1.png",0,0 L,19884,2 F,1,0,1337,0,1 M,0,0,6686,302.7235,-401.3015,302.7231,8598.698 F,2,5348,6686,1,0 R,0,19884,,3.141593 C,0,19884,,253,253,253 V,0,19884,,0.2,1.4
Sprite,Background,Centre,"sb\rain1.png",0,0 L,19906,2 F,1,0,1337,0,1 M,0,0,6686,33.28799,-454.3407,33.2876,8545.659 F,2,5348,6686,1,0 R,0,19906,,3.141593 C,0,19906,,181,181,181 V,0,19906,,0.2,1.4
Sprite,Background,Centre,"sb\rain1.png",0,0 L,19928,2 F,1,0,1337,0,1 M,0,0,6686,118.053,-502.4288,118.0526,8497.571 F,2,5348,6686,1,0 R,0,19928,,3.141593 C,0,19928,,170,170,170 V,0,19928,,0.2,1.4
Sprite,Background,Centre,"sb\rain1.png",0,0 L,19951,2 F,1,0,1337,0,1 M,0,0,6686,351.4431,-864.5405,351.4427,8135.459 F,2,5348,6686,1,0 R,0,19951,,3.141593 C,0,19951,,238,238,238 V,0,19951,,0.2,1.4
Sprite,Background,Centre,"sb\rain1.png",0,0 L,19973,2 F,1,0,1337,0,1 M,0,0,6686,613.0652,-429.2253,613.0649,8570.774 F,2,5348,6686,1,0 R,0,19973,,3.141593 C,0,19973,,211,211,211 V,0,19973,,0.2,1.4
Sprite,Background,Centre,"sb\rain1.png",0,0 L,19995,2 F,1,0,1337,0,1 M,0,0,6686,180.1857,-608.4189,180.1853,8391.581 F,2,5348,6686,1,0 R,0,19995,,3.141593 C,0,19995,,164,164,164 V,0,19995,,0.2,1.4
Sprite,Background,Centre,"sb\rain1.png",0,0 L,20017,2 F,1,0,1337,0,1 M,0,0,6686,488.4913,-585.1554,488.4909,8414.845 F,2,5348,6686,1,0 R,0,20017,,3.141593 C,0,20017,,161,161,161 V,0,20017,,0.2,1.4
Sprite,Background,Centre,"sb\rain1.png",0,0 L,20040,2 F,1,0,1337,0,1 M,0,0,6686,396.6735,-272.3135,396.6731,8727.687 F,2,5348,6686,1,0 R,0,20040,,3.141593 C,0,20040,,240,240,240 V,0,20040,,0.2,1.4
Sprite,Background,Centre,"sb\rain1.png",0,0 L,20062,2 F,1,0,1337,0,1 M,0,0,6686,569.761,-835.2348,569.7606,8164.765 F,2,5348,6686,1,0 R,0,20062,,3.141593 C,0,20062,,139,139,139 V,0,20062,,0.2,1.4
Sprite,Background,Centre,"sb\rain1.png",0,0 L,20084,2 F,1,0,1337,0,1 M,0,0,6686,658.0708,-499.5088,658.0704,8500.491 F,2,5348,6686,1,0 R,0,20084,,3.141593 C,0,20084,,193,193,193 V,0,20084,,0.2,1.4
Sprite,Background,Centre,"sb\rain1.png",0,0 L,20107,2 F,1,0,1337,0,1 M,0,0,6686,344.9859,-416.0208,344.9855,8583.979 F,2,5348,6686,1,0 R,0,20107,,3.141593 C,0,20107,,202,202,202 V,0,20107,,0.2,1.4
Sprite,Background,Centre,"sb\rain1.png",0,0 L,20129,2 F,1,0,1337,0,1 M,0,0,6686,150.2822,-648.9994,150.2818,8351.001 F,2,5348,6686,1,0 R,0,20129,,3.141593 C,0,20129,,206,206,206 V,0,20129,,0.2,1.4
Sprite,Background,Centre,"sb\rain1.png",0,0 L,20151,2 F,1,0,1337,0,1 M,0,0,6686,226.0112,-325.877,226.0108,8674.123 F,2,5348,6686,1,0 R,0,20151,,3.141593 C,0,20151,,182,182,182 V,0,20151,,0.2,1.4
Sprite,Background,Centre,"sb\rain1.png",0,0 L,20173,2 F,1,0,1337,0,1 M,0,0,6686,321.049,-223.0134,321.0486,8776.986 F,2,5348,6686,1,0 R,0,20173,,3.141593 C,0,20173,,242,242,242 V,0,20173,,0.2,1.4
Sprite,Background,Centre,"sb\rain1.png",0,0 L,20196,2 F,1,0,1337,0,1 M,0,0,6686,540.2756,-511.2289,540.2753,8488.771 F,2,5348,6686,1,0 R,0,20196,,3.141593 C,0,20196,,247,247,247 V,0,20196,,0.2,1.4
Sprite,Background,Centre,"sb\rain1.png",0,0 L,20218,2 F,1,0,1337,0,1 M,0,0,6686,194.3056,-422.9296,194.3052,8577.07 F,2,5348,6686,1,0 R,0,20218,,3.141593 C,0,20218,,207,207,207 V,0,20218,,0.2,1.4
Sprite,Background,Centre,"sb\rain1.png",0,0 L,20240,2 F,1,0,1337,0,1 M,0,0,6686,307.86,-707.6808,307.8596,8292.319 F,2,5348,6686,1,0 R,0,20240,,3.141593 C,0,20240,,242,242,242 V,0,20240,,0.2,1.4
Sprite,Background,Centre,"sb\rain1.png",0,0 L,20263,2 F,1,0,1337,0,1 M,0,0,6686,425.8966,-936.4459,425.8962,8063.554 F,2,5348,6686,1,0 R,0,20263,,3.141593 C,0,20263,,217,217,217 V,0,20263,,0.2,1.4
Sprite,Background,Centre,"sb\rain1.png",0,0 L,20285,2 F,1,0,1337,0,1 M,0,0,6686,636.6161,-563.2585,636.6158,8436.741 F,2,5348,6686,1,0 R,0,20285,,3.141593 C,0,20285,,216,216,216 V,0,20285,,0.2,1.4
Sprite,Background,Centre,"sb\rain1.png",0,0 L,20307,2 F,1,0,1337,0,1 M,0,0,6686,122.2003,-344.6912,122.1999,8655.309 F,2,5348,6686,1,0 R,0,20307,,3.141593 C,0,20307,,232,232,232 V,0,20307,,0.2,1.4
Sprite,Background,Centre,"sb\rain1.png",0,0 L,20329,2 F,1,0,1337,0,1 M,0,0,6686,507.2678,-313.9927,507.2674,8686.007 F,2,5348,6686,1,0 R,0,20329,,3.141593 C,0,20329,,183,183,183 V,0,20329,,0.2,1.4
Sprite,Background,Centre,"sb\rain1.png",0,0 L,20352,2 F,1,0,1337,0,1 M,0,0,6686,507.0437,-784.6927,507.0433,8215.308 F,2,5348,6686,1,0 R,0,20352,,3.141593 C,0,20352,,252,252,252 V,0,20352,,0.2,1.4
Sprite,Background,Centre,"sb\rain1.png",0,0 L,20374,2 F,1,0,1337,0,1 M,0,0,6686,319.9803,-484.4026,319.9799,8515.598 F,2,5348,6686,1,0 R,0,20374,,3.141593 C,0,20374,,225,225,225 V,0,20374,,0.2,1.4
Sprite,Background,Centre,"sb\rain1.png",0,0 L,20396,2 F,1,0,1337,0,1 M,0,0,6686,357.5159,-314.8591,357.5155,8685.141 F,2,5348,6686,1,0 R,0,20396,,3.141593 C,0,20396,,199,199,199 V,0,20396,,0.2,1.4
Sprite,Background,Centre,"sb\rain1.png",0,0 L,20419,2 F,1,0,1337,0,1 M,0,0,6686,50.09515,-552.0115,50.09476,8447.988 F,2,5348,6686,1,0 R,0,20419,,3.141593 C,0,20419,,238,238,238 V,0,20419,,0.2,1.4
Sprite,Background,Centre,"sb\rain1.png",0,0 L,20441,2 F,1,0,1337,0,1 M,0,0,6686,42.39127,-460.7355,42.39087,8539.265 F,2,5348,6686,1,0 R,0,20441,,3.141593 C,0,20441,,209,209,209 V,0,20441,,0.2,1.4
Sprite,Background,Centre,"sb\rain1.png",0,0 L,20463,2 F,1,0,1337,0,1 M,0,0,6686,236.5422,-838.0221,236.5418,8161.978 F,2,5348,6686,1,0 R,0,20463,,3.141593 C,0,20463,,185,185,185 V,0,20463,,0.2,1.4
Sprite,Background,Centre,"sb\rain1.png",0,0 L,20485,2 F,1,0,1337,0,1 M,0,0,6686,493.4807,-598.1484,493.4803,8401.852 F,2,5348,6686,1,0 R,0,20485,,3.141593 C,0,20485,,253,253,253 V,0,20485,,0.2,1.4
Sprite,Background,Centre,"sb\rain1.png",0,0 L,20508,2 F,1,0,1337,0,1 M,0,0,6686,126.5618,-385.1932,126.5614,8614.807 F,2,5348,6686,1,0 R,0,20508,,3.141593 C,0,20508,,192,192,192 V,0,20508,,0.2,1.4
Sprite,Background,Centre,"sb\rain1.png",0,0 L,20530,2 F,1,0,1337,0,1 M,0,0,6686,422.7879,-644.5804,422.7875,8355.42 F,2,5348,6686,1,0 R,0,20530,,3.141593 C,0,20530,,188,188,188 V,0,20530,,0.2,1.4
Sprite,Background,Centre,"sb\rain1.png",0,0 L,20552,2 F,1,0,1337,0,1 M,0,0,6686,506.6515,-902.6529,506.6511,8097.347 F,2,5348,6686,1,0 R,0,20552,,3.141593 C,0,20552,,196,196,196 V,0,20552,,0.2,1.4
Sprite,Background,Centre,"sb\rain1.png",0,0 L,20575,2 F,1,0,1337,0,1 M,0,0,6686,276.5503,-705.9078,276.5499,8294.092 F,2,5348,6686,1,0 R,0,20575,,3.141593 C,0,20575,,232,232,232 V,0,20575,,0.2,1.4
Sprite,Background,Centre,"sb\rain1.png",0,0 L,20597,2 F,1,0,1337,0,1 M,0,0,6686,265.3808,-226.7234,265.3804,8773.276 F,2,5348,6686,1,0 R,0,20597,,3.141593 C,0,20597,,181,181,181 V,0,20597,,0.2,1.4
Sprite,Background,Centre,"sb\rain1.png",0,0 L,20619,2 F,1,0,1337,0,1 M,0,0,6686,511.0905,-854.8292,511.0901,8145.171 F,2,5348,6686,1,0 R,0,20619,,3.141593 C,0,20619,,229,229,229 V,0,20619,,0.2,1.4
Sprite,Background,Centre,"sb\rain1.png",0,0 L,20641,2 F,1,0,1337,0,1 M,0,0,6686,658.8563,-510.5841,658.856,8489.416 F,2,5348,6686,1,0 R,0,20641,,3.141593 C,0,20641,,158,158,158 V,0,20641,,0.2,1.4
Sprite,Background,Centre,"sb\rain1.png",0,0 L,20664,2 F,1,0,1337,0,1 M,0,0,6686,466.33,-647.8065,466.3297,8352.193 F,2,5348,6686,1,0 R,0,20664,,3.141593 C,0,20664,,246,246,246 V,0,20664,,0.2,1.4
Sprite,Background,Centre,"sb\rain1.png",0,0 L,20686,2 F,1,0,1337,0,1 M,0,0,6686,131.2644,-331.6089,131.264,8668.391 F,2,5348,6686,1,0 R,0,20686,,3.141593 C,0,20686,,230,230,230 V,0,20686,,0.2,1.4
Sprite,Background,Centre,"sb\rain1.png",0,0 L,20708,2 F,1,0,1337,0,1 M,0,0,6686,459.3655,-693.3207,459.3651,8306.68 F,2,5348,6686,1,0 R,0,20708,,3.141593 C,0,20708,,223,223,223 V,0,20708,,0.2,1.4
Sprite,Background,Centre,"sb\rain1.png",0,0 L,20731,2 F,1,0,1337,0,1 M,0,0,6686,645.3505,-779.4052,645.3502,8220.595 F,2,5348,6686,1,0 R,0,20731,,3.141593 C,0,20731,,228,228,228 V,0,20731,,0.2,1.4
Sprite,Background,Centre,"sb\rain1.png",0,0 L,20753,2 F,1,0,1337,0,1 M,0,0,6686,-45.11026,-547.3008,-45.11065,8452.699 F,2,5348,6686,1,0 R,0,20753,,3.141593 C,0,20753,,213,213,213 V,0,20753,,0.2,1.4
Sprite,Background,Centre,"sb\rain1.png",0,0 L,20775,2 F,1,0,1337,0,1 M,0,0,6686,256.8504,-408.8589,256.85,8591.142 F,2,5348,6686,1,0 R,0,20775,,3.141593 C,0,20775,,176,176,176 V,0,20775,,0.2,1.4
Sprite,Background,Centre,"sb\rain1.png",0,0 L,20797,2 F,1,0,1337,0,1 M,0,0,6686,674.4596,-432.2916,674.4592,8567.708 F,2,5348,6686,1,0 R,0,20797,,3.141593 C,0,20797,,204,204,204 V,0,20797,,0.2,1.4
Sprite,Background,Centre,"sb\rain1.png",0,0 L,20820,2 F,1,0,1337,0,1 M,0,0,6686,-39.30746,-692.0757,-39.30786,8307.924 F,2,5348,6686,1,0 R,0,20820,,3.141593 C,0,20820,,196,196,196 V,0,20820,,0.2,1.4
Sprite,Background,Centre,"sb\rain1.png",0,0 L,20842,2 F,1,0,1337,0,1 M,0,0,6686,22.78384,-816.7426,22.78345,8183.257 F,2,5348,6686,1,0 R,0,20842,,3.141593 C,0,20842,,182,182,182 V,0,20842,,0.2,1.4
Sprite,Background,Centre,"sb\rain1.png",0,0 L,20864,2 F,1,0,1337,0,1 M,0,0,6686,212.394,-816.4813,212.3936,8183.519 F,2,5348,6686,1,0 R,0,20864,,3.141593 C,0,20864,,234,234,234 V,0,20864,,0.2,1.4
Sprite,Background,Centre,"sb\rain1.png",0,0 L,20887,2 F,1,0,1337,0,1 M,0,0,6686,435.5294,-361.0813,435.529,8638.919 F,2,5348,6686,1,0 R,0,20887,,3.141593 C,0,20887,,210,210,210 V,0,20887,,0.2,1.4
Sprite,Background,Centre,"sb\rain1.png",0,0 L,20909,2 F,1,0,1337,0,1 M,0,0,6686,516.9418,-458.3708,516.9414,8541.629 F,2,5348,6686,1,0 R,0,20909,,3.141593 C,0,20909,,211,211,211 V,0,20909,,0.2,1.4
Sprite,Background,Centre,"sb\rain1.png",0,0 L,20931,2 F,1,0,1337,0,1 M,0,0,6686,467.7732,-500.5545,467.7728,8499.445 F,2,5348,6686,1,0 R,0,20931,,3.141593 C,0,20931,,212,212,212 V,0,20931,,0.2,1.4
Sprite,Background,Centre,"sb\rain1.png",0,0 L,20953,2 F,1,0,1337,0,1 M,0,0,6686,624.2268,-709.433,624.2264,8290.567 F,2,5348,6686,1,0 R,0,20953,,3.141593 C,0,20953,,186,186,186 V,0,20953,,0.2,1.4
Sprite,Background,Centre,"sb\rain1.png",0,0 L,20976,2 F,1,0,1337,0,1 M,0,0,6686,640.6908,-473.2093,640.6904,8526.791 F,2,5348,6686,1,0 R,0,20976,,3.141593 C,0,20976,,151,151,151 V,0,20976,,0.2,1.4
Sprite,Background,Centre,"sb\rain1.png",0,0 L,20998,2 F,1,0,1337,0,1 M,0,0,6686,142.3873,-792.6692,142.3869,8207.331 F,2,5348,6686,1,0 R,0,20998,,3.141593 C,0,20998,,235,235,235 V,0,20998,,0.2,1.4
Sprite,Background,Centre,"sb\rain1.png",0,0 L,21020,2 F,1,0,1337,0,1 M,0,0,6686,658.1992,-745.0547,658.1989,8254.945 F,2,5348,6686,1,0 R,0,21020,,3.141593 C,0,21020,,149,149,149 V,0,21020,,0.2,1.4
Sprite,Background,Centre,"sb\rain1.png",0,0 L,21043,2 F,1,0,1337,0,1 M,0,0,6686,146.8387,-784.7528,146.8383,8215.247 F,2,5348,6686,1,0 R,0,21043,,3.141593 C,0,21043,,184,184,184 V,0,21043,,0.2,1.4
Sprite,Background,Centre,"sb\rain1.png",0,0 L,21065,2 F,1,0,1337,0,1 M,0,0,6686,486.9252,-286.4262,486.9248,8713.574 F,2,5348,6686,1,0 R,0,21065,,3.141593 C,0,21065,,174,174,174 V,0,21065,,0.2,1.4
Sprite,Background,Centre,"sb\rain1.png",0,0 L,21087,2 F,1,0,1337,0,1 M,0,0,6686,75.74323,-427.1647,75.74283,8572.835 F,2,5348,6686,1,0 R,0,21087,,3.141593 C,0,21087,,206,206,206 V,0,21087,,0.2,1.4
Sprite,Background,Centre,"sb\rain1.png",0,0 L,21109,2 F,1,0,1337,0,1 M,0,0,6686,479.4205,-576.5214,479.4201,8423.479 F,2,5348,6686,1,0 R,0,21109,,3.141593 C,0,21109,,229,229,229 V,0,21109,,0.2,1.4
Sprite,Background,Centre,"sb\rain1.png",0,0 L,21132,2 F,1,0,1337,0,1 M,0,0,6686,27.90201,-473.7632,27.90162,8526.237 F,2,5348,6686,1,0 R,0,21132,,3.141593 C,0,21132,,138,138,138 V,0,21132,,0.2,1.4
Sprite,Background,Centre,"sb\rain1.png",0,0 L,21154,2 F,1,0,1337,0,1 M,0,0,6686,196.5449,-824.7428,196.5445,8175.257 F,2,5348,6686,1,0 R,0,21154,,3.141593 C,0,21154,,215,215,215 V,0,21154,,0.2,1.4
Sprite,Background,Centre,"sb\rain1.png",0,0 L,21176,2 F,1,0,1337,0,1 M,0,0,6686,323.7388,-316.2906,323.7384,8683.709 F,2,5348,6686,1,0 R,0,21176,,3.141593 C,0,21176,,141,141,141 V,0,21176,,0.2,1.4
Sprite,Background,Centre,"sb\rain1.png",0,0 L,21199,2 F,1,0,1337,0,1 M,0,0,6686,182.8217,-639.2042,182.8213,8360.796 F,2,5348,6686,1,0 R,0,21199,,3.141593 C,0,21199,,250,250,250 V,0,21199,,0.2,1.4
Sprite,Background,Centre,"sb\rain1.png",0,0 L,21221,2 F,1,0,1337,0,1 M,0,0,6686,289.5485,-372.9549,289.5481,8627.045 F,2,5348,6686,1,0 R,0,21221,,3.141593 C,0,21221,,224,224,224 V,0,21221,,0.2,1.4
Sprite,Background,Centre,"sb\rain1.png",0,0 L,21243,2 F,1,0,1337,0,1 M,0,0,6686,673.7361,-428.4007,673.7357,8571.6 F,2,5348,6686,1,0 R,0,21243,,3.141593 C,0,21243,,236,236,236 V,0,21243,,0.2,1.4
Sprite,Background,Centre,"sb\rain1.png",0,0 L,21265,2 F,1,0,1337,0,1 M,0,0,6686,360.9025,-878.285,360.9021,8121.715 F,2,5348,6686,1,0 R,0,21265,,3.141593 C,0,21265,,227,227,227 V,0,21265,,0.2,1.4
Sprite,Background,Centre,"sb\rain1.png",0,0 L,21288,2 F,1,0,1337,0,1 M,0,0,6686,652.9941,-605.6569,652.9938,8394.343 F,2,5348,6686,1,0 R,0,21288,,3.141593 C,0,21288,,216,216,216 V,0,21288,,0.2,1.4
Sprite,Background,Centre,"sb\rain1.png",0,0 L,21310,2 F,1,0,1337,0,1 M,0,0,6686,339.8727,-881.8145,339.8723,8118.186 F,2,5348,6686,1,0 R,0,21310,,3.141593 C,0,21310,,173,173,173 V,0,21310,,0.2,1.4
Sprite,Background,Centre,"sb\rain1.png",0,0 L,21332,2 F,1,0,1337,0,1 M,0,0,6686,467.4811,-708.8097,467.4807,8291.19 F,2,5348,6686,1,0 R,0,21332,,3.141593 C,0,21332,,244,244,244 V,0,21332,,0.2,1.4
Sprite,Background,Centre,"sb\rain1.png",0,0 L,21355,2 F,1,0,1337,0,1 M,0,0,6686,517.7635,-751.3135,517.7632,8248.687 F,2,5348,6686,1,0 R,0,21355,,3.141593 C,0,21355,,200,200,200 V,0,21355,,0.2,1.4
Sprite,Background,Centre,"sb\rain1.png",0,0 L,21377,2 F,1,0,1337,0,1 M,0,0,6686,589.9262,-384.8708,589.9258,8615.129 F,2,5348,6686,1,0 R,0,21377,,3.141593 C,0,21377,,249,249,249 V,0,21377,,0.2,1.4
Sprite,Background,Centre,"sb\rain1.png",0,0 L,21399,2 F,1,0,1337,0,1 M,0,0,6686,229.4134,-904.3361,229.413,8095.664 F,2,5348,6686,1,0 R,0,21399,,3.141593 C,0,21399,,246,246,246 V,0,21399,,0.2,1.4
Sprite,Background,Centre,"sb\rain1.png",0,0 L,21421,2 F,1,0,1337,0,1 M,0,0,6686,325.7914,-868.6544,325.791,8131.346 F,2,5348,6686,1,0 R,0,21421,,3.141593 C,0,21421,,172,172,172 V,0,21421,,0.2,1.4
Sprite,Background,Centre,"sb\rain1.png",0,0 L,21444,2 F,1,0,1337,0,1 M,0,0,6686,486.9404,-826.5488,486.94,8173.451 F,2,5348,6686,1,0 R,0,21444,,3.141593 C,0,21444,,186,186,186 V,0,21444,,0.2,1.4
Sprite,Background,Centre,"sb\rain1.png",0,0 L,21466,2 F,1,0,1337,0,1 M,0,0,6686,369.8889,-952.446,369.8885,8047.554 F,2,5348,6686,1,0 R,0,21466,,3.141593 C,0,21466,,235,235,235 V,0,21466,,0.2,1.4
Sprite,Background,Centre,"sb\rain1.png",0,0 L,21488,2 F,1,0,1337,0,1 M,0,0,6686,472.508,-779.8296,472.5076,8220.17 F,2,5348,6686,1,0 R,0,21488,,3.141593 C,0,21488,,245,245,245 V,0,21488,,0.2,1.4
Sprite,Background,Centre,"sb\rain1.png",0,0 L,21511,2 F,1,0,1337,0,1 M,0,0,6686,29.00235,-345.6772,29.00196,8654.323 F,2,5348,6686,1,0 R,0,21511,,3.141593 C,0,21511,,208,208,208 V,0,21511,,0.2,1.4
Sprite,Background,Centre,"sb\rain1.png",0,0 L,21533,2 F,1,0,1337,0,1 M,0,0,6686,315.182,-312.5076,315.1816,8687.492 F,2,5348,6686,1,0 R,0,21533,,3.141593 C,0,21533,,244,244,244 V,0,21533,,0.2,1.4
Sprite,Background,Centre,"sb\rain1.png",0,0 L,21555,2 F,1,0,1337,0,1 M,0,0,6686,524.5238,-379.3331,524.5234,8620.667 F,2,5348,6686,1,0 R,0,21555,,3.141593 C,0,21555,,191,191,191 V,0,21555,,0.2,1.4
Sprite,Background,Centre,"sb\rain1.png",0,0 L,21577,2 F,1,0,1337,0,1 M,0,0,6686,248.6394,-575.5829,248.639,8424.417 F,2,5348,6686,1,0 R,0,21577,,3.141593 C,0,21577,,174,174,174 V,0,21577,,0.2,1.4
Sprite,Background,Centre,"sb\rain1.png",0,0 L,21600,2 F,1,0,1337,0,1 M,0,0,6686,259.2545,-556.5013,259.2541,8443.499 F,2,5348,6686,1,0 R,0,21600,,3.141593 C,0,21600,,227,227,227 V,0,21600,,0.2,1.4
Sprite,Background,Centre,"sb\rain1.png",0,0 L,21622,2 F,1,0,1337,0,1 M,0,0,6686,267.1748,-478.2998,267.1744,8521.7 F,2,5348,6686,1,0 R,0,21622,,3.141593 C,0,21622,,167,167,167 V,0,21622,,0.2,1.4
Sprite,Background,Centre,"sb\rain1.png",0,0 L,21644,2 F,1,0,1337,0,1 M,0,0,6686,297.5639,-571.6216,297.5635,8428.379 F,2,5348,6686,1,0 R,0,21644,,3.141593 C,0,21644,,213,213,213 V,0,21644,,0.2,1.4
Sprite,Background,Centre,"sb\rain1.png",0,0 L,21667,2 F,1,0,1337,0,1 M,0,0,6686,367.7472,-701.5805,367.7468,8298.42 F,2,5348,6686,1,0 R,0,21667,,3.141593 C,0,21667,,230,230,230 V,0,21667,,0.2,1.4
Sprite,Background,Centre,"sb\rain1.png",0,0 L,21689,2 F,1,0,1337,0,1 M,0,0,6686,272.1744,-518.3753,272.174,8481.625 F,2,5348,6686,1,0 R,0,21689,,3.141593 C,0,21689,,170,170,170 V,0,21689,,0.2,1.4
Sprite,Background,Centre,"sb\rain1.png",0,0 L,21711,2 F,1,0,1337,0,1 M,0,0,6686,382.1855,-377.6066,382.1852,8622.394 F,2,5348,6686,1,0 R,0,21711,,3.141593 C,0,21711,,201,201,201 V,0,21711,,0.2,1.4
Sprite,Background,Centre,"sb\rain1.png",0,0 L,21733,2 F,1,0,1337,0,1 M,0,0,6686,494.7012,-935.5825,494.7008,8064.417 F,2,5348,6686,1,0 R,0,21733,,3.141593 C,0,21733,,206,206,206 V,0,21733,,0.2,1.4
Sprite,Background,Centre,"sb\rain1.png",0,0 L,21756,2 F,1,0,1337,0,1 M,0,0,6686,141.3569,-356.6976,141.3566,8643.303 F,2,5348,6686,1,0 R,0,21756,,3.141593 C,0,21756,,165,165,165 V,0,21756,,0.2,1.4
Sprite,Background,Centre,"sb\rain1.png",0,0 L,21778,2 F,1,0,1337,0,1 M,0,0,6686,543.0393,-321.0344,543.0389,8678.966 F,2,5348,6686,1,0 R,0,21778,,3.141593 C,0,21778,,210,210,210 V,0,21778,,0.2,1.4
Sprite,Background,Centre,"sb\rain1.png",0,0 L,21800,2 F,1,0,1337,0,1 M,0,0,6686,414.7595,-507.7548,414.7591,8492.245 F,2,5348,6686,1,0 R,0,21800,,3.141593 C,0,21800,,197,197,197 V,0,21800,,0.2,1.4
Sprite,Background,Centre,"sb\rain1.png",0,0 L,21823,2 F,1,0,1337,0,1 M,0,0,6686,119.2371,-382.9262,119.2367,8617.074 F,2,5348,6686,1,0 R,0,21823,,3.141593 C,0,21823,,226,226,226 V,0,21823,,0.2,1.4
Sprite,Background,Centre,"sb\rain1.png",0,0 L,21845,2 F,1,0,1337,0,1 M,0,0,6686,227.1387,-463.6509,227.1383,8536.349 F,2,5348,6686,1,0 R,0,21845,,3.141593 C,0,21845,,208,208,208 V,0,21845,,0.2,1.4
Sprite,Background,Centre,"sb\rain1.png",0,0 L,21867,2 F,1,0,1337,0,1 M,0,0,6686,683.525,-641.5438,683.5246,8358.456 F,2,5348,6686,1,0 R,0,21867,,3.141593 C,0,21867,,196,196,196 V,0,21867,,0.2,1.4
Sprite,Background,Centre,"sb\rain1.png",0,0 L,21889,2 F,1,0,1337,0,1 M,0,0,6686,38.448,-531.2285,38.44761,8468.771 F,2,5348,6686,1,0 R,0,21889,,3.141593 C,0,21889,,164,164,164 V,0,21889,,0.2,1.4
Sprite,Background,Centre,"sb\rain1.png",0,0 L,21912,2 F,1,0,1337,0,1 M,0,0,6686,319.4646,-429.04,319.4642,8570.96 F,2,5348,6686,1,0 R,0,21912,,3.141593 C,0,21912,,220,220,220 V,0,21912,,0.2,1.4
Sprite,Background,Centre,"sb\rain1.png",0,0 L,21934,2 F,1,0,1337,0,1 M,0,0,6686,284.3503,-608.4523,284.3499,8391.548 F,2,5348,6686,1,0 R,0,21934,,3.141593 C,0,21934,,249,249,249 V,0,21934,,0.2,1.4
Sprite,Background,Centre,"sb\rain1.png",0,0 L,21956,2 F,1,0,1337,0,1 M,0,0,6686,390.5294,-550.562,390.5291,8449.438 F,2,5348,6686,1,0 R,0,21956,,3.141593 C,0,21956,,253,253,253 V,0,21956,,0.2,1.4
Sprite,Background,Centre,"sb\rain1.png",0,0 L,21979,2 F,1,0,1337,0,1 M,0,0,6686,305.8272,-525.6393,305.8268,8474.36 F,2,5348,6686,1,0 R,0,21979,,3.141593 C,0,21979,,161,161,161 V,0,21979,,0.2,1.4
Sprite,Background,Centre,"sb\rain1.png",0,0 L,22001,2 F,1,0,1337,0,1 M,0,0,6686,440.7345,-340.4271,440.7341,8659.573 F,2,5348,6686,1,0 R,0,22001,,3.141593 C,0,22001,,184,184,184 V,0,22001,,0.2,1.4
Sprite,Background,Centre,"sb\rain1.png",0,0 L,22023,2 F,1,0,1337,0,1 M,0,0,6686,256.2265,-426.0621,256.2261,8573.938 F,2,5348,6686,1,0 R,0,22023,,3.141593 C,0,22023,,176,176,176 V,0,22023,,0.2,1.4
Sprite,Background,Centre,"sb\rain1.png",0,0 L,22045,2 F,1,0,1337,0,1 M,0,0,6686,216.5208,-673.0705,216.5204,8326.93 F,2,5348,6686,1,0 R,0,22045,,3.141593 C,0,22045,,173,173,173 V,0,22045,,0.2,1.4
Sprite,Background,Centre,"sb\rain1.png",0,0 L,22068,2 F,1,0,1337,0,1 M,0,0,6686,344.6605,-541.8967,344.6601,8458.104 F,2,5348,6686,1,0 R,0,22068,,3.141593 C,0,22068,,161,161,161 V,0,22068,,0.2,1.4
Sprite,Background,Centre,"sb\rain1.png",0,0 L,22090,2 F,1,0,1337,0,1 M,0,0,6686,143.8871,-309.6238,143.8867,8690.376 F,2,5348,6686,1,0 R,0,22090,,3.141593 C,0,22090,,197,197,197 V,0,22090,,0.2,1.4
Sprite,Background,Centre,"sb\rain1.png",0,0 L,22112,2 F,1,0,1337,0,1 M,0,0,6686,557.7371,-701.9491,557.7367,8298.051 F,2,5348,6686,1,0 R,0,22112,,3.141593 C,0,22112,,252,252,252 V,0,22112,,0.2,1.4
Sprite,Background,Centre,"sb\rain1.png",0,0 L,22135,2 F,1,0,1337,0,1 M,0,0,6686,90.09451,-484.7737,90.09412,8515.227 F,2,5348,6686,1,0 R,0,22135,,3.141593 C,0,22135,,252,252,252 V,0,22135,,0.2,1.4
Sprite,Background,Centre,"sb\rain1.png",0,0 L,22157,2 F,1,0,1337,0,1 M,0,0,6686,295.5308,-931.6891,295.5304,8068.311 F,2,5348,6686,1,0 R,0,22157,,3.141593 C,0,22157,,200,200,200 V,0,22157,,0.2,1.4
Sprite,Background,Centre,"sb\rain1.png",0,0 L,22179,2 F,1,0,1337,0,1 M,0,0,6686,144.0994,-241.1786,144.099,8758.821 F,2,5348,6686,1,0 R,0,22179,,3.141593 C,0,22179,,184,184,184 V,0,22179,,0.2,1.4
Sprite,Background,Centre,"sb\rain1.png",0,0 L,22201,2 F,1,0,1337,0,1 M,0,0,6686,581.1921,-604.9127,581.1918,8395.087 F,2,5348,6686,1,0 R,0,22201,,3.141593 C,0,22201,,236,236,236 V,0,22201,,0.2,1.4
Sprite,Background,Centre,"sb\rain1.png",0,0 L,22224,2 F,1,0,1337,0,1 M,0,0,6686,310.8533,-313.1844,310.8529,8686.815 F,2,5348,6686,1,0 R,0,22224,,3.141593 C,0,22224,,236,236,236 V,0,22224,,0.2,1.4
Sprite,Background,Centre,"sb\rain1.png",0,0 L,22246,2 F,1,0,1337,0,1 M,0,0,6686,134.9342,-552.3243,134.9338,8447.676 F,2,5348,6686,1,0 R,0,22246,,3.141593 C,0,22246,,203,203,203 V,0,22246,,0.2,1.4
Sprite,Background,Centre,"sb\rain1.png",0,0 L,22268,2 F,1,0,1337,0,1 M,0,0,6686,477.5951,-734.2092,477.5947,8265.791 F,2,5348,6686,1,0 R,0,22268,,3.141593 C,0,22268,,224,224,224 V,0,22268,,0.2,1.4
Sprite,Background,Centre,"sb\rain1.png",0,0 L,22291,2 F,1,0,1337,0,1 M,0,0,6686,466.9602,-263.1945,466.9598,8736.806 F,2,5348,6686,1,0 R,0,22291,,3.141593 C,0,22291,,201,201,201 V,0,22291,,0.2,1.4
Sprite,Background,Centre,"sb\rain1.png",0,0 L,22313,2 F,1,0,1337,0,1 M,0,0,6686,-71.70218,-587.1113,-71.70258,8412.889 F,2,5348,6686,1,0 R,0,22313,,3.141593 C,0,22313,,239,239,239 V,0,22313,,0.2,1.4
Sprite,Background,Centre,"sb\rain1.png",0,0 L,22335,2 F,1,0,1337,0,1 M,0,0,6686,179.4937,-374.4923,179.4933,8625.508 F,2,5348,6686,1,0 R,0,22335,,3.141593 C,0,22335,,207,207,207 V,0,22335,,0.2,1.4
Sprite,Background,Centre,"sb\rain1.png",0,0 L,22357,2 F,1,0,1337,0,1 M,0,0,6686,-13.80969,-618.8765,-13.81009,8381.123 F,2,5348,6686,1,0 R,0,22357,,3.141593 C,0,22357,,229,229,229 V,0,22357,,0.2,1.4
Sprite,Background,Centre,"sb\rain1.png",0,0 L,22380,2 F,1,0,1337,0,1 M,0,0,6686,394.7967,-646.5568,394.7963,8353.443 F,2,5348,6686,1,0 R,0,22380,,3.141593 C,0,22380,,202,202,202 V,0,22380,,0.2,1.4
Sprite,Background,Centre,"sb\rain1.png",0,0 L,22402,2 F,1,0,1337,0,1 M,0,0,6686,-3.307068,-620.3727,-3.307461,8379.627 F,2,5348,6686,1,0 R,0,22402,,3.141593 C,0,22402,,192,192,192 V,0,22402,,0.2,1.4
Sprite,Background,Centre,"sb\rain1.png",0,0 L,22424,2 F,1,0,1337,0,1 M,0,0,6686,394.9244,-573.164,394.924,8426.836 F,2,5348,6686,1,0 R,0,22424,,3.141593 C,0,22424,,189,189,189 V,0,22424,,0.2,1.4
Sprite,Background,Centre,"sb\rain1.png",0,0 L,22447,2 F,1,0,1337,0,1 M,0,0,6686,448.3315,-416.0883,448.3311,8583.912 F,2,5348,6686,1,0 R,0,22447,,3.141593 C,0,22447,,173,173,173 V,0,22447,,0.2,1.4
Sprite,Background,Centre,"sb\rain1.png",0,0 L,22469,2 F,1,0,1337,0,1 M,0,0,6686,293.398,-508.6373,293.3976,8491.362 F,2,5348,6686,1,0 R,0,22469,,3.141593 C,0,22469,,197,197,197 V,0,22469,,0.2,1.4
Sprite,Background,Centre,"sb\rain1.png",0,0 L,22491,2 F,1,0,1337,0,1 M,0,0,6686,639.2565,-562.4199,639.2561,8437.58 F,2,5348,6686,1,0 R,0,22491,,3.141593 C,0,22491,,237,237,237 V,0,22491,,0.2,1.4
Sprite,Background,Centre,"sb\particle2.png",0,0 L,29648,4 F,1,0,846,0,1 M,0,0,4230,130.4256,35.11683,126.7259,275.0883 F,2,3384,4230,1,0 S,0,29648,,0.05 R,0,29648,,1.586212 C,0,29648,,253,208,117
Sprite,Background,Centre,"sb\particle2.png",0,0 L,29719,4 F,1,0,846,0,1 M,0,0,4230,507.1886,70.57877,520.2571,310.2227 F,2,3384,4230,1,0 S,0,29719,,0.05 R,0,29719,,1.516317 C,0,29719,,249,220,160
Sprite,Background,Centre,"sb\particle2.png",0,0 L,29789,4 F,1,0,846,0,1 M,0,0,4230,-89.16296,175.4745,-59.72932,413.6628 F,2,3384,4230,1,0 S,0,29789,,0.05 R,0,29789,,1.447847 C,0,29789,,254,246,229
Sprite,Background,Centre,"sb\particle2.png",0,0 L,29860,4 F,1,0,846,0,1 M,0,0,4230,200.8945,-101.2779,181.0054,137.8966 F,2,3384,4230,1,0 S,0,29860,,0.05 R,0,29860,,1.653763 C,0,29860,,254,246,228
Sprite,Background,Centre,"sb\particle2.png",0,0 L,29930,4 F,1,0,846,0,1 M,0,0,4230,627.6436,168.1206,625.9921,408.1149 F,2,3384,4230,1,0 S,0,29930,,0.05 R,0,29930,,1.577677 C,0,29930,,254,225,166
Sprite,Background,Centre,"sb\particle2.png",0,0 L,30001,4 F,1,0,846,0,1 M,0,0,4230,190.9737,66.97179,210.6103,306.1671 F,2,3384,4230,1,0 S,0,30001,,0.05 R,0,30001,,1.488886 C,0,30001,,245,196,95
Sprite,Background,Centre,"sb\particle2.png",0,0 L,30071,4 F,1,0,846,0,1 M,0,0,4230,619.8433,76.93734,603.3339,316.3688 F,2,3384,4230,1,0 S,0,30071,,0.05 R,0,30071,,1.63964 C,0,30071,,240,200,118
Sprite,Background,Centre,"sb\particle2.png",0,0 L,30142,4 F,1,0,846,0,1 M,0,0,4230,83.79573,426.2645,83.47348,666.2643 F,2,3384,4230,1,0 S,0,30142,,0.05 R,0,30142,,1.572139 C,0,30142,,249,185,56
Sprite,Background,Centre,"sb\particle2.png",0,0 L,30212,4 F,1,0,846,0,1 M,0,0,4230,244.0675,476.8385,225.5652,716.1243 F,2,3384,4230,1,0 S,0,30212,,0.05 R,0,30212,,1.647966 C,0,30212,,246,207,128
Sprite,Background,Centre,"sb\particle2.png",0,0 L,30283,4 F,1,0,846,0,1 M,0,0,4230,413.6221,250.0013,419.2718,489.9348 F,2,3384,4230,1,0 S,0,30283,,0.05 R,0,30283,,1.547254 C,0,30283,,252,220,155
Sprite,Background,Centre,"sb\particle2.png",0,0 L,30353,4 F,1,0,846,0,1 M,0,0,4230,123.9084,113.3378,100.1847,352.1624 F,2,3384,4230,1,0 S,0,30353,,0.05 R,0,30353,,1.669807 C,0,30353,,253,228,177
Sprite,Background,Centre,"sb\particle2.png",0,0 L,30424,4 F,1,0,846,0,1 M,0,0,4230,507.3582,-156.4418,499.514,83.42996 F,2,3384,4230,1,0 S,0,30424,,0.05 R,0,30424,,1.603486 C,0,30424,,251,238,212
Sprite,Background,Centre,"sb\particle2.png",0,0 L,30494,4 F,1,0,846,0,1 M,0,0,4230,393.6483,28.70644,372.4026,267.7642 F,2,3384,4230,1,0 S,0,30494,,0.05 R,0,30494,,1.659436 C,0,30494,,246,219,165
Sprite,Background,Centre,"sb\particle2.png",0,0 L,30565,4 F,1,0,846,0,1 M,0,0,4230,386.9154,-65.87866,355.5909,172.0683 F,2,3384,4230,1,0 S,0,30565,,0.05 R,0,30565,,1.701689 C,0,30565,,250,221,164
Sprite,Background,Centre,"sb\particle2.png",0,0 L,30706,4 F,1,0,846,0,1 M,0,0,4230,255.5923,-236.1251,279.0834,2.722534 F,2,3384,4230,1,0 S,0,30706,,0.05 R,0,30706,,1.47276 C,0,30706,,253,191,66
Sprite,Background,Centre,"sb\particle2.png",0,0 L,30776,4 F,1,0,846,0,1 M,0,0,4230,8.961945,142.7092,19.92228,382.4589 F,2,3384,4230,1,0 S,0,30776,,0.05 R,0,30776,,1.525112 C,0,30776,,250,209,125
Sprite,Background,Centre,"sb\particle2.png",0,0 L,30847,4 F,1,0,846,0,1 M,0,0,4230,480.2317,-211.4308,461.8005,27.86043 F,2,3384,4230,1,0 S,0,30847,,0.05 R,0,30847,,1.647669 C,0,30847,,254,242,218
Sprite,Background,Centre,"sb\particle2.png",0,0 L,30917,4 F,1,0,846,0,1 M,0,0,4230,219.317,377.7335,209.0539,617.514 F,2,3384,4230,1,0 S,0,30917,,0.05 R,0,30917,,1.613572 C,0,30917,,243,194,95
Sprite,Background,Centre,"sb\particle2.png",0,0 L,30988,4 F,1,0,846,0,1 M,0,0,4230,380.993,-70.42009,400.6454,168.7739 F,2,3384,4230,1,0 S,0,30988,,0.05 R,0,30988,,1.488819 C,0,30988,,245,218,162
Sprite,Background,Centre,"sb\particle2.png",0,0 L,31058,4 F,1,0,846,0,1 M,0,0,4230,188.7582,-197.4699,161.945,41.0276 F,2,3384,4230,1,0 S,0,31058,,0.05 R,0,31058,,1.682752 C,0,31058,,251,240,218
Sprite,Background,Centre,"sb\particle2.png",0,0 L,31129,4 F,1,0,846,0,1 M,0,0,4230,646.8268,254.0386,635.6151,493.7766 F,2,3384,4230,1,0 S,0,31129,,0.05 R,0,31129,,1.617529 C,0,31129,,237,183,74
Sprite,Background,Centre,"sb\particle2.png",0,0 L,31199,4 F,1,0,846,0,1 M,0,0,4230,544.4343,294.5022,516.0355,532.8161 F,2,3384,4230,1,0 S,0,31199,,0.05 R,0,31199,,1.689403 C,0,31199,,244,185,66
Sprite,Background,Centre,"sb\particle2.png",0,0 L,31270,4 F,1,0,846,0,1 M,0,0,4230,167.3475,-171.2585,184.586,68.12157 F,2,3384,4230,1,0 S,0,31270,,0.05 R,0,31270,,1.498907 C,0,31270,,246,176,35
Sprite,Background,Centre,"sb\particle2.png",0,0 L,31340,4 F,1,0,846,0,1 M,0,0,4230,63.18971,382.84,90.63057,621.2661 F,2,3384,4230,1,0 S,0,31340,,0.05 R,0,31340,,1.456209 C,0,31340,,248,224,175
Sprite,Background,Centre,"sb\particle2.png",0,0 L,31411,4 F,1,0,846,0,1 M,0,0,4230,684.3623,-2.350456,691.4527,237.5448 F,2,3384,4230,1,0 S,0,31411,,0.05 R,0,31411,,1.541249 C,0,31411,,246,195,91
Sprite,Background,Centre,"sb\particle2.png",0,0 L,31481,4 F,1,0,846,0,1 M,0,0,4230,8.611053,87.95323,36.3827,326.341 F,2,3384,4230,1,0 S,0,31481,,0.05 R,0,31481,,1.454821 C,0,31481,,245,209,136
Sprite,Background,Centre,"sb\particle2.png",0,0 L,31552,4 F,1,0,846,0,1 M,0,0,4230,478.3514,-157.4802,503.1783,81.23227 F,2,3384,4230,1,0 S,0,31552,,0.05 R,0,31552,,1.467165 C,0,31552,,251,205,111
Sprite,Background,Centre,"sb\particle2.png",0,0 L,31622,4 F,1,0,846,0,1 M,0,0,4230,432.1287,41.23146,419.5899,280.9037 F,2,3384,4230,1,0 S,0,31622,,0.05 R,0,31622,,1.623065 C,0,31622,,252,234,197
Sprite,Background,Centre,"sb\particle2.png",0,0 L,31693,4 F,1,0,846,0,1 M,0,0,4230,180.3114,-177.1885,200.8469,61.93137 F,2,3384,4230,1,0 S,0,31693,,0.05 R,0,31693,,1.485127 C,0,31693,,246,217,158
Sprite,Background,Centre,"sb\particle2.png",0,0 L,31834,4 F,1,0,846,0,1 M,0,0,4230,489.2995,179.7188,467.8047,418.7543 F,2,3384,4230,1,0 S,0,31834,,0.05 R,0,31834,,1.660478 C,0,31834,,250,221,161
Sprite,Background,Centre,"sb\particle2.png",0,0 L,31904,4 F,1,0,846,0,1 M,0,0,4230,-91.89896,59.55778,-65.41963,298.0926 F,2,3384,4230,1,0 S,0,31904,,0.05 R,0,31904,,1.460241 C,0,31904,,245,186,67
Sprite,Background,Centre,"sb\particle2.png",0,0 L,31975,4 F,1,0,846,0,1 M,0,0,4230,424.8419,-195.3268,420.1051,44.62648 F,2,3384,4230,1,0 S,0,31975,,0.05 R,0,31975,,1.590534 C,0,31975,,250,223,167
Sprite,Background,Centre,"sb\particle2.png",0,0 L,32045,4 F,1,0,846,0,1 M,0,0,4230,519.5583,92.47374,546.8653,330.9152 F,2,3384,4230,1,0 S,0,32045,,0.05 R,0,32045,,1.456771 C,0,32045,,248,209,131
Sprite,Background,Centre,"sb\particle2.png",0,0 L,32116,4 F,1,0,846,0,1 M,0,0,4230,322.5046,204.7085,339.44,444.1103 F,2,3384,4230,1,0 S,0,32116,,0.05 R,0,32116,,1.500174 C,0,32116,,243,205,128
Sprite,Background,Centre,"sb\particle2.png",0,0 L,32186,4 F,1,0,846,0,1 M,0,0,4230,246.2863,117.0508,253.2698,356.9492 F,2,3384,4230,1,0 S,0,32186,,0.05 R,0,32186,,1.541694 C,0,32186,,251,191,70
Sprite,Background,Centre,"sb\particle2.png",0,0 L,32257,4 F,1,0,846,0,1 M,0,0,4230,358.9083,64.47343,358.3138,304.4727 F,2,3384,4230,1,0 S,0,32257,,0.05 R,0,32257,,1.573273 C,0,32257,,254,246,228
Sprite,Background,Centre,"sb\particle2.png",0,0 L,32327,4 F,1,0,846,0,1 M,0,0,4230,621.5472,134.2112,635.4673,373.8071 F,2,3384,4230,1,0 S,0,32327,,0.05 R,0,32327,,1.512763 C,0,32327,,254,218,146
Sprite,Background,Centre,"sb\particle2.png",0,0 L,32398,4 F,1,0,846,0,1 M,0,0,4230,331.6667,-125.5303,336.6661,114.4176 F,2,3384,4230,1,0 S,0,32398,,0.05 R,0,32398,,1.549964 C,0,32398,,254,239,206
Sprite,Background,Centre,"sb\particle2.png",0,0 L,32468,4 F,1,0,846,0,1 M,0,0,4230,499.1343,65.74457,522.2042,304.6332 F,2,3384,4230,1,0 S,0,32468,,0.05 R,0,32468,,1.474523 C,0,32468,,253,190,64
Sprite,Background,Centre,"sb\particle2.png",0,0 L,32539,4 F,1,0,846,0,1 M,0,0,4230,518.8304,-98.13734,500.9371,141.1947 F,2,3384,4230,1,0 S,0,32539,,0.05 R,0,32539,,1.645421 C,0,32539,,247,200,105
Sprite,Background,Centre,"sb\particle2.png",0,0 L,32609,4 F,1,0,846,0,1 M,0,0,4230,373.0515,96.20853,361.0099,335.9063 F,2,3384,4230,1,0 S,0,32609,,0.05 R,0,32609,,1.620991 C,0,32609,,238,186,82
Sprite,Background,Centre,"sb\particle2.png",0,0 L,32680,4 F,1,0,846,0,1 M,0,0,4230,-4.896332,106.6739,10.06902,346.2068 F,2,3384,4230,1,0 S,0,32680,,0.05 R,0,32680,,1.5084 C,0,32680,,242,191,87
Sprite,Background,Centre,"sb\particle2.png",0,0 L,32750,4 F,1,0,846,0,1 M,0,0,4230,331.0017,-42.57802,323.9339,197.3179 F,2,3384,4230,1,0 S,0,32750,,0.05 R,0,32750,,1.60025 C,0,32750,,250,222,163
Sprite,Background,Centre,"sb\particle2.png",0,0 L,32821,4 F,1,0,846,0,1 M,0,0,4230,266.9436,151.3525,292.2001,390.0198 F,2,3384,4230,1,0 S,0,32821,,0.05 R,0,32821,,1.465366 C,0,32821,,253,226,172
Sprite,Background,Centre,"sb\particle2.png",0,0 L,32891,4 F,1,0,846,0,1 M,0,0,4230,551.4675,-102.4015,566.8315,137.1062 F,2,3384,4230,1,0 S,0,32891,,0.05 R,0,32891,,1.506736 C,0,32891,,245,207,132
Sprite,Background,Centre,"sb\particle2.png",0,0 L,32962,4 F,1,0,846,0,1 M,0,0,4230,425.6345,455.2879,426.1632,695.2874 F,2,3384,4230,1,0 S,0,32962,,0.05 R,0,32962,,1.568593 C,0,32962,,249,198,97
Sprite,Background,Centre,"sb\particle2.png",0,0 L,33032,4 F,1,0,846,0,1 M,0,0,4230,165.5303,245.062,134.4893,483.0461 F,2,3384,4230,1,0 S,0,33032,,0.05 R,0,33032,,1.700497 C,0,33032,,246,176,35
Sprite,Background,Centre,"sb\particle2.png",0,0 L,33103,4 F,1,0,846,0,1 M,0,0,4230,690.1589,59.22438,711.6722,298.2582 F,2,3384,4230,1,0 S,0,33103,,0.05 R,0,33103,,1.481037 C,0,33103,,250,183,49
Sprite,Background,Centre,"sb\particle2.png",0,0 L,33173,4 F,1,0,846,0,1 M,0,0,4230,336.2796,193.189,360.7376,431.9395 F,2,3384,4230,1,0 S,0,33173,,0.05 R,0,33173,,1.468711 C,0,33173,,249,184,52
Sprite,Background,Centre,"sb\particle2.png",0,0 L,33244,4 F,1,0,846,0,1 M,0,0,4230,471.528,-170.9344,466.9432,69.02179 F,2,3384,4230,1,0 S,0,33244,,0.05 R,0,33244,,1.589901 C,0,33244,,250,234,201
Sprite,Background,Centre,"sb\particle2.png",0,0 L,33314,4 F,1,0,846,0,1 M,0,0,4230,469.9949,-106.5942,444.4622,132.0438 F,2,3384,4230,1,0 S,0,33314,,0.05 R,0,33314,,1.677384 C,0,33314,,252,209,122
Sprite,Background,Centre,"sb\particle2.png",0,0 L,33385,4 F,1,0,846,0,1 M,0,0,4230,110.0319,397.3445,114.625,637.3006 F,2,3384,4230,1,0 S,0,33385,,0.05 R,0,33385,,1.551657 C,0,33385,,254,246,230
Sprite,Background,Centre,"sb\particle2.png",0,0 L,33455,4 F,1,0,846,0,1 M,0,0,4230,207.1799,24.25569,199.4001,264.1296 F,2,3384,4230,1,0 S,0,33455,,0.05 R,0,33455,,1.603218 C,0,33455,,254,238,204
Sprite,Background,Centre,"sb\particle2.png",0,0 L,33526,4 F,1,0,846,0,1 M,0,0,4230,156.158,63.50665,187.3598,301.4698 F,2,3384,4230,1,0 S,0,33526,,0.05 R,0,33526,,1.44042 C,0,33526,,250,223,167
Sprite,Background,Centre,"sb\particle2.png",0,0 L,33596,4 F,1,0,846,0,1 M,0,0,4230,29.85049,356.1369,40.84041,595.8851 F,2,3384,4230,1,0 S,0,33596,,0.05 R,0,33596,,1.524989 C,0,33596,,252,213,134
Sprite,Background,Centre,"sb\particle2.png",0,0 L,33667,4 F,1,0,846,0,1 M,0,0,4230,441.1743,-158.1902,439.7599,81.80566 F,2,3384,4230,1,0 S,0,33667,,0.05 R,0,33667,,1.57669 C,0,33667,,246,219,163
Sprite,Background,Centre,"sb\particle2.png",0,0 L,33737,4 F,1,0,846,0,1 M,0,0,4230,88.07335,26.34747,103.7732,265.8334 F,2,3384,4230,1,0 S,0,33737,,0.05 R,0,33737,,1.505334 C,0,33737,,252,209,122
//Storyboard Layer 1 (Fail)
//Storyboard Layer 2 (Pass)
//Storyboard Layer 3 (Foreground)
Sprite,Foreground,Centre,"sb\black screen idk.png",320,240 F,0,-338,4,0,1 M,0,4,,320,240 F,0,4,113,1
Sprite,Foreground,Centre,"sb\black screen idk.png",320,240 F,0,113,,1 R,0,113,,-1.256728 M,0,113,149,-421.2363,210.9091,-449.7454,201.0182 S,0,113,222,0.8836362 M,0,149,186,-449.7454,201.0182,-440.4363,202.7636 M,0,186,222,-440.4363,202.7636
Sprite,Foreground,Centre,"sb\black screen idk.png",320,240 F,0,113,,1 S,0,113,,0.8836362 R,0,113,,-1.256728 M,0,113,149,375.2728,327.8546,415.4182,337.1636 M,0,149,186,415.4182,337.1636,410.7637,337.1636 M,0,186,222,410.7637,337.1636
Sprite,Foreground,Centre,"sb\black screen idk.png",320,240 S,0,222,,1.302546 R,0,222,,-1.256728 M,0,222,258,690.6182,308.6545,720.8728,310.4 M,0,258,295,720.8728,310.4,715.0546,308.0727 M,0,295,331,715.0546,308.0727
Sprite,Foreground,Centre,"sb\black screen idk.png",320,240 S,0,222,,1.302546 R,0,222,,-1.256728 M,0,222,258,-494.5454,167.2727,-529.4545,155.0545 M,0,258,295,-529.4545,155.0545,-521.8909,155.0545 M,0,295,331,-521.8909,155.0545
Sprite,Foreground,Centre,"sb\black screen idk.png",320,240 S,0,331,,1.343273 R,0,331,,-1.256727 M,0,331,367,793.0182,318.5455,822.6909,327.2728 M,0,367,404,822.6909,327.2728,816.8727,324.3637 M,0,404,440,816.8727,324.3637
Sprite,Foreground,Centre,"sb\black screen idk.png",320,240 S,0,331,,1.343273 R,0,331,,-1.256727 M,0,331,367,-423.5636,155.6364,-450.3272,141.0909 M,0,367,404,-450.3272,141.0909,-444.509,142.2546 M,0,404,440,-444.509,142.2546
Sprite,Foreground,Centre,"sb\black screen idk.png",320,240 S,0,440,,1.308364 R,0,440,,-1.256727 M,0,440,477,-333.9635,203.9273,-374.1089,196.3637 M,0,477,513,-374.1089,196.3637,-367.709,201.6001 M,0,513,549,-367.709,201.6001
Sprite,Foreground,Centre,"sb\black screen idk.png",320,240 S,0,440,,1.308364 R,0,440,,-1.256727 M,0,440,477,861.0909,330.7637,888.4364,344.7273 M,0,477,513,888.4364,344.7273,879.7091,342.4 M,0,513,549,879.7091,342.4
Sprite,Foreground,Centre,"sb\black screen idk.png",320,240 S,0,549,,1.325818 R,0,549,,-1.256728 M,0,549,586,958.8364,325.5273,987.9272,333.6727 M,0,586,622,987.9272,333.6727,980.9454,331.3455 M,0,622,658,980.9454,331.3455
Sprite,Foreground,Centre,"sb\black screen idk.png",320,240 S,0,549,,1.325818 R,0,549,,-1.256728 M,0,549,586,-253.0909,207.4182,-290.3272,197.5273 M,0,586,622,-290.3272,197.5273,-284.509,198.1091 M,0,622,658,-284.509,198.1091
Sprite,Foreground,Centre,"sb\black screen idk.png",320,240 S,0,658,,1.337454 R,0,658,,-1.256727 M,0,658,695,1058.327,322.6182,1093.237,335.4182 M,0,695,731,1093.237,335.4182,1084.509,332.5091 M,0,731,768,1084.509,332.5091
Sprite,Foreground,Centre,"sb\black screen idk.png",320,240 S,0,658,,1.337454 R,0,658,,-1.256727 M,0,658,695,-151.8545,157.9636,-192.5817,146.3273 M,0,695,731,-192.5817,146.3273,-182.109,146.3273 M,0,731,768,-182.109,146.3273
Sprite,Foreground,Centre,"sb\black screen idk.png",320,240 S,0,768,,1.401455 R,0,768,,-1.256727 M,0,768,804,1158.982,405.8182,1193.309,423.8546 M,0,804,840,1193.309,423.8546,1187.491,421.5273 M,0,840,877,1187.491,421.5273
Sprite,Foreground,Centre,"sb\black screen idk.png",320,240 S,0,768,,1.401455 R,0,768,,-1.256727 M,0,768,804,-94.83633,191.1273,-139.0545,173.0909 M,0,804,840,-139.0545,173.0909,-130.3273,176.5818 M,0,840,877,-130.3273,176.5818
Sprite,Foreground,Centre,"sb\black screen idk.png",320,240 S,0,877,,1.477091 R,0,877,,-1.256727 M,0,877,913,-221.6727,148.0727,-253.0909,136.4364 M,0,913,949,-253.0909,136.4364,-246.6909,135.8545 M,0,949,986,-246.6909,135.8545
Sprite,Foreground,Centre,"sb\black screen idk.png",320,240 S,0,877,,1.477091 R,0,877,,-1.256727 M,0,877,913,1086.836,411.6364,1129.309,426.1819 M,0,913,949,1129.309,426.1819,1120.582,425.6 M,0,949,986,1120.582,425.6
Sprite,Foreground,Centre,"sb\black screen idk.png",320,240 S,0,986,,1.354909 R,0,986,,-1.256727 M,0,986,1022,-260.6545,146.9091,-293.2363,134.6909 M,0,1022,1059,-293.2363,134.6909,-282.7636,137.6 M,0,1059,1095,-282.7636,137.6
Sprite,Foreground,Centre,"sb\black screen idk.png",320,240 S,0,986,,1.354909 R,0,986,,-1.256727 M,0,986,1022,921.0182,441.309,960,454.6908 M,0,1022,1059,960,454.6908,954.7637,452.9454 M,0,1059,1095,954.7637,452.9454
Sprite,Foreground,Centre,"sb\black screen idk.png",320,240 S,0,1095,,1.174545 R,0,1095,,-1.256727 M,0,1095,1131,-261.8181,117.2364,-294.4,105.6 M,0,1131,1168,-294.4,105.6,-286.2545,105.6 M,0,1168,1204,-286.2545,105.6
Sprite,Foreground,Centre,"sb\black screen idk.png",320,240 S,0,1095,,1.174545 R,0,1095,,-1.256727 M,0,1095,1131,773.2363,342.4,813.9636,358.1091 M,0,1131,1168,813.9636,358.1091,806.9818,356.3636 M,0,1168,1204,806.9818,356.3636
Sprite,Foreground,Centre,"sb\black screen idk.png",320,240 S,0,1204,,1.384 R,0,1204,,-1.256727 M,0,1204,1240,-450.3273,110.2545,-486.4,95.70908 M,0,1240,1277,-486.4,95.70908,-477.0909,99.19998 M,0,1277,1313,-477.0909,99.19998
Sprite,Foreground,Centre,"sb\black screen idk.png",320,240 S,0,1204,,1.384 R,0,1204,,-1.256727 M,0,1204,1240,775.5636,361.6,815.7091,376.7273 M,0,1240,1277,815.7091,376.7273,809.3091,375.5636 M,0,1277,1313,809.3091,375.5636
Sprite,Foreground,Centre,"sb\black screen idk.png",320,240 S,0,1313,,1.343273 R,0,1313,,-1.256727 M,0,1313,1350,-500.3636,29.96364,-539.9272,14.25455 M,0,1350,1386,-539.9272,14.25455,-527.1273,18.32727 M,0,1386,1422,-527.1273,18.32727
Sprite,Foreground,Centre,"sb\black screen idk.png",320,240 S,0,1313,,1.343273 R,0,1313,,-1.256727 M,0,1313,1350,664.4364,348.8,715.6364,372.0728 M,0,1350,1386,715.6364,372.0728,705.7455,368 M,0,1386,1422,705.7455,368
Sprite,Foreground,Centre,"sb\black screen idk.png",320,240 S,0,1422,,0.9883636 R,0,1422,,0.1279999 M,1,1422,1531,453.2364,-95.70909,461.9637,-141.6727 M,0,1531,1641,461.9637,-141.6727,461.9637,-132.3637
Sprite,Foreground,Centre,"sb\black screen idk.png",320,240 S,0,1422,,0.9883636 R,0,1422,,0.1279999 M,1,1422,1531,177.4546,763.6364,177.4546,818.3273 M,0,1531,1641,177.4546,818.3273,182.1091,810.1818
Sprite,Foreground,Centre,"sb\black screen idk.png",320,240 S,0,1641,,1.087273 R,0,1641,,-0.1861819 M,1,1641,1750,169.3091,-339.4909,150.6909,-374.9818 M,0,1750,1859,150.6909,-374.9818,153.0182,-368
Sprite,Foreground,Centre,"sb\black screen idk.png",320,240 S,0,1641,,1.087273 R,0,1641,,-0.1861819 M,1,1641,1750,459.6364,600.7273,470.1091,650.7637 M,0,1750,1859,470.1091,650.7637,466.6182,642.6182
Sprite,Foreground,Centre,"sb\flash2.png",320,240 M,0,1859,,320,240 F,0,1859,4478,0.6625455,0.0003794648
Sprite,Foreground,Centre,"sb\black screen idk.png",320,240 S,0,1859,,0.7032727 M,1,1859,2732,-257.7454,220.8,-683.6364,184.1454
Sprite,Foreground,Centre,"sb\black screen idk.png",320,240 S,0,1859,,0.7032727 M,1,1859,2732,866.3273,202.7636,1320.146,202.1818
Sprite,Foreground,Centre,"sb\black screen idk.png",320,240 F,0,7970,8843,0,1 M,0,8843,,320,240 F,0,8843,9716,1,0
Sprite,Foreground,Centre,"sb\flash2.png",320,240 S,0,14955,,1.343273 R,0,14955,,0.8145456 C,0,14955,,255,128,64 M,1,14955,15828,-517.2363,786.9091,-134.4,519.2727 M,2,15828,16264,-134.4,519.2727,-310.1091,657.7454 M,1,16264,16701,-310.1091,657.7454,-548.0727,786.3273
Sprite,Foreground,Centre,"sb\flash2.png",320,240 S,0,14955,,1.343273 R,0,14955,,0.8145456 C,0,14955,,255,128,64 M,1,14955,15828,1189.236,-288.2909,800.5818,9.018173 M,2,15828,16264,800.5818,9.018173,1005.382,-123.0546 M,1,16264,16701,1005.382,-123.0546,1200.291,-284.2182
Sprite,Foreground,Centre,"sb\flash2.png",320,240 M,2,28923,29796,1217.164,628.6545,320,240 S,0,29796,,1.250182 R,0,29796,,-1.128727 C,0,29796,,255,128,64 M,1,29796,30669,320,240,-510.4991,-267.0061
Sprite,Foreground,Centre,"sb\smoke.png",320,240 M,0,43765,50749,-95.41817,377.8909,664.7601,380.2174 S,0,45511,,2.169454 F,0,45511,49440,0.2552727 F,0,49440,50749,0.2552727,0
Sprite,Foreground,Centre,"sb\smoke.png",320,240 M,0,43765,51186,-134.9818,305.7454,200.0886,282.4767 S,0,45511,,2.169454 F,0,45511,49767,0.2552727 F,0,49767,51186,0.2552727,0
Sprite,Foreground,Centre,"sb\smoke.png",320,240 F,0,43765,44529,0,0.07781816 M,0,43765,50749,-97.16364,196.9454,560.2909,203.9273 F,0,44529,45511,0.07781816 S,0,45511,,2.169454 F,0,45511,49440,0.07781816 F,0,49440,50749,0.07781816,0
Sprite,Foreground,Centre,"sb\smoke.png",320,240 F,0,44638,45511,0,0.2552727 M,0,44638,50531,-95.41817,377.8909,665.0182,380.2182 F,0,45511,46384,0.2552727 S,0,46384,,2.169454 F,0,46384,49440,0.2552727 F,0,49440,50531,0.2552727,0
Sprite,Foreground,Centre,"sb\smoke.png",320,240 F,0,45074,45947,0,0.2959999 M,0,45074,50967,143.7091,59.63635,524.8,78.83634 F,0,45947,46820,0.2959999,0.3134544 S,0,46820,,2.169454 F,0,46820,49876,0.3134544,0.1825454 F,0,49876,50968,0.1825454,0
Sprite,Foreground,Centre,"sb\black screen idk.png",320,240 F,0,35908,36781,0,1 M,0,36781,,320,240 F,0,36781,37654,1,0
Sprite,Foreground,Centre,"sb\black screen idk.png",320,240 F,0,42892,43765,0,1 M,0,43765,,320,240 F,0,43765,44638,1,0
Sprite,Foreground,Centre,"sb\v.png",320,240 S,0,113,5788,0.4589092 S,0,5788,50749,0.4589092 F,0,50749,51622,1,0
//Storyboard Layer 4 (Overlay)
//Storyboard Sound Samples

[TimingPoints]
-5129,436.554132712456,4,2,1,40,1,0
1859,-100,4,2,1,60,0,0
15825,-100,4,2,1,50,0,0
16698,-111.111111111111,4,2,1,50,0,0
19318,-111.111111111111,4,2,1,40,0,0
22810,-111.111111111111,4,2,1,50,0,0
26302,-111.111111111111,4,2,1,40,0,0
29795,-111.111111111111,4,2,1,60,0,0
43765,-111.111111111111,4,2,1,60,0,1
44201,-111.111111111111,4,2,1,70,0,1
44419,-100,4,2,1,70,0,1
49003,-100,4,2,1,70,0,0
50313,-100,4,2,1,50,0,0

[Colours]
Combo1 : 253,214,77
Combo2 : 213,0,0
Combo3 : 0,126,187
Combo4 : 117,186,255

[HitObjects]
22,57,1855,5,4,3:2:0:0:
127,115,2292,1,0,3:2:0:0:
225,45,2728,2,0,P|300:36|388:8,1,120,0|2,3:2|3:2,2:0:0:0:
382,77,3383,1,10,2:0:0:0:
382,77,3602,1,2,3:2:0:0:
495,115,4038,1,0,3:2:0:0:
462,230,4475,2,0,P|480:275|492:320,2,60,2|10|0,3:2|2:0|3:2,2:0:0:0:
344,208,5348,5,0,3:2:0:0:
278,308,5784,2,0,P|218:311|166:282,1,120,4|0,3:2|3:2,2:0:0:0:
51,317,6657,2,0,P|18:267|17:208,1,120,4|0,3:2|3:2,2:0:0:0:
2,88,7531,1,4,3:2:0:0:
109,34,7967,2,0,P|139:50|197:65,1,60,0|8,3:2|2:0,2:0:0:0:
213,92,8404,2,0,P|241:81|267:67,1,60,0|8,3:2|2:0,2:0:0:0:
326,74,8840,5,0,3:2:0:0:
386,177,9277,1,0,3:2:0:0:
274,220,9713,2,0,P|249:303|253:376,1,120,0|2,3:2|3:2,2:0:0:0:
299,375,10368,1,10,2:0:0:0:
299,375,10586,1,2,3:2:0:0:
418,381,11022,1,0,3:2:0:0:
424,261,11460,2,0,P|394:247|342:232,2,60,0|8|0,3:2|2:0|3:2,2:0:0:0:
507,174,12333,1,0,3:2:0:0:
434,78,12769,6,0,P|377:59|317:55,1,120,2|0,2:0|3:2,2:0:0:0:
228,136,13642,2,0,P|195:86|150:46,1,120,2|0,2:0|3:2,2:0:0:0:
34,13,14515,1,2,2:0:0:0:
4,129,14952,2,0,P|10:163|26:210,2,60,0|8|0,3:2|2:0|3:2,2:0:0:0:
68,132,15607,1,8,2:0:0:0:
68,132,15825,5,6,2:0:0:0:
120,226,16262,1,2,2:0:0:0:
25,278,16698,2,0,P|110:343|211:381,1,216,2|2,2:0|2:3,2:0:0:0:
244,278,18008,1,2,2:0:0:0:
349,301,18444,2,0,P|406:310|469:350,1,108,2|2,2:0|2:0,2:0:0:0:
500,237,19318,6,0,B|487:117|417:171|387:23,4,216,2|2|2|2|6,2:0|2:0|2:0|2:0|2:0,2:0:0:0:
437,325,23247,5,2,2:0:0:0:
338,280,23683,2,0,P|249:285|132:365,1,216,2|2,2:0|2:3,2:0:0:0:
39,315,24993,1,2,2:0:0:0:
80,215,25429,2,0,P|72:150|42:74,1,108,2|2,2:0|2:0,2:0:0:0:
133,31,26302,6,0,B|253:18|223:79|354:101,4,216,2|2|2|2|4,2:0|2:0|2:0|2:0|3:2,2:0:0:0:
56,107,30231,5,0,2:0:0:0:
42,214,30667,1,0,3:2:0:0:
110,297,31104,1,8,2:0:0:0:
207,343,31541,2,0,P|306:311|391:303,1,162,0|8,3:2|2:0,2:0:0:0:
409,331,32414,2,0,P|422:348|425:402,2,54.0000000000001,0|2|8,3:2|2:0|2:0,2:0:0:0:
478,247,33287,6,0,P|483:216|500:175,1,54.0000000000001,0|2,3:2|2:0,2:0:0:0:
510,144,33724,1,2,2:3:0:0:
403,127,34160,2,0,P|398:96|381:55,1,54.0000000000001,2|2,3:0|2:0,2:0:0:0:
371,24,34597,1,8,2:0:0:0:
267,55,35033,2,0,P|206:54|141:17,1,108,0|2,3:2|2:0,2:0:0:0:
114,58,35688,2,0,P|93:107|94:161,1,108,8|0,2:0|2:0,2:0:0:0:
133,198,36343,1,10,2:0:0:0:
72,287,36780,6,0,P|50:293|-8:317,2,54.0000000000001,4|2|2,3:2|2:0|2:3,2:0:0:0:
169,333,37653,2,0,P|175:355|199:413,2,54.0000000000001,0|2|2,3:2|2:0|2:3,2:0:0:0:
231,244,38526,2,0,P|253:238|311:214,2,54.0000000000001,0|2|2,3:2|2:0|2:3,2:0:0:0:
183,219,39181,1,10,2:0:0:0:
183,219,39399,2,0,P|160:166|171:103,1,108,2|8,2:3|2:0,2:0:0:0:
185,11,40272,6,0,P|201:21|260:38,1,54.0000000000001,0|2,3:2|2:0,2:0:0:0:
286,43,40709,1,2,2:3:0:0:
327,142,41145,2,0,P|343:132|402:115,1,54.0000000000001,2|2,3:0|2:0,2:0:0:0:
428,110,41582,1,10,2:0:0:0:
477,206,42018,2,0,P|467:222|450:281,1,54.0000000000001,2|2,3:2|2:0,2:0:0:0:
418,294,42455,2,0,P|487:309|522:348,2,108,2|2|2,2:0|3:2|3:2,2:0:0:0:
307,342,43765,6,0,P|250:319|190:298,1,107.999996704102,4|0,3:2|3:2,2:0:0:0:
178,240,44419,2,0,P|198:183|221:128,1,120,8|8,2:0|2:0,2:0:0:0:
256,79,45074,1,0,3:2:0:0:
153,16,45511,2,0,P|128:24|87:53,1,60,0|8,3:2|2:0,2:0:0:0:
41,56,45947,1,0,3:2:0:0:
41,56,46166,2,0,P|78:122|70:189,1,120,8|8,2:0|2:0,2:0:0:0:
42,213,46820,1,0,3:2:0:0:
111,311,47257,5,4,3:2:0:0:
111,311,47475,2,0,P|171:295|270:306,1,120,8|8,2:0|2:0,2:0:0:0:
284,330,48130,1,0,3:2:0:0:
284,330,48348,2,0,P|344:346|443:335,1,120,8|8,2:0|2:0,2:0:0:0:
450,309,49003,1,4,2:0:0:0:
256,192,49221,12,6,50749,3:2:0:0:
