osu file format v14

[General]
AudioFilename: audio.mp3
AudioLeadIn: 0
PreviewTime: 460
Countdown: 0
SampleSet: Normal
StackLeniency: 0.7
Mode: 1
LetterboxInBreaks: 0
WidescreenStoryboard: 1

[Editor]
DistanceSpacing: 2.4
BeatDivisor: 4
GridSize: 32
TimelineZoom: 1.7

[Metadata]
Title:Shinto Iseki
TitleUnicode:シント遺跡
Artist:Ichinose Go
ArtistUnicode:一之瀬剛
Creator:Antti
Version:Muzukashii
Source:ポケットモンスター ハートゴールド・ソウルシルバー
Tags:gou instrumental electronic video game music vgm ost original soundtrack Sinjoh Ruins pokemon pokémon pocket monsters heartgold heart gold and & soulsilver soul silver hgss gamefreak game freak nintendo ds ニンテンドーDS sinnoh johto gen generation IV 4 ポケモン ハートゴールド&ソウルシルバー ミュージック・スーパーコンプリート music super collection complete
BeatmapID:3729741
BeatmapSetID:1817924

[Difficulty]
HPDrainRate:8
CircleSize:2
OverallDifficulty:4
ApproachRate:10
SliderMultiplier:1.4
SliderTickRate:1

[Events]
//Background and Video events
0,0,"arceus.png",0,30
//Break Periods
//Storyboard Layer 0 (Background)
//Storyboard Layer 1 (Fail)
//Storyboard Layer 2 (Pass)
//Storyboard Layer 3 (Foreground)
//Storyboard Layer 4 (Overlay)
//Storyboard Sound Samples

[TimingPoints]
-448,468.75,4,1,0,55,1,0
20,-111.111111111111,4,1,0,55,0,0
606,-111.111111111111,4,1,0,55,0,0
1192,-111.111111111111,4,1,0,50,0,0
1427,468.75,4,1,0,55,1,0
1427,-111.111111111111,4,1,0,55,0,0
6114,-111.111111111111,4,1,0,55,0,0
8926,-111.111111111111,4,1,0,50,0,0
11739,-111.111111111111,4,1,0,55,0,0
12677,-111.111111111111,4,1,0,50,0,0
17364,-111.111111111111,4,1,0,55,0,0
20176,-111.111111111111,4,1,0,50,0,0
38458,-111.111111111111,4,1,0,52,0,0
38575,-111.111111111111,4,1,0,54,0,0
38692,-111.111111111111,4,1,0,56,0,0
38809,-111.111111111111,4,1,0,58,0,0
38927,-111.111111111111,4,1,0,60,0,0
84395,-111.111111111111,4,1,0,58,0,0
84864,-111.111111111111,4,1,0,56,0,0
85333,-111.111111111111,4,1,0,54,0,0
85802,-111.111111111111,4,1,0,52,0,0
86270,-111.111111111111,4,1,0,50,0,0
86739,-111.111111111111,4,1,0,55,0,0
88377,-111.111111111111,4,1,0,50,0,0
89314,-111.111111111111,4,1,0,48,0,0
89552,-111.111111111111,4,1,0,47,0,0
89783,-111.111111111111,4,1,0,46,0,0
90252,-111.111111111111,4,1,0,45,0,0
90486,-111.111111111111,4,1,0,44,0,0
91424,-111.111111111111,4,1,0,43,0,0
91427,-111.111111111111,4,1,0,41,0,0
93302,-111.111111111111,4,1,0,40,0,0

[HitObjects]
256,192,489,5,8,0:0:0:0:
256,192,606,1,8,0:0:0:0:
256,192,723,1,8,0:0:0:0:
256,192,958,1,8,0:0:0:0:
256,192,1427,1,0,0:0:0:0:
256,192,2130,1,8,0:0:0:0:
256,192,3067,1,0,0:0:0:0:
256,192,3536,1,0,0:0:0:0:
256,192,4005,1,0,0:0:0:0:
256,192,4239,1,8,0:0:0:0:
256,192,5176,1,8,0:0:0:0:
256,192,5880,1,0,0:0:0:0:
256,192,6114,1,8,0:0:0:0:
256,192,6231,1,8,0:0:0:0:
256,192,6348,1,8,0:0:0:0:
256,192,6583,1,8,0:0:0:0:
256,192,6817,1,0,0:0:0:0:
256,192,6934,1,0,0:0:0:0:
256,192,7051,1,0,0:0:0:0:
256,192,7755,1,0,0:0:0:0:
256,192,7989,1,8,0:0:0:0:
256,192,8926,1,8,0:0:0:0:
256,192,9630,1,0,0:0:0:0:
256,192,10567,1,8,0:0:0:0:
256,192,11036,1,8,0:0:0:0:
256,192,11505,1,8,0:0:0:0:
256,192,11739,1,8,0:0:0:0:
256,192,11856,1,8,0:0:0:0:
256,192,11973,1,8,0:0:0:0:
256,192,12208,1,0,0:0:0:0:
256,192,12676,1,0,0:0:0:0:
256,192,13380,1,8,0:0:0:0:
256,192,14317,1,0,0:0:0:0:
256,192,14786,1,0,0:0:0:0:
256,192,15255,1,0,0:0:0:0:
256,192,15489,1,8,0:0:0:0:
256,192,16426,1,8,0:0:0:0:
256,192,17130,1,0,0:0:0:0:
256,192,17364,1,8,0:0:0:0:
256,192,17481,1,8,0:0:0:0:
256,192,17598,1,8,0:0:0:0:
256,192,17833,1,8,0:0:0:0:
256,192,18067,1,0,0:0:0:0:
256,192,18184,1,0,0:0:0:0:
256,192,18301,1,0,0:0:0:0:
256,192,19005,1,0,0:0:0:0:
256,192,19239,1,8,0:0:0:0:
256,192,20176,1,8,0:0:0:0:
256,192,20880,1,0,0:0:0:0:
256,192,21817,1,8,0:0:0:0:
256,192,22286,1,8,0:0:0:0:
256,192,22755,1,8,0:0:0:0:
256,192,22989,1,0,0:0:0:0:
256,192,23458,1,8,0:0:0:0:
256,192,23692,1,0,0:0:0:0:
256,192,23809,1,0,0:0:0:0:
256,192,23927,1,0,0:0:0:0:
256,192,24395,1,8,0:0:0:0:
256,192,24630,1,0,0:0:0:0:
256,192,25098,1,8,0:0:0:0:
256,192,25567,1,0,0:0:0:0:
256,192,26036,1,8,0:0:0:0:
256,192,26505,1,0,0:0:0:0:
256,192,26739,1,8,0:0:0:0:
256,192,27208,1,8,0:0:0:0:
256,192,27677,1,0,0:0:0:0:
256,192,28145,1,8,0:0:0:0:
256,192,28380,1,0,0:0:0:0:
256,192,28848,1,8,0:0:0:0:
256,192,29317,1,0,0:0:0:0:
256,192,29786,1,8,0:0:0:0:
256,192,30255,1,8,0:0:0:0:
256,192,30489,1,0,0:0:0:0:
256,192,30958,1,8,0:0:0:0:
256,192,31192,1,0,0:0:0:0:
256,192,31309,1,0,0:0:0:0:
256,192,31427,1,0,0:0:0:0:
256,192,31895,1,8,0:0:0:0:
256,192,32130,1,0,0:0:0:0:
256,192,32598,1,8,0:0:0:0:
256,192,33067,1,0,0:0:0:0:
256,192,33536,1,8,0:0:0:0:
256,192,34005,1,0,0:0:0:0:
256,192,34239,1,8,0:0:0:0:
256,192,34708,1,8,0:0:0:0:
256,192,35177,1,0,0:0:0:0:
256,192,35645,1,8,0:0:0:0:
256,192,35880,1,0,0:0:0:0:
256,192,36348,1,8,0:0:0:0:
256,192,36817,1,0,0:0:0:0:
256,192,37286,1,8,0:0:0:0:
256,192,37755,1,0,0:0:0:0:
256,192,37989,1,0,0:0:0:0:
256,192,38223,1,8,0:0:0:0:
256,192,38458,1,8,0:0:0:0:
256,192,38575,1,8,0:0:0:0:
256,192,38692,1,8,0:0:0:0:
256,192,38927,1,12,0:0:0:0:
256,192,39161,1,0,0:0:0:0:
256,192,39395,1,0,0:0:0:0:
256,192,39630,1,8,0:0:0:0:
256,192,39864,1,0,0:0:0:0:
256,192,40098,1,8,0:0:0:0:
256,192,40333,1,8,0:0:0:0:
256,192,40450,1,8,0:0:0:0:
256,192,40567,1,8,0:0:0:0:
256,192,40802,1,0,0:0:0:0:
256,192,41270,1,0,0:0:0:0:
256,192,41505,1,8,0:0:0:0:
256,192,41739,1,0,0:0:0:0:
256,192,42208,1,8,0:0:0:0:
256,192,42442,1,8,0:0:0:0:
256,192,42677,1,0,0:0:0:0:
256,192,42911,1,8,0:0:0:0:
256,192,43028,1,8,0:0:0:0:
256,192,43145,1,8,0:0:0:0:
256,192,43380,1,0,0:0:0:0:
256,192,43614,1,0,0:0:0:0:
256,192,43731,1,0,0:0:0:0:
256,192,43848,1,0,0:0:0:0:
256,192,44083,1,8,0:0:0:0:
256,192,44552,1,0,0:0:0:0:
256,192,44786,1,8,0:0:0:0:
256,192,44903,1,8,0:0:0:0:
256,192,45020,1,8,0:0:0:0:
256,192,45255,1,8,0:0:0:0:
256,192,45489,1,0,0:0:0:0:
256,192,45958,1,8,0:0:0:0:
256,192,46192,1,8,0:0:0:0:
256,192,46427,1,0,0:0:0:0:
256,192,46544,1,0,0:0:0:0:
256,192,46661,1,0,0:0:0:0:
256,192,46895,1,8,0:0:0:0:
256,192,47130,1,0,0:0:0:0:
256,192,47364,1,8,0:0:0:0:
256,192,47833,1,8,0:0:0:0:
256,192,48067,1,0,0:0:0:0:
256,192,48184,1,0,0:0:0:0:
256,192,48302,1,0,0:0:0:0:
256,192,48536,1,8,0:0:0:0:
256,192,48770,1,8,0:0:0:0:
256,192,49005,1,0,0:0:0:0:
256,192,49239,1,8,0:0:0:0:
256,192,49708,1,8,0:0:0:0:
256,192,49942,1,0,0:0:0:0:
256,192,50177,1,12,0:0:0:0:
256,192,50645,1,8,0:0:0:0:
256,192,50880,1,0,0:0:0:0:
256,192,51114,1,8,0:0:0:0:
256,192,51348,1,0,0:0:0:0:
256,192,51583,1,0,0:0:0:0:
256,192,51817,1,8,0:0:0:0:
256,192,52052,1,0,0:0:0:0:
256,192,52286,1,8,0:0:0:0:
256,192,52403,1,8,0:0:0:0:
256,192,52520,1,8,0:0:0:0:
256,192,52755,1,8,0:0:0:0:
256,192,52989,1,0,0:0:0:0:
256,192,53458,1,8,0:0:0:0:
256,192,53692,1,0,0:0:0:0:
256,192,53927,1,8,0:0:0:0:
256,192,54395,1,8,0:0:0:0:
256,192,54630,1,0,0:0:0:0:
256,192,54864,1,0,0:0:0:0:
256,192,55098,1,8,0:0:0:0:
256,192,55333,1,0,0:0:0:0:
256,192,55567,1,8,0:0:0:0:
256,192,55802,1,8,0:0:0:0:
256,192,55919,1,8,0:0:0:0:
256,192,56036,1,8,0:0:0:0:
256,192,56270,1,0,0:0:0:0:
256,192,56505,1,8,0:0:0:0:
256,192,56739,1,8,0:0:0:0:
256,192,56973,1,0,0:0:0:0:
256,192,57208,1,8,0:0:0:0:
256,192,57677,1,8,0:0:0:0:
256,192,57911,1,0,0:0:0:0:
256,192,58145,1,8,0:0:0:0:
256,192,58380,1,8,0:0:0:0:
256,192,58614,1,0,0:0:0:0:
256,192,58848,1,8,0:0:0:0:
256,192,59317,1,0,0:0:0:0:
256,192,59552,1,8,0:0:0:0:
256,192,59669,1,8,0:0:0:0:
256,192,59786,1,8,0:0:0:0:
256,192,60255,1,0,0:0:0:0:
256,192,60489,1,8,0:0:0:0:
256,192,60723,1,0,0:0:0:0:
256,192,60958,1,8,0:0:0:0:
256,192,61192,1,8,0:0:0:0:
256,192,61309,1,8,0:0:0:0:
256,192,61427,1,8,0:0:0:0:
256,192,61661,1,0,0:0:0:0:
256,192,61895,1,8,0:0:0:0:
256,192,62012,1,8,0:0:0:0:
256,192,62130,1,8,0:0:0:0:
256,192,62364,1,8,0:0:0:0:
256,192,62598,1,0,0:0:0:0:
256,192,62833,1,8,0:0:0:0:
256,192,63067,1,0,0:0:0:0:
256,192,63184,1,0,0:0:0:0:
256,192,63302,1,0,0:0:0:0:
256,192,63536,1,8,0:0:0:0:
256,192,63770,1,8,0:0:0:0:
256,192,64005,1,0,0:0:0:0:
256,192,64239,1,8,0:0:0:0:
256,192,64708,1,8,0:0:0:0:
256,192,65177,1,8,0:0:0:0:
256,192,65411,1,0,0:0:0:0:
256,192,65645,1,8,0:0:0:0:
256,192,65880,1,8,0:0:0:0:
256,192,66114,1,0,0:0:0:0:
256,192,66348,1,8,0:0:0:0:
256,192,66817,1,0,0:0:0:0:
256,192,67052,1,8,0:0:0:0:
256,192,67169,1,8,0:0:0:0:
256,192,67286,1,8,0:0:0:0:
256,192,67520,1,0,0:0:0:0:
256,192,67989,1,8,0:0:0:0:
256,192,68106,1,8,0:0:0:0:
256,192,68223,1,8,0:0:0:0:
256,192,68458,1,0,0:0:0:0:
256,192,68928,1,12,0:0:0:0:
256,192,69395,1,8,0:0:0:0:
256,192,69630,1,0,0:0:0:0:
256,192,70098,1,0,0:0:0:0:
256,192,70333,1,8,0:0:0:0:
256,192,70567,1,0,0:0:0:0:
256,192,70802,1,8,0:0:0:0:
256,192,71270,1,8,0:0:0:0:
256,192,71505,1,0,0:0:0:0:
256,192,71973,1,0,0:0:0:0:
256,192,72208,1,8,0:0:0:0:
256,192,72442,1,8,0:0:0:0:
256,192,72559,1,8,0:0:0:0:
256,192,72677,1,8,0:0:0:0:
256,192,72911,1,0,0:0:0:0:
256,192,73145,1,8,0:0:0:0:
256,192,73380,1,8,0:0:0:0:
256,192,73614,1,0,0:0:0:0:
256,192,74083,1,8,0:0:0:0:
256,192,74200,1,8,0:0:0:0:
256,192,74317,1,8,0:0:0:0:
256,192,74552,1,8,0:0:0:0:
256,192,74786,1,0,0:0:0:0:
256,192,75020,1,8,0:0:0:0:
256,192,75255,1,8,0:0:0:0:
256,192,75489,1,0,0:0:0:0:
256,192,75723,1,0,0:0:0:0:
256,192,75958,1,8,0:0:0:0:
256,192,76075,1,8,0:0:0:0:
256,192,76192,1,8,0:0:0:0:
74,160,76427,2,0,L|202:114,1,125.999996154785
365,132,77364,2,0,L|328:260,1,125.999996154785
123,76,78302,2,0,L|272:67,1,125.999996154785
100,147,79239,2,0,L|101:283,1,125.999996154785
69,234,80177,2,0,B|82:189|251:229|427:83,1,377.999988464356
256,192,82052,1,8,0:0:0:0:
256,192,82169,1,8,0:0:0:0:
256,192,82286,1,8,0:0:0:0:
256,192,82755,1,0,0:0:0:0:
256,192,82989,1,8,0:0:0:0:
256,192,83458,1,0,0:0:0:0:
256,288,83927,2,4,P|128:192|324:215,1,503.999984619141
256,192,86739,1,8,0:0:0:0:
256,192,86856,1,8,0:0:0:0:
256,192,86973,1,8,0:0:0:0:
256,192,87208,1,8,0:0:0:0:
256,192,87676,1,0,0:0:0:0:
256,192,88380,1,8,0:0:0:0:
256,192,89317,1,0,0:0:0:0:
256,192,89786,1,0,0:0:0:0:
256,192,90255,1,0,0:0:0:0:
256,192,90489,1,8,0:0:0:0:
256,192,91426,1,8,0:0:0:0:
256,192,92130,1,0,0:0:0:0:
256,192,92364,1,8,0:0:0:0:
256,192,92481,1,8,0:0:0:0:
256,192,92598,1,8,0:0:0:0:
256,192,92833,1,8,0:0:0:0:
256,192,93067,1,0,0:0:0:0:
256,192,93184,1,0,0:0:0:0:
256,192,93302,1,0,0:0:0:0:
