osu file format v14

[General]
AudioFilename: audio.mp3
AudioLeadIn: 0
PreviewTime: 460
Countdown: 0
SampleSet: Normal
StackLeniency: 0.7
Mode: 1
LetterboxInBreaks: 0
WidescreenStoryboard: 1

[Editor]
DistanceSpacing: 2.4
BeatDivisor: 2
GridSize: 32
TimelineZoom: 1.4

[Metadata]
Title:Shinto Iseki
TitleUnicode:シント遺跡
Artist:Ichinose Go
ArtistUnicode:一之瀬剛
Creator:Antti
Version:Kantan
Source:ポケットモンスター ハートゴールド・ソウルシルバー
Tags:gou instrumental electronic video game music vgm ost original soundtrack Sinjoh Ruins pokemon pokémon pocket monsters heartgold heart gold and & soulsilver soul silver hgss gamefreak game freak nintendo ds ニンテンドーDS sinnoh johto gen generation IV 4 ポケモン ハートゴールド&ソウルシルバー ミュージック・スーパーコンプリート music super collection complete
BeatmapID:3729740
BeatmapSetID:1817924

[Difficulty]
HPDrainRate:9
CircleSize:2
OverallDifficulty:3
ApproachRate:10
SliderMultiplier:1.4
SliderTickRate:1

[Events]
//Background and Video events
0,0,"arceus.png",0,30
//Break Periods
//Storyboard Layer 0 (Background)
//Storyboard Layer 1 (Fail)
//Storyboard Layer 2 (Pass)
//Storyboard Layer 3 (Foreground)
//Storyboard Layer 4 (Overlay)
//Storyboard Sound Samples

[TimingPoints]
-448,468.75,4,1,0,55,1,0
606,-100,4,1,0,55,0,0
1192,-100,4,1,0,50,0,0
1427,468.75,4,1,0,55,1,0
6114,-100,4,1,0,55,0,0
8926,-100,4,1,0,50,0,0
11739,-100,4,1,0,55,0,0
12677,-100,4,1,0,50,0,0
17364,-100,4,1,0,55,0,0
20176,-100,4,1,0,50,0,0
38458,-100,4,1,0,52,0,0
38575,-100,4,1,0,54,0,0
38692,-100,4,1,0,56,0,0
38809,-100,4,1,0,58,0,0
38927,-100,4,1,0,60,0,0
84395,-100,4,1,0,58,0,0
84864,-100,4,1,0,56,0,0
85333,-100,4,1,0,54,0,0
85802,-100,4,1,0,52,0,0
86270,-100,4,1,0,50,0,0
86739,-100,4,1,0,55,0,0
88377,-100,4,1,0,50,0,0
89314,-100,4,1,0,48,0,0
89552,-100,4,1,0,47,0,0
89783,-100,4,1,0,46,0,0
90252,-100,4,1,0,45,0,0
90486,-100,4,1,0,44,0,0
91424,-100,4,1,0,43,0,0
91427,-100,4,1,0,41,0,0
93302,-100,4,1,0,40,0,0

[HitObjects]
256,192,489,5,8,0:0:0:0:
256,192,958,1,0,0:0:0:0:
256,192,1426,1,0,0:0:0:0:
256,192,2130,1,8,0:0:0:0:
256,192,3067,1,0,0:0:0:0:
256,192,4239,1,8,0:0:0:0:
256,192,5176,1,0,0:0:0:0:
256,192,6114,1,8,0:0:0:0:
256,192,6583,1,0,0:0:0:0:
256,192,7051,1,0,0:0:0:0:
256,192,7989,1,8,0:0:0:0:
256,192,8926,1,8,0:0:0:0:
256,192,9630,1,0,0:0:0:0:
256,192,10567,1,8,0:0:0:0:
256,192,11739,1,8,0:0:0:0:
256,192,12208,1,0,0:0:0:0:
256,192,12676,1,0,0:0:0:0:
256,192,13380,1,8,0:0:0:0:
256,192,14317,1,0,0:0:0:0:
256,192,15489,1,8,0:0:0:0:
256,192,16426,1,8,0:0:0:0:
256,192,17364,1,8,0:0:0:0:
256,192,17833,1,0,0:0:0:0:
256,192,18301,1,0,0:0:0:0:
256,192,19239,1,8,0:0:0:0:
256,192,20176,1,8,0:0:0:0:
256,192,20880,1,0,0:0:0:0:
256,192,21817,1,8,0:0:0:0:
256,192,22989,1,0,0:0:0:0:
256,192,23927,1,0,0:0:0:0:
256,192,24395,1,8,0:0:0:0:
256,192,25098,1,8,0:0:0:0:
256,192,25567,1,0,0:0:0:0:
256,192,26036,1,8,0:0:0:0:
256,192,26739,1,8,0:0:0:0:
256,192,28145,1,8,0:0:0:0:
256,192,28848,1,8,0:0:0:0:
256,192,29317,1,0,0:0:0:0:
256,192,29786,1,8,0:0:0:0:
256,192,30489,1,0,0:0:0:0:
256,192,31427,1,0,0:0:0:0:
256,192,31895,1,8,0:0:0:0:
256,192,32598,1,8,0:0:0:0:
256,192,33067,1,0,0:0:0:0:
256,192,33536,1,8,0:0:0:0:
256,192,34239,1,8,0:0:0:0:
256,192,35645,1,8,0:0:0:0:
256,192,36348,1,8,0:0:0:0:
256,192,36817,1,0,0:0:0:0:
256,192,37286,1,8,0:0:0:0:
256,192,37989,1,0,0:0:0:0:
256,192,38458,1,8,0:0:0:0:
256,192,38927,1,12,0:0:0:0:
256,192,40333,1,8,0:0:0:0:
256,192,40802,1,0,0:0:0:0:
256,192,41739,1,0,0:0:0:0:
256,192,42677,1,0,0:0:0:0:
256,192,43145,1,8,0:0:0:0:
256,192,43614,1,0,0:0:0:0:
256,192,44552,1,8,0:0:0:0:
256,192,45020,1,8,0:0:0:0:
256,192,45489,1,0,0:0:0:0:
256,192,46427,1,0,0:0:0:0:
256,192,47364,1,8,0:0:0:0:
256,192,48302,1,8,0:0:0:0:
256,192,48770,1,8,0:0:0:0:
256,192,49239,1,0,0:0:0:0:
256,192,50177,1,12,0:0:0:0:
256,192,51114,1,8,0:0:0:0:
256,192,51817,1,8,0:0:0:0:
256,192,52286,1,8,0:0:0:0:
256,192,52989,1,0,0:0:0:0:
256,192,53458,1,8,0:0:0:0:
256,192,53927,1,8,0:0:0:0:
256,192,55333,1,0,0:0:0:0:
256,192,55802,1,8,0:0:0:0:
256,192,56739,1,8,0:0:0:0:
256,192,57208,1,0,0:0:0:0:
256,192,57677,1,8,0:0:0:0:
256,192,58614,1,8,0:0:0:0:
256,192,59552,1,8,0:0:0:0:
256,192,60020,1,0,0:0:0:0:
256,192,60489,1,8,0:0:0:0:
256,192,61427,1,8,0:0:0:0:
256,192,62364,1,0,0:0:0:0:
256,192,62833,1,8,0:0:0:0:
256,192,63302,1,0,0:0:0:0:
256,192,63770,1,8,0:0:0:0:
256,192,64239,1,0,0:0:0:0:
256,192,65177,1,8,0:0:0:0:
256,192,65645,1,8,0:0:0:0:
256,192,66348,1,8,0:0:0:0:
256,192,66817,1,0,0:0:0:0:
256,192,67286,1,8,0:0:0:0:
256,192,67989,1,8,0:0:0:0:
256,192,68458,1,0,0:0:0:0:
256,192,68928,1,12,0:0:0:0:
256,192,69630,1,0,0:0:0:0:
256,192,70802,1,8,0:0:0:0:
256,192,71505,1,0,0:0:0:0:
256,192,72208,1,8,0:0:0:0:
256,192,72677,1,8,0:0:0:0:
256,192,74083,1,8,0:0:0:0:
256,192,74552,1,0,0:0:0:0:
256,192,75255,1,8,0:0:0:0:
256,192,75958,1,8,0:0:0:0:
91,81,76427,2,0,L|245:87,1,140
381,181,77364,2,0,L|261:262,1,140
123,76,78302,2,0,L|280:66,1,140
100,147,79239,2,0,L|96:299,1,140
69,234,80177,2,0,B|82:189|251:229|463:50,1,420
256,192,82052,1,8,0:0:0:0:
256,192,82989,1,0,0:0:0:0:
256,288,83927,2,4,P|128:192|338:220,1,560
256,192,86739,1,8,0:0:0:0:
256,192,87208,1,8,0:0:0:0:
256,192,87676,1,0,0:0:0:0:
256,192,88380,1,8,0:0:0:0:
256,192,89317,1,0,0:0:0:0:
256,192,90489,1,8,0:0:0:0:
256,192,91426,1,8,0:0:0:0:
256,192,92364,1,8,0:0:0:0:
256,192,92833,1,0,0:0:0:0:
256,192,93302,1,8,0:0:0:0:
