osu file format v14

[General]
AudioFilename: audio.mp3
AudioLeadIn: 0
PreviewTime: 460
Countdown: 0
SampleSet: Normal
StackLeniency: 0.7
Mode: 1
LetterboxInBreaks: 0
WidescreenStoryboard: 0

[Editor]
DistanceSpacing: 2.4
BeatDivisor: 4
GridSize: 32
TimelineZoom: 2.7

[Metadata]
Title:Shinto Iseki
TitleUnicode:シント遺跡
Artist:Ichinose Go
ArtistUnicode:一之瀬剛
Creator:Antti
Version:Adamant Orb
Source:ポケットモンスター ハートゴールド・ソウルシルバー
Tags:gou instrumental electronic video game music vgm ost original soundtrack Sinjoh Ruins pokemon pokémon pocket monsters heartgold heart gold and & soulsilver soul silver hgss gamefreak game freak nintendo ds ニンテンドーDS sinnoh johto gen generation IV 4 ポケモン ハートゴールド&ソウルシルバー ミュージック・スーパーコンプリート music super collection complete
BeatmapID:3729738
BeatmapSetID:1817924

[Difficulty]
HPDrainRate:7
CircleSize:2
OverallDifficulty:6
ApproachRate:10
SliderMultiplier:1.4
SliderTickRate:1

[Events]
//Background and Video events
0,0,"arceus.png",0,30
//Break Periods
//Storyboard Layer 0 (Background)
//Storyboard Layer 1 (Fail)
//Storyboard Layer 2 (Pass)
//Storyboard Layer 3 (Foreground)
//Storyboard Layer 4 (Overlay)
//Storyboard Sound Samples

[TimingPoints]
-448,468.75,4,1,0,55,1,0
606,-103.092783505155,4,1,0,55,0,0
723,-106.382978723404,4,1,0,55,0,0
841,-109.89010989011,4,1,0,55,0,0
958,-113.636363636364,4,1,0,55,0,0
1192,-117.647058823529,4,1,0,50,0,0
1426,-121.951219512195,4,1,0,50,0,0
1427,468.75,4,1,0,55,1,0
1427,-142.857142857143,4,1,0,50,0,0
2130,-125.86532410321,4,1,0,50,0,0
3067,-131.492439184747,4,1,0,50,0,0
3302,-166.666666666667,4,1,0,50,0,0
3536,-134.498991257566,4,1,0,50,0,0
4005,-137.646249139711,4,1,0,50,0,0
4239,-139.275766016713,4,1,0,50,0,0
5176,-146.198830409357,4,1,0,50,0,0
5177,-200,4,1,0,50,0,0
5880,-151.860288534548,4,1,0,50,0,0
6114,-111.111111111111,4,1,0,55,0,0
6231,-113.636363636364,4,1,0,55,0,0
6348,-116.279069767442,4,1,0,55,0,0
6466,-119.047619047619,4,1,0,55,0,0
6583,-121.951219512195,4,1,0,55,0,0
6700,-125,4,1,0,55,0,0
6817,-128.205128205128,4,1,0,55,0,0
6934,-131.578947368421,4,1,0,55,0,0
7051,-135.135135135135,4,1,0,55,0,0
7052,-222.222222222222,4,1,0,55,0,0
7286,-138.888888888889,4,1,0,55,0,0
7755,-142.428838991319,4,1,0,55,0,0
7989,-144.267252199354,4,1,0,55,0,0
8926,-152.121794793784,4,1,0,50,0,0
8927,-250,4,1,0,50,0,0
9630,-158.597742202542,4,1,0,50,0,0
10567,-168.141548281005,4,1,0,50,0,0
10802,-250,4,1,0,50,0,0
11036,-173.357695868193,4,1,0,50,0,0
11505,-178.90783920479,4,1,0,50,0,0
11739,-125,4,1,0,55,0,0
11856,-126.582278481013,4,1,0,55,0,0
11973,-128.205128205128,4,1,0,55,0,0
12091,-129.87012987013,4,1,0,55,0,0
12208,-131.578947368421,4,1,0,55,0,0
12442,-135.135135135135,4,1,0,55,0,0
12676,-138.888888888889,4,1,0,55,0,0
12677,-250,4,1,0,50,0,0
13380,-142.450142450142,4,1,0,50,0,0
14317,-147.492625368732,4,1,0,50,0,0
14552,-250,4,1,0,50,0,0
14786,-150.15015015015,4,1,0,50,0,0
15255,-152.905198776758,4,1,0,50,0,0
15489,-154.320987654321,4,1,0,50,0,0
16426,-160.25641025641,4,1,0,50,0,0
16427,-250,4,1,0,50,0,0
17130,-165.016501650165,4,1,0,50,0,0
17364,-133.333333333333,4,1,0,55,0,0
17481,-134.228187919463,4,1,0,55,0,0
17598,-135.135135135135,4,1,0,55,0,0
17716,-136.054421768707,4,1,0,55,0,0
17833,-136.986301369863,4,1,0,55,0,0
17950,-137.931034482759,4,1,0,55,0,0
18067,-138.888888888889,4,1,0,55,0,0
18184,-139.86013986014,4,1,0,55,0,0
18301,-140.845070422535,4,1,0,55,0,0
18302,-250,4,1,0,55,0,0
18536,-142.857142857143,4,1,0,55,0,0
19005,-143.939361225903,4,1,0,55,0,0
19239,-144.486746953136,4,1,0,55,0,0
20176,-146.718135388561,4,1,0,50,0,0
20177,-200,4,1,0,50,0,0
20880,-148.437546386733,4,1,0,50,0,0
21817,-150.793626858154,4,1,0,50,0,0
22052,-181.818181818182,4,1,0,50,0,0
22286,-151.999939200024,4,1,0,50,0,0
22755,-153.225707596318,4,1,0,50,0,0
22989,-153.846153846154,4,1,0,50,0,0
38458,-151.515151515152,4,1,0,52,0,0
38575,-149.253731343284,4,1,0,54,0,0
38692,-147.058823529412,4,1,0,56,0,0
38809,-144.927536231884,4,1,0,58,0,0
38927,-142.857142857143,4,1,0,60,0,0
67989,-111.111111111111,4,1,0,60,0,0
68106,-114.942528735632,4,1,0,60,0,0
68223,-119.047619047619,4,1,0,60,0,0
68341,-123.456790123457,4,1,0,60,0,0
68458,-128.205128205128,4,1,0,60,0,0
68692,-133.333333333333,4,1,0,60,0,0
68927,-166.666666666667,4,1,0,60,0,0
68928,-138.888888888889,4,1,0,60,0,0
69275,-164.106603649731,4,1,0,60,0,0
69392,-163.270637408568,4,1,0,60,0,0
69627,-161.617032280309,4,1,0,60,0,0
69861,-160.003413406153,4,1,0,60,0,0
69978,-159.208626984801,4,1,0,60,0,0
70095,-158.421697435681,4,1,0,60,0,0
70330,-156.864385509914,4,1,0,60,0,0
70564,-155.343827671914,4,1,0,60,0,0
70681,-154.594550026796,4,1,0,60,0,0
70799,-153.846153846154,4,1,0,60,0,0
71150,-151.662217908275,4,1,0,60,0,0
71267,-150.947953145755,4,1,0,60,0,0
71502,-149.53345561847,4,1,0,60,0,0
71736,-148.151074589128,4,1,0,60,0,0
71853,-147.469424672618,4,1,0,60,0,0
71970,-146.794018633054,4,1,0,60,0,0
72205,-145.455955936542,4,1,0,60,0,0
72439,-144.147607149721,4,1,0,60,0,0
72556,-143.502219500995,4,1,0,60,0,0
72674,-142.857142857143,4,1,0,60,0,0
72908,-141.594925237879,4,1,0,60,0,0
73025,-140.972143904364,4,1,0,60,0,0
73142,-140.354816977319,4,1,0,60,0,0
73259,-139.742873113471,4,1,0,60,0,0
73377,-139.131080028197,4,1,0,60,0,0
73611,-137.933571192114,4,1,0,60,0,0
73728,-137.342513917375,4,1,0,60,0,0
73963,-136.17052180544,4,1,0,60,0,0
74080,-135.59444605149,4,1,0,60,0,0
74197,-135.023223994527,4,1,0,60,0,0
74314,-134.456794550018,4,1,0,60,0,0
74549,-133.333333333333,4,1,0,60,0,0
74783,-132.233153496245,4,1,0,60,0,0
74900,-131.689844079225,4,1,0,60,0,0
75017,-131.150981009338,4,1,0,60,0,0
75134,-130.616509926855,4,1,0,60,0,0
75252,-130.081864853615,4,1,0,60,0,0
75486,-129.034478012525,4,1,0,60,0,0
75603,-128.517084204394,4,1,0,60,0,0
75720,-128.003823047515,4,1,0,60,0,0
75838,-127.490310736384,4,1,0,60,0,0
75955,-126.985201991128,4,1,0,60,0,0
76072,-126.48407987048,4,1,0,60,0,0
76189,-125.986897362674,4,1,0,60,0,0
76306,-125.493608192223,4,1,0,60,0,0
76424,-125,4,1,0,60,0,0
84395,-125,4,1,0,58,0,0
84864,-125,4,1,0,56,0,0
85333,-125,4,1,0,54,0,0
85802,-142.857142857143,4,1,0,52,0,0
86270,-142.857142857143,4,1,0,50,0,0
86739,-105.263157894737,4,1,0,55,0,0
86856,-108.695652173913,4,1,0,55,0,0
86973,-112.359550561798,4,1,0,55,0,0
87091,-116.279069767442,4,1,0,55,0,0
87208,-120.481927710843,4,1,0,55,0,0
87442,-125,4,1,0,55,0,0
87674,-129.87012987013,4,1,0,55,0,0
87677,-166.666666666667,4,1,0,50,0,0
88377,-134.560178889795,4,1,0,50,0,0
89314,-141.364630588474,4,1,0,48,0,0
89552,-181.818181818182,4,1,0,47,0,0
89783,-145.035631929335,4,1,0,46,0,0
90252,-148.902375817157,4,1,0,45,0,0
90486,-150.909762536558,4,1,0,44,0,0
91424,-159.53082961047,4,1,0,43,0,0
91427,-200,4,1,0,41,0,0
92127,-166.666666666667,4,1,0,40,0,0
92364,-133.333333333333,4,1,0,40,0,0
92481,-136.986301369863,4,1,0,40,0,0
92598,-140.845070422535,4,1,0,40,0,0
92716,-144.927536231884,4,1,0,40,0,0
92833,-149.253731343284,4,1,0,40,0,0
92950,-153.846153846154,4,1,0,40,0,0
93067,-158.730158730159,4,1,0,40,0,0
93184,-163.934426229508,4,1,0,40,0,0
93302,-222.222222222222,4,1,0,40,0,0
93303,-169.491525423729,4,1,0,40,0,0

[HitObjects]
256,192,489,5,0,0:0:0:0:
256,192,606,1,8,0:0:0:0:
256,192,723,1,8,0:0:0:0:
256,192,841,1,0,0:0:0:0:
256,192,958,1,8,0:0:0:0:
256,192,1192,1,0,0:0:0:0:
256,192,1426,1,0,0:0:0:0:
256,192,2130,1,8,0:0:0:0:
256,192,3067,1,0,0:0:0:0:
256,192,3536,1,0,0:0:0:0:
256,192,4005,1,0,0:0:0:0:
256,192,4239,1,8,0:0:0:0:
256,192,5176,1,8,0:0:0:0:
256,192,5880,1,0,0:0:0:0:
256,192,6114,1,0,0:0:0:0:
256,192,6231,1,8,0:0:0:0:
256,192,6348,1,8,0:0:0:0:
256,192,6466,1,0,0:0:0:0:
256,192,6583,1,8,0:0:0:0:
256,192,6700,1,8,0:0:0:0:
256,192,6817,1,8,0:0:0:0:
256,192,6934,1,0,0:0:0:0:
256,192,7051,1,8,0:0:0:0:
256,192,7286,1,0,0:0:0:0:
256,192,7755,1,0,0:0:0:0:
256,192,7989,1,8,0:0:0:0:
256,192,8926,1,8,0:0:0:0:
256,192,9630,1,0,0:0:0:0:
256,192,10567,1,8,0:0:0:0:
256,192,11036,1,8,0:0:0:0:
256,192,11505,1,8,0:0:0:0:
256,192,11739,1,0,0:0:0:0:
256,192,11856,1,8,0:0:0:0:
256,192,11973,1,8,0:0:0:0:
256,192,12091,1,0,0:0:0:0:
256,192,12208,1,8,0:0:0:0:
256,192,12442,1,0,0:0:0:0:
256,192,12676,1,0,0:0:0:0:
256,192,13380,1,8,0:0:0:0:
256,192,14317,1,0,0:0:0:0:
256,192,14786,1,0,0:0:0:0:
256,192,15255,1,0,0:0:0:0:
256,192,15489,1,8,0:0:0:0:
256,192,16426,1,8,0:0:0:0:
256,192,17130,1,0,0:0:0:0:
256,192,17364,1,0,0:0:0:0:
256,192,17481,1,8,0:0:0:0:
256,192,17598,1,8,0:0:0:0:
256,192,17716,1,0,0:0:0:0:
256,192,17833,1,8,0:0:0:0:
256,192,17950,1,0,0:0:0:0:
256,192,18067,1,8,0:0:0:0:
256,192,18184,1,8,0:0:0:0:
256,192,18301,1,8,0:0:0:0:
256,192,18536,1,0,0:0:0:0:
256,192,19005,1,0,0:0:0:0:
256,192,19239,1,8,0:0:0:0:
256,192,20176,1,8,0:0:0:0:
256,192,20880,1,0,0:0:0:0:
256,192,21817,1,8,0:0:0:0:
256,192,22286,1,8,0:0:0:0:
256,192,22755,1,8,0:0:0:0:
256,192,22989,1,0,0:0:0:0:
256,192,23458,1,0,0:0:0:0:
256,192,23692,1,0,0:0:0:0:
256,192,23809,1,0,0:0:0:0:
256,192,23927,1,8,0:0:0:0:
256,192,24161,1,0,0:0:0:0:
256,192,24395,1,8,0:0:0:0:
256,192,24630,1,0,0:0:0:0:
256,192,25098,1,8,0:0:0:0:
256,192,25567,1,0,0:0:0:0:
256,192,26036,1,8,0:0:0:0:
256,192,26505,1,0,0:0:0:0:
256,192,26622,1,0,0:0:0:0:
256,192,26739,1,8,0:0:0:0:
256,192,27208,1,8,0:0:0:0:
256,192,27442,1,0,0:0:0:0:
256,192,27677,1,0,0:0:0:0:
256,192,27911,1,0,0:0:0:0:
256,192,28145,1,8,0:0:0:0:
256,192,28380,1,0,0:0:0:0:
256,192,28848,1,8,0:0:0:0:
256,192,29317,1,0,0:0:0:0:
256,192,29786,1,8,0:0:0:0:
256,192,30255,1,8,0:0:0:0:
256,192,30372,1,8,0:0:0:0:
256,192,30489,1,0,0:0:0:0:
256,192,30958,1,8,0:0:0:0:
256,192,31192,1,0,0:0:0:0:
256,192,31309,1,0,0:0:0:0:
256,192,31427,1,8,0:0:0:0:
256,192,31661,1,0,0:0:0:0:
256,192,31895,1,8,0:0:0:0:
256,192,32130,1,0,0:0:0:0:
256,192,32598,1,8,0:0:0:0:
256,192,33067,1,0,0:0:0:0:
256,192,33536,1,8,0:0:0:0:
256,192,34005,1,0,0:0:0:0:
256,192,34122,1,0,0:0:0:0:
256,192,34239,1,8,0:0:0:0:
256,192,34708,1,8,0:0:0:0:
256,192,34942,1,0,0:0:0:0:
256,192,35177,1,0,0:0:0:0:
256,192,35411,1,0,0:0:0:0:
256,192,35645,1,8,0:0:0:0:
256,192,35880,1,0,0:0:0:0:
256,192,36348,1,8,0:0:0:0:
256,192,36817,1,0,0:0:0:0:
256,192,37286,1,8,0:0:0:0:
256,192,37755,1,0,0:0:0:0:
256,192,37989,1,0,0:0:0:0:
256,192,38223,1,8,0:0:0:0:
256,192,38458,1,8,0:0:0:0:
256,192,38575,1,8,0:0:0:0:
256,192,38692,1,0,0:0:0:0:
256,192,38927,1,12,0:0:0:0:
256,192,39161,1,0,0:0:0:0:
256,192,39278,1,8,0:0:0:0:
256,192,39395,1,0,0:0:0:0:
256,192,39630,1,8,0:0:0:0:
256,192,39864,1,0,0:0:0:0:
256,192,39981,1,0,0:0:0:0:
256,192,40098,1,8,0:0:0:0:
256,192,40333,1,8,0:0:0:0:
256,192,40450,1,8,0:0:0:0:
256,192,40567,1,0,0:0:0:0:
256,192,40684,1,0,0:0:0:0:
256,192,40802,1,8,0:0:0:0:
256,192,41036,1,0,0:0:0:0:
256,192,41270,1,0,0:0:0:0:
256,192,41505,1,8,0:0:0:0:
256,192,41622,1,8,0:0:0:0:
256,192,41739,1,0,0:0:0:0:
256,192,41973,1,0,0:0:0:0:
256,192,42208,1,8,0:0:0:0:
256,192,42325,1,0,0:0:0:0:
256,192,42442,1,8,0:0:0:0:
256,192,42677,1,0,0:0:0:0:
256,192,42911,1,0,0:0:0:0:
256,192,43028,1,8,0:0:0:0:
256,192,43145,1,0,0:0:0:0:
256,192,43262,1,0,0:0:0:0:
256,192,43380,1,8,0:0:0:0:
256,192,43497,1,0,0:0:0:0:
256,192,43614,1,8,0:0:0:0:
256,192,43731,1,0,0:0:0:0:
256,192,43848,1,8,0:0:0:0:
256,192,43966,1,8,0:0:0:0:
256,192,44083,1,0,0:0:0:0:
256,192,44200,1,8,0:0:0:0:
256,192,44317,1,8,0:0:0:0:
256,192,44552,1,0,0:0:0:0:
256,192,44669,1,0,0:0:0:0:
256,192,44786,1,8,0:0:0:0:
256,192,44903,1,0,0:0:0:0:
256,192,45020,1,8,0:0:0:0:
256,192,45255,1,8,0:0:0:0:
256,192,45372,1,0,0:0:0:0:
256,192,45489,1,8,0:0:0:0:
256,192,45606,1,8,0:0:0:0:
256,192,45723,1,8,0:0:0:0:
256,192,45841,1,0,0:0:0:0:
256,192,45958,1,8,0:0:0:0:
256,192,46192,1,8,0:0:0:0:
256,192,46309,1,8,0:0:0:0:
256,192,46427,1,0,0:0:0:0:
256,192,46544,1,0,0:0:0:0:
256,192,46661,1,8,0:0:0:0:
256,192,46778,1,0,0:0:0:0:
256,192,46895,1,8,0:0:0:0:
256,192,47130,1,0,0:0:0:0:
256,192,47247,1,0,0:0:0:0:
256,192,47364,1,8,0:0:0:0:
256,192,47598,1,8,0:0:0:0:
256,192,47833,1,8,0:0:0:0:
256,192,48067,1,0,0:0:0:0:
256,192,48184,1,0,0:0:0:0:
256,192,48302,1,8,0:0:0:0:
256,192,48419,1,0,0:0:0:0:
256,192,48536,1,8,0:0:0:0:
256,192,48653,1,8,0:0:0:0:
256,192,48770,1,0,0:0:0:0:
256,192,49005,1,0,0:0:0:0:
256,192,49122,1,0,0:0:0:0:
256,192,49239,1,8,0:0:0:0:
256,192,49473,1,8,0:0:0:0:
256,192,49708,1,8,0:0:0:0:
256,192,49942,1,0,0:0:0:0:
256,192,50177,1,12,0:0:0:0:
256,192,50411,1,0,0:0:0:0:
256,192,50528,1,0,0:0:0:0:
256,192,50645,1,8,0:0:0:0:
256,192,50762,1,0,0:0:0:0:
256,192,50880,1,0,0:0:0:0:
256,192,51114,1,8,0:0:0:0:
256,192,51348,1,0,0:0:0:0:
256,192,51583,1,0,0:0:0:0:
256,192,51700,1,0,0:0:0:0:
256,192,51817,1,8,0:0:0:0:
256,192,52052,1,0,0:0:0:0:
256,192,52286,1,8,0:0:0:0:
256,192,52403,1,8,0:0:0:0:
256,192,52520,1,0,0:0:0:0:
256,192,52637,1,0,0:0:0:0:
256,192,52755,1,8,0:0:0:0:
256,192,52989,1,8,0:0:0:0:
256,192,53106,1,8,0:0:0:0:
256,192,53223,1,0,0:0:0:0:
256,192,53458,1,8,0:0:0:0:
256,192,53692,1,0,0:0:0:0:
256,192,53927,1,8,0:0:0:0:
256,192,54161,1,0,0:0:0:0:
256,192,54278,1,0,0:0:0:0:
256,192,54395,1,8,0:0:0:0:
256,192,54512,1,8,0:0:0:0:
256,192,54630,1,0,0:0:0:0:
256,192,54864,1,0,0:0:0:0:
256,192,54981,1,0,0:0:0:0:
256,192,55098,1,8,0:0:0:0:
256,192,55333,1,0,0:0:0:0:
256,192,55567,1,8,0:0:0:0:
256,192,55802,1,8,0:0:0:0:
256,192,55919,1,8,0:0:0:0:
256,192,56036,1,0,0:0:0:0:
256,192,56270,1,0,0:0:0:0:
256,192,56505,1,8,0:0:0:0:
256,192,56739,1,8,0:0:0:0:
256,192,56973,1,0,0:0:0:0:
256,192,57091,1,0,0:0:0:0:
256,192,57208,1,8,0:0:0:0:
256,192,57442,1,0,0:0:0:0:
256,192,57677,1,8,0:0:0:0:
256,192,57911,1,0,0:0:0:0:
256,192,58028,1,0,0:0:0:0:
256,192,58145,1,8,0:0:0:0:
256,192,58380,1,0,0:0:0:0:
256,192,58614,1,0,0:0:0:0:
256,192,58848,1,8,0:0:0:0:
256,192,58966,1,8,0:0:0:0:
256,192,59083,1,0,0:0:0:0:
256,192,59317,1,8,0:0:0:0:
256,192,59552,1,8,0:0:0:0:
256,192,59669,1,0,0:0:0:0:
256,192,59786,1,8,0:0:0:0:
256,192,60020,1,0,0:0:0:0:
256,192,60255,1,8,0:0:0:0:
256,192,60489,1,8,0:0:0:0:
256,192,60723,1,0,0:0:0:0:
256,192,60841,1,0,0:0:0:0:
256,192,60958,1,8,0:0:0:0:
256,192,61192,1,8,0:0:0:0:
256,192,61309,1,8,0:0:0:0:
256,192,61427,1,0,0:0:0:0:
256,192,61661,1,0,0:0:0:0:
256,192,61778,1,0,0:0:0:0:
256,192,61895,1,8,0:0:0:0:
256,192,62012,1,8,0:0:0:0:
256,192,62130,1,0,0:0:0:0:
256,192,62364,1,8,0:0:0:0:
256,192,62481,1,0,0:0:0:0:
256,192,62598,1,8,0:0:0:0:
256,192,62716,1,0,0:0:0:0:
256,192,62833,1,8,0:0:0:0:
256,192,62950,1,8,0:0:0:0:
256,192,63067,1,0,0:0:0:0:
256,192,63184,1,0,0:0:0:0:
256,192,63302,1,8,0:0:0:0:
256,192,63536,1,8,0:0:0:0:
256,192,63770,1,8,0:0:0:0:
256,192,63887,1,0,0:0:0:0:
256,192,64005,1,8,0:0:0:0:
256,192,64239,1,8,0:0:0:0:
256,192,64473,1,8,0:0:0:0:
256,192,64708,1,8,0:0:0:0:
256,192,64825,1,8,0:0:0:0:
256,192,64942,1,0,0:0:0:0:
256,192,65177,1,8,0:0:0:0:
256,192,65294,1,0,0:0:0:0:
256,192,65411,1,8,0:0:0:0:
256,192,65645,1,8,0:0:0:0:
256,192,65880,1,8,0:0:0:0:
256,192,66114,1,8,0:0:0:0:
256,192,66231,1,0,0:0:0:0:
256,192,66348,1,8,0:0:0:0:
256,192,66583,1,8,0:0:0:0:
256,192,66817,1,8,0:0:0:0:
256,192,67052,1,8,0:0:0:0:
256,192,67169,1,8,0:0:0:0:
256,192,67286,1,0,0:0:0:0:
256,192,67403,1,0,0:0:0:0:
256,192,67520,1,8,0:0:0:0:
256,192,67755,1,8,0:0:0:0:
256,192,67989,1,0,0:0:0:0:
256,192,68106,1,8,0:0:0:0:
256,192,68223,1,8,0:0:0:0:
256,192,68341,1,0,0:0:0:0:
256,192,68458,1,8,0:0:0:0:
256,192,68692,1,0,0:0:0:0:
256,192,68928,1,12,0:0:0:0:
256,192,69278,1,0,0:0:0:0:
256,192,69395,1,8,0:0:0:0:
256,192,69630,1,0,0:0:0:0:
256,192,69864,1,8,0:0:0:0:
256,192,69981,1,8,0:0:0:0:
256,192,70098,1,0,0:0:0:0:
256,192,70333,1,8,0:0:0:0:
256,192,70567,1,8,0:0:0:0:
256,192,70684,1,0,0:0:0:0:
256,192,70802,1,8,0:0:0:0:
256,192,71153,1,0,0:0:0:0:
256,192,71270,1,8,0:0:0:0:
256,192,71505,1,0,0:0:0:0:
256,192,71739,1,8,0:0:0:0:
256,192,71856,1,8,0:0:0:0:
256,192,71973,1,0,0:0:0:0:
256,192,72208,1,8,0:0:0:0:
256,192,72442,1,8,0:0:0:0:
256,192,72559,1,0,0:0:0:0:
256,192,72677,1,8,0:0:0:0:
256,192,72911,1,0,0:0:0:0:
256,192,73028,1,8,0:0:0:0:
256,192,73145,1,8,0:0:0:0:
256,192,73262,1,0,0:0:0:0:
256,192,73380,1,8,0:0:0:0:
256,192,73614,1,0,0:0:0:0:
256,192,73731,1,8,0:0:0:0:
256,192,73966,1,0,0:0:0:0:
256,192,74083,1,8,0:0:0:0:
256,192,74200,1,0,0:0:0:0:
256,192,74317,1,8,0:0:0:0:
256,192,74552,1,8,0:0:0:0:
256,192,74786,1,0,0:0:0:0:
256,192,74903,1,8,0:0:0:0:
256,192,75020,1,8,0:0:0:0:
256,192,75137,1,0,0:0:0:0:
256,192,75255,1,8,0:0:0:0:
256,192,75489,1,0,0:0:0:0:
256,192,75606,1,8,0:0:0:0:
256,192,75723,1,0,0:0:0:0:
256,192,75841,1,8,0:0:0:0:
256,192,75958,1,8,0:0:0:0:
256,192,76075,1,8,0:0:0:0:
256,192,76192,1,0,0:0:0:0:
74,160,76427,2,0,L|149:136,2,56
256,192,77130,1,0,0:0:0:0:
352,72,77364,2,0,L|393:193,1,112
256,192,78067,1,0,0:0:0:0:
123,76,78302,2,0,L|244:69,1,112
256,192,79005,1,0,0:0:0:0:
100,147,79239,2,0,L|108:273,1,112
256,192,79942,1,0,0:0:0:0:
69,234,80177,2,0,B|82:189|251:229|410:168,1,336
256,192,82052,1,0,0:0:0:0:
256,192,82169,1,8,0:0:0:0:
256,192,82286,1,8,0:0:0:0:
256,192,82755,1,0,0:0:0:0:
256,192,82989,1,0,0:0:0:0:
256,192,83223,1,8,0:0:0:0:
256,192,83458,1,8,0:0:0:0:
256,192,83692,1,0,0:0:0:0:
256,284,83927,2,4,P|128:188|306:188,1,448
256,192,86739,1,0,0:0:0:0:
256,192,86856,1,8,0:0:0:0:
256,192,86973,1,8,0:0:0:0:
256,192,87091,1,0,0:0:0:0:
256,192,87208,1,8,0:0:0:0:
256,192,87442,1,0,0:0:0:0:
256,192,87676,1,0,0:0:0:0:
256,192,88380,1,8,0:0:0:0:
256,192,89317,1,0,0:0:0:0:
256,192,89786,1,0,0:0:0:0:
256,192,90255,1,0,0:0:0:0:
256,192,90489,1,8,0:0:0:0:
256,192,91426,1,8,0:0:0:0:
256,192,92130,1,0,0:0:0:0:
256,192,92364,1,0,0:0:0:0:
256,192,92481,1,8,0:0:0:0:
256,192,92598,1,8,0:0:0:0:
256,192,92716,1,0,0:0:0:0:
256,192,92833,1,8,0:0:0:0:
256,192,92950,1,0,0:0:0:0:
256,192,93067,1,0,0:0:0:0:
256,192,93184,1,0,0:0:0:0:
256,192,93303,1,8,0:0:0:0:
