osu file format v14

[General]
AudioFilename: Verdanturf Town.mp3
AudioLeadIn: 0
PreviewTime: 216
Countdown: 0
SampleSet: Normal
StackLeniency: 0.7
Mode: 1
LetterboxInBreaks: 0
WidescreenStoryboard: 0

[Editor]
DistanceSpacing: 1
BeatDivisor: 4
GridSize: 8
TimelineZoom: 1.1

[Metadata]
Title:Shidake Town
TitleUnicode:シダケタウン
Artist:Ichinose Go
ArtistUnicode:一之瀬 剛
Creator:Charlotte
Version:Plateau
Source:ポケットモンスター ルビー・サファイア
Tags:verdanturf town game freak nintendo pokemon pokémon ruby and sapphire video instrumental rs gameboy advance pocket monster ost official soundtrack
BeatmapID:662342
BeatmapSetID:294626

[Difficulty]
HPDrainRate:7
CircleSize:5
OverallDifficulty:5.5
ApproachRate:5
SliderMultiplier:1.4
SliderTickRate:1

[Events]
//Background and Video events
0,0,"BG.jpg",0,-40
//Break Periods
//Storyboard Layer 0 (Background)
//Storyboard Layer 1 (Fail)
//Storyboard Layer 2 (Pass)
//Storyboard Layer 3 (Foreground)
//Storyboard Layer 4 (Overlay)
//Storyboard Sound Samples

[TimingPoints]
-1935,717.128617017462,4,1,0,55,1,0
11645,-100,4,1,0,65,0,0
23119,-100,4,1,0,75,0,0
45933,-100,4,1,0,55,0,0
57541,-100,4,1,0,65,0,0
67088,-100,4,1,0,45,0,0
67626,-100,4,1,0,35,0,0
68343,-100,4,1,0,25,0,0
69060,-100,4,1,0,15,0,0

[HitObjects]
256,192,395,5,0,0:0:0:0:
256,192,574,1,0,0:0:0:0:
256,192,754,1,0,0:0:0:0:
256,192,933,1,8,0:0:0:0:
256,192,1650,1,0,0:0:0:0:
256,192,2009,1,8,0:0:0:0:
256,192,2367,1,8,0:0:0:0:
256,192,3084,1,0,0:0:0:0:
256,192,3443,1,8,0:0:0:0:
256,192,3802,1,0,0:0:0:0:
256,192,4519,1,0,0:0:0:0:
256,192,4877,1,8,0:0:0:0:
256,192,5236,1,0,0:0:0:0:
256,192,5594,1,0,0:0:0:0:
256,192,5863,1,0,0:0:0:0:
256,192,5953,1,8,0:0:0:0:
256,192,6132,1,0,0:0:0:0:
256,192,6311,1,0,0:0:0:0:
256,192,6491,1,0,0:0:0:0:
256,192,6670,1,8,0:0:0:0:
256,192,7029,1,0,0:0:0:0:
256,192,7208,1,8,0:0:0:0:
256,192,7387,1,0,0:0:0:0:
256,192,7746,1,8,0:0:0:0:
256,192,8104,1,0,0:0:0:0:
256,192,8821,1,0,0:0:0:0:
256,192,9180,1,8,0:0:0:0:
256,192,9539,1,8,0:0:0:0:
256,192,9897,1,8,0:0:0:0:
256,192,9987,1,8,0:0:0:0:
256,192,10076,1,0,0:0:0:0:
256,192,10256,1,8,0:0:0:0:
256,192,10614,1,8,0:0:0:0:
256,192,10973,1,0,0:0:0:0:
256,192,11331,1,0,0:0:0:0:
256,192,11600,1,8,0:0:0:0:
256,192,11690,1,8,0:0:0:0:
256,192,11869,1,0,0:0:0:0:
256,192,12049,1,8,0:0:0:0:
256,192,12228,1,8,0:0:0:0:
256,192,12407,1,0,0:0:0:0:
256,192,12766,1,0,0:0:0:0:
256,192,13124,1,0,0:0:0:0:
256,192,13483,1,8,0:0:0:0:
256,192,13752,1,0,0:0:0:0:
256,192,13841,1,8,0:0:0:0:
256,192,14200,1,0,0:0:0:0:
256,192,14558,1,0,0:0:0:0:
256,192,14917,1,8,0:0:0:0:
256,192,15186,1,0,0:0:0:0:
256,192,15276,1,8,0:0:0:0:
256,192,15455,1,8,0:0:0:0:
256,192,15634,1,0,0:0:0:0:
256,192,15813,1,0,0:0:0:0:
256,192,15993,1,8,0:0:0:0:
256,192,16172,1,8,0:0:0:0:
256,192,16262,1,8,0:0:0:0:
256,192,16351,1,0,0:0:0:0:
256,192,16710,1,0,0:0:0:0:
256,192,16979,1,8,0:0:0:0:
256,192,17068,1,0,0:0:0:0:
256,192,17248,1,0,0:0:0:0:
256,192,17427,1,8,0:0:0:0:
256,192,17606,1,8,0:0:0:0:
256,192,17786,1,0,0:0:0:0:
256,192,17965,1,0,0:0:0:0:
256,192,18144,1,8,0:0:0:0:
256,192,18503,1,0,0:0:0:0:
256,192,18592,1,0,0:0:0:0:
256,192,18682,1,0,0:0:0:0:
256,192,18861,1,8,0:0:0:0:
256,192,19220,1,0,0:0:0:0:
256,192,19578,1,0,0:0:0:0:
256,192,20295,1,8,0:0:0:0:
256,192,20654,1,0,0:0:0:0:
256,192,21013,1,8,0:0:0:0:
256,192,21371,1,8,0:0:0:0:
256,192,21461,1,8,0:0:0:0:
256,192,21550,1,8,0:0:0:0:
256,192,21730,1,0,0:0:0:0:
256,192,22088,1,8,0:0:0:0:
256,192,22447,1,0,0:0:0:0:
256,192,22805,1,0,0:0:0:0:
256,192,23074,1,0,0:0:0:0:
256,192,23164,1,8,0:0:0:0:
256,192,23343,1,0,0:0:0:0:
256,192,23523,1,8,0:0:0:0:
256,192,23702,1,0,0:0:0:0:
256,192,23881,1,8,0:0:0:0:
256,192,24240,1,0,0:0:0:0:
256,192,24598,1,0,0:0:0:0:
256,192,24957,1,8,0:0:0:0:
256,192,25315,1,0,0:0:0:0:
256,192,26033,1,0,0:0:0:0:
256,192,26212,1,0,0:0:0:0:
256,192,26391,1,8,0:0:0:0:
256,192,26750,1,0,0:0:0:0:
256,192,27108,1,8,0:0:0:0:
256,192,27467,1,8,0:0:0:0:
256,192,27825,1,0,0:0:0:0:
256,192,28184,1,8,0:0:0:0:
256,192,28542,1,8,0:0:0:0:
256,192,28632,1,8,0:0:0:0:
256,192,28722,1,8,0:0:0:0:
256,192,28901,1,0,0:0:0:0:
256,192,29080,1,0,0:0:0:0:
256,192,29260,1,8,0:0:0:0:
256,192,29439,1,0,0:0:0:0:
256,192,29618,1,8,0:0:0:0:
256,192,30335,1,0,0:0:0:0:
256,192,30694,1,0,0:0:0:0:
256,192,31052,1,8,0:0:0:0:
256,192,31411,1,8,0:0:0:0:
256,192,31501,1,8,0:0:0:0:
256,192,31590,1,0,0:0:0:0:
256,192,31770,1,8,0:0:0:0:
256,192,31949,1,8,0:0:0:0:
256,192,32128,1,0,0:0:0:0:
256,192,32487,1,8,0:0:0:0:
256,192,33204,1,0,0:0:0:0:
256,192,33562,1,8,0:0:0:0:
256,192,33921,1,8,0:0:0:0:
256,192,34279,1,0,0:0:0:0:
256,192,34638,1,0,0:0:0:0:
256,192,34817,1,8,0:0:0:0:
256,192,34997,1,0,0:0:0:0:
256,192,35176,1,0,0:0:0:0:
256,192,35355,1,8,0:0:0:0:
256,192,35714,1,0,0:0:0:0:
256,192,36072,1,8,0:0:0:0:
256,192,36610,1,0,0:0:0:0:
256,192,36789,1,8,0:0:0:0:
256,192,37148,1,0,0:0:0:0:
256,192,37507,1,8,0:0:0:0:
256,192,37686,1,0,0:0:0:0:
256,192,37865,1,8,0:0:0:0:
256,192,38044,1,8,0:0:0:0:
256,192,38224,1,0,0:0:0:0:
256,192,38582,1,0,0:0:0:0:
256,192,38941,1,8,0:0:0:0:
256,192,39299,1,0,0:0:0:0:
256,192,39658,1,8,0:0:0:0:
256,192,40017,1,8,0:0:0:0:
256,192,40106,1,8,0:0:0:0:
256,192,40196,1,8,0:0:0:0:
256,192,40375,1,0,0:0:0:0:
256,192,40554,1,0,0:0:0:0:
256,192,40734,1,8,0:0:0:0:
256,192,40913,1,8,0:0:0:0:
256,192,41092,1,0,0:0:0:0:
256,192,41271,1,8,0:0:0:0:
256,192,41630,1,8,0:0:0:0:
256,192,42168,1,0,0:0:0:0:
256,192,42706,1,8,0:0:0:0:
256,192,42885,1,0,0:0:0:0:
256,192,43244,1,0,0:0:0:0:
256,192,43602,1,8,0:0:0:0:
256,192,43961,1,0,0:0:0:0:
256,192,44140,1,8,0:0:0:0:
256,192,44499,1,0,0:0:0:0:
256,192,45036,1,8,0:0:0:0:
256,192,46022,1,8,0:0:0:0:
256,192,46112,1,0,0:0:0:0:
256,192,46291,1,0,0:0:0:0:
256,192,46471,1,8,0:0:0:0:
256,192,46650,1,8,0:0:0:0:
256,192,46829,1,0,0:0:0:0:
256,192,47546,1,0,0:0:0:0:
256,192,47905,1,8,0:0:0:0:
256,192,48264,1,8,0:0:0:0:
256,192,48981,1,0,0:0:0:0:
256,192,49339,1,8,0:0:0:0:
256,192,49698,1,0,0:0:0:0:
256,192,50415,1,0,0:0:0:0:
256,192,50773,1,8,0:0:0:0:
256,192,51132,1,0,0:0:0:0:
256,192,51491,1,0,0:0:0:0:
256,192,51760,1,0,0:0:0:0:
256,192,51849,1,8,0:0:0:0:
256,192,52028,1,0,0:0:0:0:
256,192,52208,1,0,0:0:0:0:
256,192,52387,1,0,0:0:0:0:
256,192,52566,1,8,0:0:0:0:
256,192,52925,1,0,0:0:0:0:
256,192,53104,1,8,0:0:0:0:
256,192,53283,1,0,0:0:0:0:
256,192,53642,1,8,0:0:0:0:
256,192,54001,1,0,0:0:0:0:
256,192,54718,1,0,0:0:0:0:
256,192,55076,1,8,0:0:0:0:
256,192,55435,1,8,0:0:0:0:
256,192,55793,1,8,0:0:0:0:
256,192,55883,1,8,0:0:0:0:
256,192,55973,1,0,0:0:0:0:
256,192,56152,1,8,0:0:0:0:
256,192,56510,1,8,0:0:0:0:
256,192,56869,1,0,0:0:0:0:
256,192,57228,1,0,0:0:0:0:
256,192,57497,1,8,0:0:0:0:
256,192,57586,1,8,0:0:0:0:
256,192,57765,1,0,0:0:0:0:
256,192,57945,1,8,0:0:0:0:
256,192,58124,1,8,0:0:0:0:
256,192,58303,1,0,0:0:0:0:
256,192,58662,1,0,0:0:0:0:
256,192,59020,1,0,0:0:0:0:
256,192,59379,1,8,0:0:0:0:
256,192,59648,1,0,0:0:0:0:
256,192,59738,1,8,0:0:0:0:
256,192,60096,1,0,0:0:0:0:
256,192,60455,1,0,0:0:0:0:
256,192,60813,1,8,0:0:0:0:
256,192,61082,1,0,0:0:0:0:
256,192,61172,1,8,0:0:0:0:
256,192,61351,1,8,0:0:0:0:
256,192,61530,1,0,0:0:0:0:
256,192,61710,1,0,0:0:0:0:
256,192,61889,1,8,0:0:0:0:
256,192,62068,1,8,0:0:0:0:
256,192,62158,1,8,0:0:0:0:
256,192,62248,1,0,0:0:0:0:
256,192,62606,1,0,0:0:0:0:
256,192,62875,1,8,0:0:0:0:
256,192,62965,1,0,0:0:0:0:
256,192,63144,1,8,0:0:0:0:
256,192,63323,1,0,0:0:0:0:
256,192,63502,1,0,0:0:0:0:
256,192,63682,1,8,0:0:0:0:
256,192,63861,1,0,0:0:0:0:
256,192,64040,1,8,0:0:0:0:
256,192,64399,1,0,0:0:0:0:
256,192,64489,1,0,0:0:0:0:
256,192,64578,1,0,0:0:0:0:
256,192,64757,1,8,0:0:0:0:
256,192,65116,1,0,0:0:0:0:
256,192,65475,1,0,0:0:0:0:
256,192,66192,1,8,0:0:0:0:
256,192,66550,1,0,0:0:0:0:
256,192,66909,1,8,0:0:0:0:
256,192,67267,12,0,69777,0:0:0:0:
