osu file format v14

[General]
AudioFilename: audio.ogg
AudioLeadIn: 0
PreviewTime: 52761
Countdown: 1
SampleSet: Soft
StackLeniency: 0.4
Mode: 0
LetterboxInBreaks: 0
WidescreenStoryboard: 1

[Editor]
Bookmarks: 10969,16187,21404,26674,31839,37056,42274,71080,71561,71802,72123,72604,73246,73406,73807,74209,74770,75171,75813,75973,104449
DistanceSpacing: 0.9
BeatDivisor: 2
GridSize: 16
TimelineZoom: 2

[Metadata]
Title:Sentou! Giratina
TitleUnicode:戦闘!ギラティナ
Artist:Ichinose Go
ArtistUnicode:一之瀬剛
Creator:ZinedineZidane
Version:Normal
Source:ポケットモンスター プラチナ
Tags:pokémon pokemon pocket monster platinum thiev video game instrumental junichi masuda
BeatmapID:2106158
BeatmapSetID:991897

[Difficulty]
HPDrainRate:3
CircleSize:3.2
OverallDifficulty:4
ApproachRate:6
SliderMultiplier:0.999999999999999
SliderTickRate:1

[Events]
//Background and Video events
0,0,"Untitled.jpg",0,0
//Break Periods
2,3505,4864
2,16549,20679
2,53070,65051
//Storyboard Layer 0 (Background)
//Storyboard Layer 1 (Fail)
//Storyboard Layer 2 (Pass)
//Storyboard Layer 3 (Foreground)
//Storyboard Layer 4 (Overlay)
//Storyboard Sound Samples

[TimingPoints]
697,326.086956521739,4,2,1,100,1,0
914,-100,4,2,1,80,0,0
1240,-100,4,2,1,60,0,0
1566,-100,4,2,1,40,0,0
1892,-100,4,2,1,20,0,0
5914,-100,4,2,1,50,0,0
9338,-100,4,2,1,60,0,0
10479,-100,4,2,1,70,0,0
10805,-100,4,2,1,80,0,0
11131,-100,4,2,1,70,0,0
16349,-100,4,2,2,40,0,0
17653,-100,4,2,1,20,0,0
17979,-100,4,2,1,40,0,0
21566,-100,4,2,2,50,0,0
22381,-100,4,2,1,50,0,0
26294,-100,4,2,3,55,0,0
26376,-100,4,2,1,5,0,0
26457,-100,4,2,3,55,0,0
26539,-100,4,2,1,5,0,0
26620,-100,4,2,3,55,0,0
26783,-100,4,2,2,70,0,0
28332,-100,4,2,2,5,0,0
28414,-100,4,2,2,70,0,0
28495,-100,4,2,2,5,0,0
28577,-100,4,2,2,70,0,0
30941,-100,4,2,2,5,0,0
31023,-100,4,2,2,70,0,0
31104,-100,4,2,2,5,0,0
31186,-100,4,2,2,70,0,0
32001,-100,4,2,3,60,0,0
32245,-100,4,2,3,5,0,0
32327,-100,4,2,3,60,0,0
32735,-100,4,2,3,5,0,0
32816,-100,4,2,3,60,0,0
33713,-100,4,2,3,5,0,0
33794,-100,4,2,3,60,0,0
34854,-100,4,2,3,5,0,0
34936,-100,4,2,3,60,0,0
35343,-100,4,2,3,5,0,0
35425,-100,4,2,3,60,0,0
37218,-100,4,2,2,70,0,0
38767,-100,4,2,2,5,0,0
38849,-100,4,2,2,70,0,0
38930,-100,4,2,2,5,0,0
39012,-100,4,2,2,70,0,0
41376,-100,4,2,2,5,0,0
41457,-100,4,2,2,70,0,0
41539,-100,4,2,2,5,0,0
41620,-100,4,2,2,70,0,0
42436,-100,4,2,3,60,0,0
42680,-100,4,2,3,5,0,0
42762,-100,4,2,3,60,0,0
43169,-100,4,2,3,5,0,0
43251,-100,4,2,3,60,0,0
43658,-100,4,2,3,5,0,0
43740,-100,4,2,3,60,0,0
45289,-100,4,2,3,5,0,0
45370,-100,4,2,3,60,0,0
45778,-100,4,2,3,5,0,0
45860,-100,4,2,3,60,0,0
46512,-100,4,2,3,40,0,0
46838,-100,4,2,3,48,0,0
47164,-100,4,2,3,56,0,0
47490,-100,4,2,3,64,0,0
47653,-100,4,2,1,70,0,0
52870,-100,4,2,1,50,0,0
56783,323.101777059774,4,2,1,50,1,0
58073,326.086956521739,4,2,1,50,1,0
58725,355.029585798817,4,2,1,50,1,0
59080,-100,4,2,1,40,0,0
59257,-100,4,2,1,30,0,0
59435,366.97247706422,4,2,1,20,1,0
59526,-100,4,2,1,5,0,0
59618,-100,4,2,1,30,0,0
59710,-100,4,2,1,5,0,0
59801,-100,4,2,1,40,0,0
59893,-100,4,2,1,5,0,0
59985,-100,4,2,1,50,0,0
60072,-100,4,2,1,5,0,0
60170,388.349514563107,4,2,1,60,1,0
60267,-100,4,2,1,5,0,0
60364,-100,4,2,1,70,0,0
60461,-100,4,2,1,5,0,0
60558,-100,4,2,1,80,0,0
60655,-100,4,2,1,5,0,0
60752,-100,4,2,1,90,0,0
60849,-100,4,2,1,5,0,0
60948,322.58064516129,4,2,1,100,1,0
64818,320.855614973262,4,2,1,50,1,0
65780,-100,4,2,1,60,0,0
71235,-100,4,2,1,70,0,0
81502,-100,4,2,2,80,0,0
82465,-100,4,2,1,60,0,0
83668,-100,4,2,1,5,0,0
83748,-100,4,2,1,60,0,0
83989,-100,4,2,1,5,0,0
84069,-100,4,2,1,70,0,0
86636,-100,4,2,2,80,0,0
87598,-100,4,2,1,60,0,0
89203,-100,4,2,1,70,0,0
91689,-100,4,2,1,5,0,0
91769,-100,4,2,3,30,0,0
93053,-100,4,2,1,40,0,0
94336,-100,4,2,1,50,0,0
95620,-100,4,2,1,60,0,0
96582,-100,4,2,1,40,0,0
96662,-100,4,2,1,50,0,0
96743,-100,4,2,1,60,0,0
96823,-100,4,2,1,70,0,0
96903,-100,4,2,1,80,0,1
98908,-100,4,2,1,5,0,1
98989,-100,4,2,1,80,0,1
99069,-100,4,2,1,5,0,1
99149,-100,4,2,1,80,0,1
99229,-100,4,2,1,5,0,1
99309,-100,4,2,2,80,0,1
99550,-100,4,2,1,5,0,1
99630,-100,4,2,2,80,0,1
99711,-100,4,2,2,5,0,1
99791,-100,4,2,2,80,0,1
99871,-100,4,2,2,5,0,1
99951,-100,4,2,2,80,0,1
100031,-100,4,2,2,5,0,1
100112,-100,4,2,1,80,0,1
100192,-100,4,2,1,5,0,1
100272,-100,4,2,4,80,0,1
100753,-100,4,2,2,80,0,1
102037,-100,4,2,1,80,0,1
102759,-100,4,2,1,5,0,1
102839,-100,4,2,1,80,0,1
102919,-100,4,2,1,5,0,1
102999,-100,4,2,1,80,0,1
103080,-100,4,2,1,5,0,1
103160,-100,4,2,2,80,0,1
103400,-100,4,2,1,5,0,1
103481,-100,4,2,2,80,0,1
103561,-100,4,2,2,5,0,1
103641,-100,4,2,2,80,0,1
103721,-100,4,2,2,5,0,1
103801,-100,4,2,2,80,0,1
103882,-100,4,2,2,5,0,1
103962,-100,4,2,1,80,0,1
104042,-100,4,2,1,5,0,1
104122,-100,4,2,4,80,0,1
104604,-100,4,2,3,60,0,0

[Colours]
Combo1 : 58,175,164
Combo2 : 247,189,17
Combo3 : 126,40,213
Combo4 : 244,23,41
Combo5 : 138,132,166

[HitObjects]
256,192,697,12,2,3305,0:0:0:0:
501,201,5914,5,2,0:0:0:0:
433,140,6240,1,2,0:0:0:0:
433,140,6403,2,0,P|383:134|335:146,1,99.9999999999999,2|2,0:0|0:0,0:0:0:0:
254,186,7055,1,2,0:0:0:0:
254,186,7218,2,0,P|205:197|156:192,1,99.9999999999999,2|2,0:0|0:0,0:0:0:0:
112,178,7707,5,2,0:0:0:0:
75,95,8033,1,2,0:0:0:0:
151,47,8360,1,2,0:0:0:0:
151,47,8523,2,0,L|252:51,1,99.9999999999999,2|2,0:0|0:0,0:0:0:0:
295,53,9012,1,2,0:0:0:0:
374,95,9338,5,2,0:0:0:0:
374,95,9501,2,0,L|377:157,1,50,0|2,0:0|0:0,0:0:0:0:
381,189,9827,2,0,P|330:179|282:200,1,99.9999999999999,2|2,0:0|0:0,0:0:0:0:
214,250,10479,2,0,P|195:204|206:155,2,99.9999999999999,2|2|4,0:0|0:0|3:2,0:0:0:0:
270,320,11457,5,2,3:2:0:0:
270,320,11620,1,2,0:0:0:0:
354,287,11946,2,0,P|394:258|411:212,1,99.9999999999999,2|2,0:0|0:0,0:0:0:0:
418,167,12436,2,0,L|412:49,1,99.9999999999999,2|2,3:2|3:2,0:0:0:0:
410,22,12925,1,2,0:0:0:0:
322,1,13251,1,2,0:0:0:0:
245,48,13577,1,2,0:0:0:0:
245,48,13740,6,0,L|135:46,1,99.9999999999999,2|0,3:2|3:0,0:0:0:0:
100,44,14229,1,2,0:0:0:0:
47,117,14555,2,0,L|50:166,1,50,2|2,0:0|3:2,0:0:0:0:
60,210,14881,1,0,0:0:0:0:
60,210,15044,2,0,P|107:201|161:208,1,99.9999999999999,2|2,3:2|3:2,0:0:0:0:
197,229,15533,1,2,0:0:0:0:
223,315,15860,1,2,0:0:0:0:
311,331,16186,1,2,0:0:0:0:
311,331,16349,5,6,3:1:0:0:
391,190,21729,6,0,P|342:178|292:182,1,99.9999999999999,2|2,0:0|0:0,0:0:0:0:
208,213,22381,1,2,0:0:0:0:
253,290,22707,1,2,0:0:0:0:
174,334,23033,2,0,L|178:395,2,50,2|2|2,0:0|0:0|0:0,0:0:0:0:
129,257,23686,1,2,0:0:0:0:
123,167,24012,1,2,0:0:0:0:
178,95,24338,6,0,P|226:85|275:93,1,99.9999999999999,2|2,0:0|0:0,0:0:0:0:
350,143,24990,1,2,0:0:0:0:
435,114,25316,1,2,0:0:0:0:
450,25,25642,2,0,P|474:24|498:31,2,50,2|2|2,0:0|0:0|0:0,0:0:0:0:
363,49,26294,1,10,0:0:0:0:
363,49,26457,2,0,P|338:49|314:42,1,50,10|8,0:0|3:2,0:0:0:0:
226,21,26946,6,0,L|90:39,1,99.9999999999999,10|2,0:0|3:2,0:0:0:0:
82,44,27436,1,8,0:0:0:0:
82,44,27599,1,10,0:0:0:0:
38,122,27925,1,10,0:0:0:0:
101,185,28251,2,0,L|176:178,1,50,2|2,3:2|0:0,0:0:0:0:
192,162,28577,2,0,L|241:166,1,50,10|0,0:0|3:0,0:0:0:0:
281,187,28903,1,10,0:0:0:0:
366,157,29229,1,10,0:0:0:0:
422,86,29555,6,0,P|450:126|454:175,1,99.9999999999999,10|2,0:0|3:2,0:0:0:0:
447,219,30044,1,8,0:0:0:0:
447,219,30207,1,10,0:0:0:0:
486,299,30533,1,10,0:0:0:0:
417,357,30860,2,0,L|325:348,1,50,10|2,3:2|0:0,0:0:0:0:
322,349,31186,1,10,0:0:0:0:
234,370,31512,1,10,0:0:0:0:
175,302,31838,1,10,0:0:0:0:
175,302,32001,6,0,P|157:229|164:155,1,150,2|10,3:2|3:2,0:0:0:0:
236,41,32979,2,0,P|308:23|382:30,1,150,2|2,3:2|3:2,0:0:0:0:
497,101,33957,2,0,P|512:150|515:198,1,99.9999999999999,2|2,3:2|3:2,0:0:0:0:
461,271,34610,2,0,P|388:288|314:281,2,150,2|10|2,3:2|3:2|3:2,0:0:0:0:
512,198,35914,1,2,3:2:0:0:
446,136,36240,1,10,0:0:0:0:
356,142,36566,2,0,L|240:159,1,99.9999999999999,2|4,3:2|0:0,0:0:0:0:
152,242,37381,6,0,P|127:200|122:150,1,99.9999999999999,2|10,0:0|0:0,0:0:0:0:
131,106,37870,1,0,0:0:0:0:
131,106,38033,1,10,0:0:0:0:
197,44,38360,1,10,0:0:0:0:
286,48,38686,2,0,L|357:58,1,50,10|2,0:0|0:0,0:0:0:0:
373,78,39012,2,0,L|422:71,1,50,10|0,0:0|0:0,0:0:0:0:
460,46,39338,1,10,0:0:0:0:
491,130,39664,1,10,0:0:0:0:
451,210,39990,6,0,P|403:198|354:203,1,99.9999999999999,8|10,0:0|0:0,0:0:0:0:
317,229,40479,1,0,0:0:0:0:
317,229,40642,1,10,0:0:0:0:
240,181,40968,1,10,0:0:0:0:
165,231,41294,2,0,L|175:312,1,50,10|2,0:0|0:0,0:0:0:0:
179,324,41620,1,10,0:0:0:0:
101,384,41946,1,10,0:0:0:0:
32,324,42273,1,10,0:0:0:0:
32,324,42436,6,0,L|51:141,1,150,2|10,3:2|3:2,0:0:0:0:
135,72,43414,2,0,L|154:255,1,150,2|10,3:2|3:2,0:0:0:0:
249,312,44392,2,0,L|259:212,1,99.9999999999999,2|2,3:2|3:2,0:0:0:0:
331,159,45044,2,0,L|315:9,2,150,2|10|0,3:2|3:2|3:0,0:0:0:0:
342,248,46349,1,0,0:0:0:0:
342,247,46512,2,0,L|233:237,1,99.9999999999999,10|10,3:2|0:0,0:0:0:0:
201,220,47001,2,0,L|101:230,1,99.9999999999999,0|0,3:0|0:0,0:0:0:0:
39,295,47653,6,0,P|9:228|42:163,1,150,2|10,3:2|0:0,0:0:0:0:
148,80,48631,1,10,0:0:0:0:
148,80,48794,2,0,L|317:97,1,150,2|0,0:0|0:0,0:0:0:0:
386,108,49610,1,10,0:0:0:0:
448,172,49936,1,10,0:0:0:0:
382,233,50262,1,10,0:0:0:0:
382,233,50425,1,10,0:0:0:0:
441,299,50751,2,0,P|371:321|309:284,1,150,10|0,0:0|3:0,0:0:0:0:
254,160,51729,5,2,3:2:0:0:
188,98,52055,1,10,0:0:0:0:
188,98,52218,1,2,3:2:0:0:
109,142,52544,1,8,0:0:0:0:
174,203,52870,1,4,3:1:0:0:
116,138,66101,5,10,3:2:0:0:
180,75,66422,2,0,L|300:83,1,99.9999999999999,10|2,3:2|3:2,0:0:0:0:
352,134,67063,1,10,3:2:0:0:
425,81,67384,1,10,3:2:0:0:
477,152,67705,2,0,P|485:202|474:250,1,99.9999999999999,2|2,3:2|3:2,0:0:0:0:
431,329,68347,1,2,3:2:0:0:
357,276,68668,5,10,3:2:0:0:
279,321,68989,2,0,P|229:315|180:323,1,99.9999999999999,10|2,3:2|3:2,0:0:0:0:
98,361,69630,1,10,3:2:0:0:
36,294,69951,1,10,3:2:0:0:
60,207,70272,2,0,P|116:195|173:211,1,99.9999999999999,2|2,3:2|3:2,0:0:0:0:
239,241,70914,2,0,L|303:232,1,50,2|10,3:2|0:0,0:0:0:0:
333,229,71235,6,0,P|376:205|375:98,2,150,10|2|10,3:2|0:0|3:2,0:0:0:0:
261,114,72678,2,0,P|192:84|118:88,1,150,0|2,0:0|3:2,0:0:0:0:
58,155,73481,1,2,0:0:0:0:
92,235,73801,6,0,L|191:245,1,99.9999999999999,10|10,3:2|3:2,0:0:0:0:
228,270,74283,2,0,L|327:260,1,99.9999999999999,2|8,0:0|0:0,0:0:0:0:
408,220,74924,1,2,0:0:0:0:
427,132,75245,2,0,L|271:105,1,150,2|2,0:0|3:2,0:0:0:0:
191,87,76047,1,0,3:2:0:0:
115,37,76368,6,0,P|100:85|112:132,1,99.9999999999999,10|10,3:2|3:2,0:0:0:0:
138,170,76850,1,2,0:0:0:0:
138,170,77010,2,0,P|150:217|135:264,1,99.9999999999999,2|10,3:2|3:2,0:0:0:0:
89,342,77652,2,0,P|135:356|183:342,1,99.9999999999999,10|2,3:2|3:2,0:0:0:0:
220,317,78133,1,10,0:0:0:0:
220,317,78293,2,0,P|267:302|314:317,1,99.9999999999999,2|2,3:2|3:2,0:0:0:0:
396,355,78935,6,0,L|407:236,1,99.9999999999999,10|10,3:2|3:2,0:0:0:0:
391,212,79416,1,2,0:0:0:0:
391,212,79577,2,0,L|402:93,1,99.9999999999999,2|10,3:2|3:2,0:0:0:0:
444,33,80219,2,0,L|325:22,1,99.9999999999999,10|2,3:2|3:2,0:0:0:0:
301,38,80700,1,2,3:2:0:0:
301,38,80861,2,0,L|182:27,1,99.9999999999999,2|6,3:2|3:2,0:0:0:0:
111,17,81502,6,0,P|96:65|101:117,1,99.9999999999999,6|2,3:1|0:0,0:0:0:0:
114,158,81983,1,2,3:2:0:0:
114,158,82144,1,2,0:0:0:0:
105,246,82465,2,0,B|177:208|273:239|222:285|318:318|385:276,1,300,2|2,3:2|3:2,0:0:0:0:
458,224,83748,1,2,3:2:0:0:
404,151,84069,5,2,0:0:0:0:
470,90,84390,1,2,0:0:0:0:
470,90,84550,2,0,P|403:60|336:90,1,150,2|2,0:0|0:0,0:0:0:0:
314,129,85192,1,0,0:0:0:0:
235,173,85513,1,2,0:0:0:0:
177,104,85834,2,0,P|133:86|61:96,1,99.9999999999999,2|0,0:0|0:0,0:0:0:0:
40,107,86315,1,2,0:0:0:0:
51,196,86636,6,0,L|37:317,1,99.9999999999999,6|2,3:1|0:0,0:0:0:0:
39,340,87117,1,2,3:2:0:0:
39,340,87277,1,2,0:0:0:0:
124,368,87598,2,0,P|260:320|308:183,1,300,2|0,3:2|3:0,0:0:0:0:
305,138,88721,2,0,P|342:105|391:106,1,99.9999999999999,2|0,0:0|0:0,0:0:0:0:
428,133,89203,5,2,0:0:0:0:
460,216,89523,1,2,0:0:0:0:
402,285,89844,1,2,0:0:0:0:
402,285,90005,1,2,0:0:0:0:
324,238,90326,2,0,L|185:254,1,99.9999999999999,2|0,0:0|0:0,0:0:0:0:
180,258,90807,1,2,0:0:0:0:
180,258,90967,1,0,0:0:0:0:
102,303,91288,1,2,0:0:0:0:
102,303,91449,1,6,0:0:0:0:
28,251,91769,6,0,P|16:175|63:93,2,150,6|2|10,3:2|0:0|0:0,0:0:0:0:
100,197,93053,2,0,P|140:131|230:100,2,150,2|2|10,0:0|3:2|0:0,0:0:0:0:
125,283,94336,2,0,P|175:277|225:280,1,99.9999999999999,2|0,3:2|3:0,0:0:0:0:
261,307,94818,2,0,P|310:310|360:304,1,99.9999999999999,2|0,0:0|0:0,0:0:0:0:
399,282,95299,1,10,0:0:0:0:
415,191,95620,2,0,P|365:185|315:188,1,99.9999999999999,2|0,0:0|0:0,0:0:0:0:
280,215,96102,2,0,P|230:218|180:212,1,99.9999999999999,2|0,3:2|0:0,0:0:0:0:
142,190,96582,1,10,0:0:0:0:
143,104,96903,5,14,3:1:0:0:
143,104,97063,1,2,3:2:0:0:
212,46,97384,2,0,L|330:61,1,99.9999999999999,10|10,0:0|0:0,0:0:0:0:
355,66,97866,1,2,3:2:0:0:
412,134,98186,1,10,0:0:0:0:
362,209,98507,1,10,0:0:0:0:
412,283,98828,5,4,3:0:0:0:
412,283,98989,1,4,3:0:0:0:
333,326,99309,2,0,P|285:314|235:316,1,99.9999999999999,4|12,3:1|0:3,0:0:0:0:
192,328,99791,1,12,0:3:0:0:
106,301,100112,1,12,0:0:0:0:
106,301,100272,2,0,L|101:238,1,50,12|8,0:0|0:0,0:0:0:0:
94,161,100753,5,12,0:0:0:0:
94,161,100914,1,8,0:0:0:0:
37,90,101235,2,0,P|102:69|159:110,1,99.9999999999999,12|10,0:3|0:0,0:0:0:0:
162,109,101716,1,2,3:2:0:0:
227,47,102037,1,10,0:0:0:0:
312,74,102358,1,8,0:0:0:0:
331,161,102678,5,4,3:0:0:0:
331,161,102839,1,4,3:0:0:0:
286,239,103160,2,0,P|334:253|381:238,1,99.9999999999999,4|12,3:1|0:3,0:0:0:0:
419,213,103641,1,12,0:3:0:0:
460,133,103962,1,12,0:0:0:0:
460,133,104122,2,0,L|445:58,1,50,12|8,0:0|0:0,0:0:0:0:
433,0,104604,5,4,0:0:0:0:
