osu file format v14

[General]
AudioFilename: audio.ogg
AudioLeadIn: 0
PreviewTime: 52761
Countdown: 1
SampleSet: Soft
StackLeniency: 0.4
Mode: 0
LetterboxInBreaks: 0
WidescreenStoryboard: 1

[Editor]
Bookmarks: 10969,16187,21404,26674,31839,37056,42274,71080,71561,71802,72123,72604,73246,73406,73807,74209,74770,75171,75813,75973,104449
DistanceSpacing: 0.5
BeatDivisor: 12
GridSize: 32
TimelineZoom: 2

[Metadata]
Title:Sentou! Giratina
TitleUnicode:戦闘!ギラティナ
Artist:Ichinose Go
ArtistUnicode:一之瀬剛
Creator:ZinedineZidane
Version:Hard
Source:ポケットモンスター プラチナ
Tags:pokémon pokemon pocket monster platinum thiev video game instrumental junichi masuda
BeatmapID:2117709
BeatmapSetID:991897

[Difficulty]
HPDrainRate:4
CircleSize:3.5
OverallDifficulty:6
ApproachRate:8
SliderMultiplier:1.1
SliderTickRate:1

[Events]
//Background and Video events
0,0,"Untitled.jpg",0,0
//Break Periods
2,3505,4755
2,16549,20816
2,53070,64068
//Storyboard Layer 0 (Background)
//Storyboard Layer 1 (Fail)
//Storyboard Layer 2 (Pass)
//Storyboard Layer 3 (Foreground)
//Storyboard Layer 4 (Overlay)
//Storyboard Sound Samples

[TimingPoints]
697,326.086956521739,4,2,1,100,1,0
914,-100,4,2,1,80,0,0
1240,-100,4,2,1,60,0,0
1566,-100,4,2,1,40,0,0
1892,-100,4,2,1,20,0,0
5914,-100,4,2,1,50,0,0
9338,-100,4,2,1,60,0,0
10479,-100,4,2,1,70,0,0
10805,-100,4,2,1,80,0,0
11131,-95.2380952380952,4,2,1,70,0,0
16349,-95.2380952380952,4,2,2,40,0,0
17653,-95.2380952380952,4,2,1,20,0,0
17979,-95.2380952380952,4,2,1,40,0,0
21566,-95.2380952380952,4,2,2,50,0,0
22381,-95.2380952380952,4,2,1,50,0,0
26294,-95.2380952380952,4,2,3,55,0,0
26376,-95.2380952380952,4,2,1,5,0,0
26457,-95.2380952380952,4,2,3,55,0,0
26539,-95.2380952380952,4,2,1,5,0,0
26620,-95.2380952380952,4,2,3,55,0,0
26783,-95.2380952380952,4,2,2,70,0,0
28332,-95.2380952380952,4,2,2,5,0,0
28414,-95.2380952380952,4,2,2,70,0,0
28495,-95.2380952380952,4,2,2,5,0,0
28577,-95.2380952380952,4,2,2,70,0,0
30941,-95.2380952380952,4,2,2,5,0,0
31023,-95.2380952380952,4,2,2,70,0,0
31104,-95.2380952380952,4,2,2,5,0,0
31186,-95.2380952380952,4,2,2,70,0,0
32001,-95.2380952380952,4,2,3,60,0,0
32245,-95.2380952380952,4,2,3,5,0,0
32327,-95.2380952380952,4,2,3,60,0,0
32735,-95.2380952380952,4,2,3,5,0,0
32816,-95.2380952380952,4,2,3,60,0,0
33713,-95.2380952380952,4,2,3,5,0,0
33794,-95.2380952380952,4,2,3,60,0,0
34854,-95.2380952380952,4,2,3,5,0,0
34936,-95.2380952380952,4,2,3,60,0,0
35343,-95.2380952380952,4,2,3,5,0,0
35425,-95.2380952380952,4,2,3,60,0,0
37218,-95.2380952380952,4,2,2,70,0,0
38767,-95.2380952380952,4,2,2,5,0,0
38849,-95.2380952380952,4,2,2,70,0,0
38930,-95.2380952380952,4,2,2,5,0,0
39012,-95.2380952380952,4,2,2,70,0,0
41376,-95.2380952380952,4,2,2,5,0,0
41457,-95.2380952380952,4,2,2,70,0,0
41539,-95.2380952380952,4,2,2,5,0,0
41620,-95.2380952380952,4,2,2,70,0,0
42436,-95.2380952380952,4,2,3,60,0,0
42680,-95.2380952380952,4,2,3,5,0,0
42762,-95.2380952380952,4,2,3,60,0,0
43169,-95.2380952380952,4,2,3,5,0,0
43251,-95.2380952380952,4,2,3,60,0,0
43658,-95.2380952380952,4,2,3,5,0,0
43740,-95.2380952380952,4,2,3,60,0,0
45289,-95.2380952380952,4,2,3,5,0,0
45370,-95.2380952380952,4,2,3,60,0,0
45778,-95.2380952380952,4,2,3,5,0,0
45860,-95.2380952380952,4,2,3,60,0,0
46512,-95.2380952380952,4,2,3,40,0,0
46838,-95.2380952380952,4,2,3,48,0,0
47164,-95.2380952380952,4,2,3,56,0,0
47490,-95.2380952380952,4,2,3,64,0,0
47653,-95.2380952380952,4,2,1,70,0,0
52870,-95.2380952380952,4,2,1,50,0,0
56783,323.101777059774,4,2,1,50,1,0
58073,326.086956521739,4,2,1,50,1,0
58725,355.029585798817,4,2,1,50,1,0
59080,-100,4,2,1,40,0,0
59257,-100,4,2,1,30,0,0
59435,366.97247706422,4,2,1,20,1,0
59526,-100,4,2,1,5,0,0
59618,-100,4,2,1,30,0,0
59710,-100,4,2,1,5,0,0
59801,-100,4,2,1,40,0,0
59893,-100,4,2,1,5,0,0
59985,-100,4,2,1,50,0,0
60072,-100,4,2,1,5,0,0
60170,388.349514563107,4,2,1,60,1,0
60267,-100,4,2,1,5,0,0
60364,-100,4,2,1,70,0,0
60461,-100,4,2,1,5,0,0
60558,-100,4,2,1,80,0,0
60655,-100,4,2,1,5,0,0
60752,-100,4,2,1,90,0,0
60849,-100,4,2,1,5,0,0
60948,322.58064516129,4,2,1,100,1,0
64818,320.855614973262,4,2,1,50,1,0
65780,-100,4,2,1,60,0,0
71235,-100,4,2,1,70,0,0
81502,-100,4,2,2,80,0,1
82465,-111.111111111111,4,2,1,60,0,0
83668,-111.111111111111,4,2,1,5,0,0
83748,-100,4,2,1,60,0,0
83989,-100,4,2,1,5,0,0
84069,-100,4,2,1,70,0,0
86636,-100,4,2,2,80,0,1
87598,-111.111111111111,4,2,1,60,0,0
88721,-99.9999999999999,4,2,1,60,0,0
89203,-99.9999999999999,4,2,1,70,0,0
91689,-99.9999999999999,4,2,1,5,0,0
91769,-111.111111111111,4,2,3,30,0,0
93053,-111.111111111111,4,2,1,40,0,0
94336,-99.9999999999999,4,2,1,50,0,0
95620,-99.9999999999999,4,2,1,60,0,0
96582,-99.9999999999999,4,2,1,40,0,0
96662,-99.9999999999999,4,2,1,50,0,0
96743,-99.9999999999999,4,2,1,60,0,0
96823,-99.9999999999999,4,2,1,70,0,0
96903,-90.9090909090908,4,2,1,80,0,1
98908,-90.9090909090908,4,2,1,5,0,1
98989,-90.9090909090908,4,2,1,80,0,1
99069,-90.9090909090908,4,2,1,5,0,1
99149,-90.9090909090908,4,2,1,80,0,1
99229,-90.9090909090908,4,2,1,5,0,1
99309,-90.9090909090908,4,2,2,80,0,1
99550,-90.9090909090908,4,2,1,5,0,1
99630,-90.9090909090908,4,2,2,80,0,1
99711,-90.9090909090908,4,2,2,5,0,1
99791,-90.9090909090908,4,2,2,80,0,1
99871,-90.9090909090908,4,2,2,5,0,1
99951,-90.9090909090908,4,2,2,80,0,1
100031,-90.9090909090908,4,2,2,5,0,1
100112,-90.9090909090908,4,2,1,80,0,1
100192,-90.9090909090908,4,2,1,5,0,1
100272,-90.9090909090908,4,2,4,80,0,1
100753,-90.9090909090908,4,2,2,80,0,1
102037,-90.9090909090908,4,2,1,80,0,1
102759,-90.9090909090908,4,2,1,5,0,1
102839,-90.9090909090908,4,2,1,80,0,1
102919,-90.9090909090908,4,2,1,5,0,1
102999,-90.9090909090908,4,2,1,80,0,1
103080,-90.9090909090908,4,2,1,5,0,1
103160,-90.9090909090908,4,2,2,80,0,1
103400,-90.9090909090908,4,2,1,5,0,1
103481,-90.9090909090908,4,2,2,80,0,1
103561,-90.9090909090908,4,2,2,5,0,1
103641,-90.9090909090908,4,2,2,80,0,1
103721,-90.9090909090908,4,2,2,5,0,1
103801,-90.9090909090908,4,2,2,80,0,1
103882,-90.9090909090908,4,2,2,5,0,1
103962,-90.9090909090908,4,2,1,80,0,1
104042,-90.9090909090908,4,2,1,5,0,1
104122,-90.9090909090908,4,2,4,80,0,1
104604,-90.9090909090908,4,2,3,60,0,0

[Colours]
Combo1 : 58,175,164
Combo2 : 247,189,17
Combo3 : 126,40,213
Combo4 : 244,23,41
Combo5 : 138,132,166

[HitObjects]
256,192,697,12,2,3305,0:0:0:0:
433,335,5914,6,0,P|449:279|438:220,1,110,2|2,0:0|0:0,0:0:0:0:
406,161,6403,1,2,0:0:0:0:
406,161,6566,1,0,0:0:0:0:
342,215,6729,2,0,L|274:211,1,55,2|0,0:0|0:0,0:0:0:0:
211,204,7055,1,2,0:0:0:0:
156,140,7218,6,0,P|127:196|141:253,1,110,2|2,0:0|0:0,0:0:0:0:
181,306,7707,2,0,L|235:309,1,55,2|0,0:0|0:0,0:0:0:0:
122,361,8033,2,0,L|67:364,1,55,2|0,0:0|0:0,0:0:0:0:
0,318,8360,1,2,0:0:0:0:
18,234,8523,6,0,L|7:101,1,110,2|2,0:0|0:0,0:0:0:0:
1,48,9012,1,2,0:0:0:0:
1,48,9175,1,0,0:0:0:0:
84,83,9338,2,0,L|88:24,2,55,2|0|2,0:0|0:0|0:0,0:0:0:0:
95,165,9827,6,0,P|145:143|200:147,1,110,2|2,0:0|0:0,0:0:0:0:
269,187,10316,1,0,0:0:0:0:
277,105,10479,1,2,0:0:0:0:
277,105,10561,1,0,0:0:0:0:
277,105,10642,1,0,0:0:0:0:
350,151,10805,2,0,L|386:147,3,27.5,2|0|0|0,0:0|0:0|0:0|0:0,0:0:0:0:
400,167,11131,6,0,P|423:219|413:275,1,115.49999647522,4|2,3:2|3:2,0:0:0:0:
363,332,11620,2,0,L|302:328,1,57.7499982376099,2|0,0:0|3:0,0:0:0:0:
243,279,11946,2,0,L|185:282,1,57.7499982376099,2|0,0:0|3:0,0:0:0:0:
116,328,12273,1,2,0:0:0:0:
42,280,12436,6,0,P|63:226|103:185,1,115.49999647522,2|2,3:2|3:2,0:0:0:0:
176,153,12925,2,0,L|233:157,1,57.7499982376099,2|0,0:0|3:0,0:0:0:0:
299,201,13250,2,0,L|356:196,1,57.7499982376099,2|0,0:0|3:0,0:0:0:0:
431,168,13577,1,2,0:0:0:0:
461,87,13740,6,0,P|421:69|346:73,1,115.49999647522,2|0,3:2|3:0,0:0:0:0:
282,106,14229,2,0,L|204:101,1,57.7499982376099,2|0,0:0|3:0,0:0:0:0:
146,93,14555,1,2,0:0:0:0:
84,41,14718,1,2,3:2:0:0:
17,86,14881,1,0,0:0:0:0:
79,138,15044,6,0,P|92:193|80:249,1,115.49999647522,2|2,3:2|3:2,0:0:0:0:
48,324,15533,2,0,P|75:333|103:330,1,57.7499982376099,2|0,0:0|3:0,0:0:0:0:
174,296,15860,2,0,P|202:293|229:302,1,57.7499982376099,2|2,0:0|3:2,0:0:0:0:
292,353,16186,1,2,0:0:0:0:
365,313,16349,5,6,3:1:0:0:
121,251,21566,5,6,0:0:0:0:
121,251,21648,1,2,0:0:0:0:
121,251,21729,1,2,0:0:0:0:
50,126,22055,2,0,L|58:53,2,57.7499982376099,2|0|2,0:0|0:0|0:0,0:0:0:0:
0,195,22544,2,0,L|6:252,1,57.7499982376099,0|2,0:0|0:0,0:0:0:0:
66,319,22870,5,2,0:0:0:0:
66,319,22952,1,2,0:0:0:0:
66,318,23033,2,0,P|94:316|123:320,1,57.7499982376099,2|2,0:0|0:0,0:0:0:0:
194,362,23360,2,0,P|222:366|251:363,1,57.7499982376099,2|0,0:0|0:0,0:0:0:0:
319,318,23686,2,0,P|338:264|320:210,1,115.49999647522,2|2,0:0|0:0,0:0:0:0:
257,156,24175,5,2,0:0:0:0:
257,156,24256,1,2,0:0:0:0:
257,156,24338,1,2,0:0:0:0:
366,90,24664,2,0,P|396:90|427:101,2,57.7499982376099,2|0|2,0:0|0:0|0:0,0:0:0:0:
282,119,25153,2,0,P|253:119|225:110,1,57.7499982376099,0|2,0:0|0:0,0:0:0:0:
160,52,25479,5,2,0:0:0:0:
160,52,25561,1,2,0:0:0:0:
160,52,25642,2,0,P|141:79|139:110,1,57.7499982376099,2|2,0:0|0:0,0:0:0:0:
171,176,25968,2,0,P|166:204|149:226,1,57.7499982376099,2|0,0:0|0:0,0:0:0:0:
77,259,26294,1,10,0:0:0:0:
77,259,26457,1,10,0:0:0:0:
117,327,26620,1,8,3:2:0:0:
189,294,26783,5,4,3:1:0:0:
203,292,26865,1,2,0:0:0:0:
217,290,26946,2,0,L|296:301,1,57.7499982376099,10|0,0:0|0:0,0:0:0:0:
351,314,27273,1,2,3:2:0:0:
414,365,27436,1,8,0:0:0:0:
476,311,27599,2,0,L|465:232,1,57.7499982376099,10|2,0:0|3:2,0:0:0:0:
445,173,27925,1,10,0:0:0:0:
366,195,28088,5,10,0:0:0:0:
357,206,28169,1,2,0:0:0:0:
348,217,28251,2,0,L|274:209,1,57.7499982376099,2|2,3:2|0:0,0:0:0:0:
220,178,28577,2,0,L|162:184,1,57.7499982376099,10|0,0:0|3:0,0:0:0:0:
84,200,28903,1,10,0:0:0:0:
45,131,29066,1,2,0:0:0:0:
99,73,29229,1,10,0:0:0:0:
172,106,29392,5,2,3:2:0:0:
183,115,29474,1,2,0:0:0:0:
194,124,29555,2,0,P|221:132|250:130,1,57.7499982376099,10|0,0:0|0:0,0:0:0:0:
326,102,29881,1,2,3:2:0:0:
254,48,30044,1,8,0:0:0:0:
333,15,30207,2,0,P|361:12|389:20,1,57.7499982376099,10|2,0:0|3:2,0:0:0:0:
459,74,30533,1,10,0:0:0:0:
401,140,30696,5,2,0:0:0:0:
399,154,30778,1,2,0:0:0:0:
396,168,30860,2,0,L|407:248,1,57.7499982376099,10|2,3:2|0:0,0:0:0:0:
327,268,31186,2,0,L|317:197,1,57.7499982376099,10|0,0:0|3:0,0:0:0:0:
296,133,31512,1,10,0:0:0:0:
238,195,31675,1,2,0:0:0:0:
216,118,31838,1,10,0:0:0:0:
216,118,32001,6,0,P|161:100|107:117,1,115.49999647522,2|0,3:2|3:0,0:0:0:0:
51,185,32490,2,0,P|105:202|159:185,1,115.49999647522,10|8,3:2|0:0,0:0:0:0:
216,118,32979,2,0,P|270:100|324:117,1,115.49999647522,2|8,3:2|0:0,0:0:0:0:
381,184,33468,2,0,P|326:201|272:184,1,115.49999647522,2|8,3:2|0:0,0:0:0:0:
324,117,33957,2,0,P|349:101|388:101,1,57.7499982376099,2|8,3:2|0:0,0:0:0:0:
454,119,34283,2,0,P|470:144|470:183,1,57.7499982376099,2|8,3:2|0:0,0:0:0:0:
486,272,34610,6,0,P|440:259|376:286,1,115.49999647522,2|0,3:2|0:0,0:0:0:0:
318,343,35099,2,0,P|266:366|210:354,1,115.49999647522,10|8,3:2|0:0,0:0:0:0:
142,309,35588,2,0,L|151:233,1,57.7499982376099,2|0,3:2|0:0,0:0:0:0:
218,205,35914,6,0,L|242:150,2,38.4999988250733,2|0|2,3:2|0:0|0:0,0:0:0:0:
260,160,36240,2,0,L|284:105,2,38.4999988250733,10|0|2,0:0|0:0|0:0,0:0:0:0:
306,98,36566,2,0,P|346:93|383:110,1,57.7499982376099,2|8,3:2|0:0,0:0:0:0:
240,43,36892,2,0,P|200:38|163:55,1,57.7499982376099,4|8,0:0|0:0,0:0:0:0:
108,86,37218,5,4,0:1:0:0:
102,99,37300,1,2,0:0:0:0:
96,112,37381,2,0,L|107:188,1,57.7499982376099,2|0,0:0|0:0,0:0:0:0:
120,253,37707,1,10,0:0:0:0:
186,201,37870,1,0,0:0:0:0:
253,255,38033,2,0,P|281:258|309:252,1,57.7499982376099,10|2,0:0|0:0,0:0:0:0:
382,213,38360,1,10,0:0:0:0:
408,132,38523,5,2,3:2:0:0:
399,120,38604,1,2,0:0:0:0:
390,108,38686,2,0,L|307:99,1,57.7499982376099,10|2,0:0|0:0,0:0:0:0:
265,58,39012,2,0,L|207:64,1,57.7499982376099,10|0,0:0|0:0,0:0:0:0:
139,110,39338,1,10,0:0:0:0:
78,54,39501,1,10,0:0:0:0:
10,100,39664,1,10,0:0:0:0:
71,156,39827,5,6,3:2:0:0:
78,168,39909,1,0,0:0:0:0:
84,180,39990,2,0,L|80:251,1,57.7499982376099,8|0,0:0|0:0,0:0:0:0:
47,318,40316,1,10,0:0:0:0:
127,354,40479,1,0,0:0:0:0:
195,297,40642,2,0,P|224:290|252:296,1,57.7499982376099,10|2,0:0|0:0,0:0:0:0:
326,341,40968,1,10,0:0:0:0:
387,273,41131,5,2,3:2:0:0:
382,259,41213,1,2,0:0:0:0:
378,245,41294,2,0,L|306:234,1,57.7499982376099,10|2,0:0|0:0,0:0:0:0:
248,188,41620,2,0,L|190:196,1,57.7499982376099,10|2,0:0|3:2,0:0:0:0:
109,238,41946,1,10,0:0:0:0:
57,165,42110,1,10,0:0:0:0:
110,92,42273,1,10,0:0:0:0:
109,92,42436,6,0,P|165:78|222:86,1,115.49999647522,2|0,3:2|0:0,0:0:0:0:
296,136,42925,2,0,P|352:143|408:130,1,115.49999647522,10|8,3:2|0:0,0:0:0:0:
404,24,43414,2,0,P|347:16|291:29,1,115.49999647522,2|0,3:2|0:0,0:0:0:0:
222,86,43903,2,0,P|166:99|109:91,1,115.49999647522,10|8,3:2|0:0,0:0:0:0:
35,40,44392,2,0,P|21:65|20:93,1,57.7499982376099,2|8,3:2|0:0,0:0:0:0:
65,167,44718,2,0,P|63:195|49:220,1,57.7499982376099,2|8,3:2|0:0,0:0:0:0:
0,291,45044,6,0,P|54:307|105:283,1,115.49999647522,2|0,3:2|0:0,0:0:0:0:
161,221,45533,2,0,P|212:197|266:213,1,115.49999647522,10|8,3:2|0:0,0:0:0:0:
329,283,46023,2,0,L|391:279,1,57.7499982376099,0|10,3:0|0:0,0:0:0:0:
400,276,46267,1,2,0:0:0:0:
414,273,46349,5,0,0:0:0:0:
474,205,46512,2,0,L|465:140,2,57.7499982376099,10|0|10,3:2|0:0|0:0,0:0:0:0:
385,143,47001,2,0,L|389:77,2,57.7499982376099,0|10|0,3:0|0:0|0:0,0:0:0:0:
322,204,47490,1,10,0:0:0:0:
322,204,47571,1,8,0:0:0:0:
322,204,47653,6,0,P|267:188|210:195,1,115.49999647522,2|0,3:2|0:0,0:0:0:0:
111,251,48142,2,0,P|127:195|120:138,1,115.49999647522,10|0,0:0|0:0,0:0:0:0:
77,66,48631,1,10,0:0:0:0:
158,29,48794,2,0,P|215:22|270:38,1,115.49999647522,2|0,0:0|0:0,0:0:0:0:
337,92,49283,1,0,0:0:0:0:
481,31,49610,6,0,L|478:98,1,57.7499982376099,10|0,0:0|3:0,0:0:0:0:
426,160,49936,2,0,L|428:217,1,57.7499982376099,10|0,0:0|3:0,0:0:0:0:
475,299,50262,1,10,0:0:0:0:
380,289,50425,2,0,L|322:291,1,57.7499982376099,10|0,0:0|3:0,0:0:0:0:
240,340,50751,2,0,P|227:284|254:226,1,115.49999647522,10|0,0:0|0:0,0:0:0:0:
306,166,51240,1,0,3:0:0:0:
295,146,51729,6,0,L|232:151,1,57.7499982376099,2|8,3:2|0:0,0:0:0:0:
147,123,52055,1,10,0:0:0:0:
229,70,52218,2,0,L|286:65,1,57.7499982376099,2|8,3:2|0:0,0:0:0:0:
395,42,52544,2,0,P|416:94|406:150,1,115.49999647522,8|4,0:0|3:1,0:0:0:0:
415,119,64818,6,0,L|410:228,1,110,0|0,0:0|0:0,0:0:0:0:
306,322,65459,1,0,3:0:0:0:
306,322,65539,1,0,3:0:0:0:
306,322,65620,1,0,3:0:0:0:
243,237,65780,2,0,L|248:190,3,27.5,8|0|8|0,0:0|3:0|0:0|3:0,0:0:0:0:
265,182,66101,6,0,P|270:154|266:127,1,55,10|0,3:2|0:0,0:0:0:0:
213,57,66422,2,0,P|185:52|158:56,1,55,10|2,3:2|0:0,0:0:0:0:
91,107,66743,1,2,3:2:0:0:
91,107,66823,1,0,0:0:0:0:
91,107,66903,1,8,0:0:0:0:
59,186,67063,2,0,P|55:213|60:240,1,55,10|2,3:2|0:0,0:0:0:0:
106,310,67384,6,0,L|186:303,1,55,10|2,3:2|0:0,0:0:0:0:
235,262,67705,2,0,L|289:266,1,55,2|10,3:2|0:0,0:0:0:0:
370,317,68026,1,2,3:2:0:0:
370,317,68106,1,0,0:0:0:0:
370,317,68186,1,10,0:0:0:0:
433,245,68347,2,0,L|422:166,1,55,2|10,3:2|0:0,0:0:0:0:
442,100,68668,6,0,P|414:97|388:105,1,55,10|0,3:2|0:0,0:0:0:0:
335,176,68989,2,0,P|308:183|281:181,1,55,10|2,3:2|0:0,0:0:0:0:
211,128,69309,1,2,3:2:0:0:
211,128,69390,1,0,0:0:0:0:
211,128,69470,1,8,0:0:0:0:
267,53,69630,2,0,P|293:45|320:47,1,55,10|2,3:2|0:0,0:0:0:0:
189,17,69951,6,0,P|162:9|135:11,1,55,10|2,3:2|0:0,0:0:0:0:
69,68,70272,2,0,P|61:94|63:121,1,55,2|10,3:2|0:0,0:0:0:0:
117,192,70593,1,2,3:2:0:0:
117,192,70673,1,0,0:0:0:0:
117,192,70753,1,10,0:0:0:0:
57,262,70914,2,0,P|50:288|52:315,1,55,2|10,3:2|0:0,0:0:0:0:
142,356,71235,6,0,P|195:343|249:347,1,110,10|10,3:2|3:2,0:0:0:0:
345,384,71716,1,2,0:0:0:0:
345,384,71796,1,0,0:0:0:0:
344,384,71876,2,0,P|349:329|326:280,1,110,2|10,3:2|3:2,0:0:0:0:
316,270,72277,2,0,P|293:220|297:166,1,110,2|0,0:0|0:0,0:0:0:0:
305,155,72678,1,0,0:0:0:0:
315,144,72759,2,0,P|355:138|395:146,1,82.5,0|10,0:0|0:0,0:0:0:0:
471,199,73160,1,2,3:2:0:0:
508,98,73320,6,0,P|479:77|428:67,1,82.5,2|2,0:0|0:0,0:0:0:0:
419,67,73641,1,8,0:0:0:0:
405,69,73721,1,10,0:0:0:0:
391,71,73801,6,0,P|359:63|317:64,1,55,10|2,3:2|0:0,0:0:0:0:
258,91,74122,2,0,P|230:89|204:81,1,55,10|2,3:2|0:0,0:0:0:0:
191,74,74363,2,0,P|178:114|178:155,1,82.5,0|8,0:0|0:0,0:0:0:0:
229,254,74764,1,10,3:2:0:0:
229,254,74844,1,2,0:0:0:0:
229,254,74924,6,0,P|174:237|107:253,1,110,2|2,0:0|0:0,0:0:0:0:
110,251,75326,2,0,P|102:304|118:356,1,110,0|0,0:0|0:0,0:0:0:0:
130,364,75727,1,2,3:2:0:0:
216,379,75887,2,0,L|301:363,1,82.5,10|0,0:0|0:0,0:0:0:0:
310,361,76208,1,8,0:0:0:0:
323,358,76288,1,8,0:0:0:0:
336,355,76368,6,0,P|350:331|355:304,1,55,10|2,3:2|0:0,0:0:0:0:
329,222,76689,2,0,P|333:194|347:171,1,55,10|2,3:2|0:0,0:0:0:0:
419,126,77010,2,0,L|460:136,4,27.5,2|2|10|2|10,3:2|0:0|0:0|0:0|3:2,0:0:0:0:
356,56,77491,1,2,0:0:0:0:
356,56,77572,1,0,0:0:0:0:
356,56,77652,6,0,L|280:49,1,55,10|2,3:2|0:0,0:0:0:0:
222,9,77973,2,0,L|167:14,1,55,2|10,3:2|0:0,0:0:0:0:
80,44,78293,2,0,L|34:41,4,27.5,2|2|10|2|2,3:2|0:0|0:0|0:0|3:2,0:0:0:0:
151,110,78775,1,8,0:0:0:0:
151,110,78855,1,8,0:0:0:0:
151,110,78935,6,0,P|156:146|147:179,1,55,10|2,3:2|0:0,0:0:0:0:
113,240,79256,2,0,P|109:267|114:294,1,55,10|2,3:2|0:0,0:0:0:0:
177,354,79577,2,0,L|189:395,4,27.5,2|2|10|2|10,3:2|0:0|0:0|0:0|3:2,0:0:0:0:
232,282,80058,1,2,0:0:0:0:
232,282,80138,1,0,0:0:0:0:
232,282,80219,6,0,L|307:288,1,55,10|2,3:2|0:0,0:0:0:0:
369,323,80539,2,0,L|423:318,1,55,2|2,3:2|3:2,0:0:0:0:
489,264,80860,2,0,L|516:260,4,27.5,2|2|2|2|6,3:2|0:0|3:2|0:0|3:2,0:0:0:0:
409,208,81342,1,0,3:0:0:0:
471,137,81502,6,0,L|483:98,3,27.5,6|2|2|2,3:1|0:0|0:0|0:0,0:0:0:0:
458,85,81823,2,0,L|446:46,3,27.5,2|2|2|2,0:0|0:0|3:2|0:0,0:0:0:0:
429,36,82144,1,2,0:0:0:0:
415,38,82224,1,2,0:0:0:0:
401,40,82304,1,2,0:0:0:0:
387,43,82384,1,2,0:0:0:0:
370,46,82465,2,0,P|299:28|227:42,2,148.49999546814,2|0|2,3:2|3:0|3:2,0:0:0:0:
248,129,83748,2,0,P|221:133|194:127,1,55,2|0,3:2|0:0,0:0:0:0:
126,76,84069,6,0,P|99:69|72:74,1,55,2|0,0:0|0:0,0:0:0:0:
7,125,84390,1,2,0:0:0:0:
71,175,84550,2,0,P|101:221|100:275,1,110,2|0,0:0|0:0,0:0:0:0:
52,343,85031,1,2,0:0:0:0:
131,375,85192,1,0,0:0:0:0:
184,314,85352,1,2,0:0:0:0:
184,314,85432,1,0,0:0:0:0:
184,314,85513,2,0,L|260:321,1,55,2|2,0:0|0:0,0:0:0:0:
318,365,85834,2,0,L|427:354,1,110,2|0,0:0|0:0,0:0:0:0:
494,294,86315,2,0,L|488:239,1,55,2|0,0:0|0:0,0:0:0:0:
433,161,86636,6,0,L|383:158,3,27.5,6|2|2|2,3:1|0:0|0:0|0:0,0:0:0:0:
375,145,86957,2,0,L|347:146,3,27.5,2|2|2|2,0:0|0:0|3:2|0:0,0:0:0:0:
320,165,87277,1,2,0:0:0:0:
306,167,87358,1,2,0:0:0:0:
292,169,87438,1,2,0:0:0:0:
278,171,87518,1,2,0:0:0:0:
264,173,87598,2,0,B|210:120|210:120|226:36,2,148.49999546814,2|0|0,3:2|3:0|3:0,0:0:0:0:
348,189,88721,2,0,P|327:234|269:260,1,110,2|0,0:0|0:0,0:0:0:0:
196,226,89203,6,0,P|169:220|141:224,1,55,2|0,0:0|0:0,0:0:0:0:
68,262,89523,1,2,0:0:0:0:
13,209,89684,1,2,0:0:0:0:
13,209,89764,1,0,0:0:0:0:
13,209,89844,1,2,0:0:0:0:
51,133,90005,2,0,P|78:124|105:126,1,55,2|0,0:0|0:0,0:0:0:0:
186,153,90326,6,0,P|241:152|291:131,1,110,2|0,0:0|0:0,0:0:0:0:
361,82,90807,2,0,P|402:72|425:75,1,55,2|0,0:0|0:0,0:0:0:0:
501,115,91128,1,2,0:0:0:0:
501,115,91208,1,0,0:0:0:0:
501,115,91288,1,2,0:0:0:0:
421,157,91449,2,0,P|418:185|423:212,1,55,6|0,0:0|0:0,0:0:0:0:
449,290,91769,6,0,P|401:303|353:294,1,98.9999969787599,6|0,3:2|3:0,0:0:0:0:
277,258,92251,2,0,P|228:249|181:261,1,98.9999969787599,2|0,0:0|0:0,0:0:0:0:
107,317,92732,1,10,0:0:0:0:
107,317,92892,1,0,0:0:0:0:
107,317,93053,2,0,P|92:269|102:221,1,98.9999969787599,2|0,0:0|0:0,0:0:0:0:
154,152,93534,2,0,L|274:170,1,98.9999969787599,2|0,3:2|0:0,0:0:0:0:
340,181,94015,1,10,0:0:0:0:
340,181,94176,1,8,0:0:0:0:
340,181,94336,6,0,B|354:232|354:232|327:282,1,110,2|0,3:2|3:0,0:0:0:0:
239,267,94818,2,0,B|224:215|224:215|251:165,1,110,2|0,0:0|0:0,0:0:0:0:
299,98,95299,1,10,0:0:0:0:
299,98,95459,1,8,0:0:0:0:
299,98,95620,2,0,B|335:60|335:60|392:60,1,110,2|0,0:0|0:0,0:0:0:0:
474,65,96101,2,0,B|512:101|512:101|512:158,1,110,2|0,3:2|0:0,0:0:0:0:
431,194,96582,2,0,L|420:169,3,27.5,10|2|10|2,0:0|0:0|0:0|0:0,0:0:0:0:
414,213,96903,6,0,P|384:210|354:214,1,60.5000018463135,14|2,3:1|3:2,0:0:0:0:
276,246,97224,1,2,3:2:0:0:
243,326,97384,2,0,P|235:266|199:219,1,121.000003692627,10|10,0:0|0:0,0:0:0:0:
109,188,97866,1,2,3:2:0:0:
115,274,98026,1,2,3:2:0:0:
29,232,98186,2,0,P|18:205|20:175,1,60.5000018463135,10|0,0:0|3:0,0:0:0:0:
66,105,98507,2,0,P|93:94|123:96,1,60.5000018463135,10|8,0:0|0:0,0:0:0:0:
213,117,98828,5,4,3:0:0:0:
266,193,98989,1,4,3:0:0:0:
360,185,99149,1,4,3:0:0:0:
393,97,99309,2,0,P|348:91|307:108,1,90.7500027694703,4|0,3:1|0:0,0:0:0:0:
297,119,99630,5,12,0:3:0:0:
272,207,99791,1,12,0:3:0:0:
335,273,99951,1,12,0:3:0:0:
310,361,100112,1,12,0:0:0:0:
247,295,100272,2,0,L|172:313,2,60.5000018463135,12|8|8,0:0|0:0|0:0,0:0:0:0:
335,273,100753,6,0,L|393:258,1,60.5000018463135,12|8,0:0|0:0,0:0:0:0:
479,228,101074,1,8,0:0:0:0:
399,171,101235,2,0,P|339:169|285:195,1,121.000003692627,12|10,0:3|0:0,0:0:0:0:
239,274,101716,1,2,3:2:0:0:
170,215,101876,1,2,3:2:0:0:
216,136,102037,2,0,P|210:93|192:71,1,60.5000018463135,10|0,0:0|0:0,0:0:0:0:
113,87,102358,2,0,P|104:116|109:146,1,60.5000018463135,8|8,0:0|0:0,0:0:0:0:
170,215,102678,5,4,3:0:0:0:
88,262,102839,1,4,3:0:0:0:
26,192,102999,1,4,3:0:0:0:
108,145,103160,2,0,P|151:134|196:139,1,90.7500027694703,4|0,3:1|0:0,0:0:0:0:
210,145,103481,5,12,0:3:0:0:
266,219,103641,1,12,0:3:0:0:
303,134,103801,1,12,0:3:0:0:
359,208,103962,1,12,0:0:0:0:
321,293,104122,2,0,L|246:301,2,60.5000018463135,12|8|8,0:0|0:0|0:0,0:0:0:0:
413,285,104604,5,4,0:0:0:0:
