osu file format v14

[General]
AudioFilename: audio.ogg
AudioLeadIn: 0
PreviewTime: 52761
Countdown: 1
SampleSet: Soft
StackLeniency: 0.2
Mode: 0
LetterboxInBreaks: 0
WidescreenStoryboard: 0

[Editor]
Bookmarks: 10969,16187,21404,26674,31839,37056,42274,71080,71561,71802,72123,72604,73246,73406,73807,74209,74770,75171,75813,75973,104449
DistanceSpacing: 0.4
BeatDivisor: 4
GridSize: 16
TimelineZoom: 2

[Metadata]
Title:Sentou! Giratina
TitleUnicode:戦闘!ギラティナ
Artist:Ichinose Go
ArtistUnicode:一之瀬剛
Creator:ZinedineZidane
Version:Extreme
Source:ポケットモンスター プラチナ
Tags:pokémon pokemon pocket monster platinum thiev video game instrumental junichi masuda
BeatmapID:2074342
BeatmapSetID:991897

[Difficulty]
HPDrainRate:6
CircleSize:4
OverallDifficulty:9
ApproachRate:9.4
SliderMultiplier:1.8
SliderTickRate:1

[Events]
//Background and Video events
0,0,"Untitled.jpg",0,0
//Break Periods
2,3505,5235
2,61146,64139
//Storyboard Layer 0 (Background)
//Storyboard Layer 1 (Fail)
//Storyboard Layer 2 (Pass)
//Storyboard Layer 3 (Foreground)
//Storyboard Layer 4 (Overlay)
//Storyboard Sound Samples

[TimingPoints]
697,326.086956521739,4,2,1,100,1,0
914,-100,4,2,1,80,0,0
1240,-100,4,2,1,60,0,0
1566,-100,4,2,1,40,0,0
1892,-100,4,2,1,20,0,0
5914,-142.857142857143,4,2,1,50,0,0
9338,-111.111111111111,4,2,1,60,0,0
10479,-111.111111111111,4,2,1,70,0,0
10805,-111.111111111111,4,2,1,80,0,0
11131,-100,4,2,1,70,0,0
16349,-100,4,2,2,40,0,0
17653,-100,4,2,1,20,0,0
17979,-100,4,2,1,40,0,0
21566,-100,4,2,2,50,0,0
22381,-117.647058823529,4,2,1,50,0,0
26294,-100,4,2,3,55,0,0
26376,-100,4,2,1,5,0,0
26457,-100,4,2,3,55,0,0
26539,-100,4,2,1,5,0,0
26620,-100,4,2,3,55,0,0
26783,-83.3333333333333,4,2,2,70,0,1
26946,-83.3333333333333,4,2,2,70,0,0
28332,-83.3333333333333,4,2,2,5,0,0
28414,-83.3333333333333,4,2,2,70,0,0
28495,-83.3333333333333,4,2,2,5,0,0
28577,-83.3333333333333,4,2,2,70,0,0
30941,-83.3333333333333,4,2,2,5,0,0
31023,-83.3333333333333,4,2,2,70,0,0
31104,-83.3333333333333,4,2,2,5,0,0
31186,-83.3333333333333,4,2,2,70,0,0
32001,-100,4,2,3,60,0,0
32245,-100,4,2,3,5,0,0
32327,-100,4,2,3,60,0,0
32735,-100,4,2,3,5,0,0
32816,-100,4,2,3,60,0,0
33713,-100,4,2,3,5,0,0
33794,-100,4,2,3,60,0,0
34854,-100,4,2,3,5,0,0
34936,-100,4,2,3,60,0,0
35343,-100,4,2,3,5,0,0
35425,-100,4,2,3,60,0,0
36892,-100,4,2,3,60,0,0
37218,-83.3333333333333,4,2,2,70,0,1
37381,-83.3333333333333,4,2,2,70,0,0
38767,-83.3333333333333,4,2,2,5,0,0
38849,-83.3333333333333,4,2,2,70,0,0
38930,-83.3333333333333,4,2,2,5,0,0
39012,-83.3333333333333,4,2,2,70,0,0
41376,-83.3333333333333,4,2,2,5,0,0
41457,-83.3333333333333,4,2,2,70,0,0
41539,-83.3333333333333,4,2,2,5,0,0
41620,-83.3333333333333,4,2,2,70,0,0
42436,-100,4,2,3,60,0,0
42680,-100,4,2,3,5,0,0
42762,-100,4,2,3,60,0,0
43169,-100,4,2,3,5,0,0
43251,-100,4,2,3,60,0,0
43658,-100,4,2,3,5,0,0
43740,-100,4,2,3,60,0,0
45289,-100,4,2,3,5,0,0
45370,-100,4,2,3,60,0,0
45778,-100,4,2,3,5,0,0
45860,-100,4,2,3,60,0,0
46512,-100,4,2,3,40,0,0
46838,-100,4,2,3,48,0,0
47164,-100,4,2,3,56,0,0
47490,-100,4,2,3,64,0,0
47653,-90.9090909090909,4,2,1,70,0,0
51729,-83.3333333333333,4,2,1,70,0,0
52870,-111.111111111111,4,2,1,50,0,0
56783,323.101777059774,4,2,1,50,1,0
58073,326.086956521739,4,2,1,50,1,0
58725,355.029585798817,4,2,1,50,1,0
59080,-100,4,2,1,40,0,0
59257,-100,4,2,1,30,0,0
59435,366.97247706422,4,2,1,20,1,0
59526,-100,4,2,1,5,0,0
59618,-100,4,2,1,30,0,0
59710,-100,4,2,1,5,0,0
59801,-100,4,2,1,40,0,0
59893,-100,4,2,1,5,0,0
59985,-100,4,2,1,50,0,0
60072,-100,4,2,1,5,0,0
60170,388.349514563107,4,2,1,60,1,0
60267,-100,4,2,1,5,0,0
60364,-100,4,2,1,70,0,0
60461,-100,4,2,1,5,0,0
60558,-100,4,2,1,80,0,0
60655,-100,4,2,1,5,0,0
60752,-100,4,2,1,90,0,0
60849,-100,4,2,1,5,0,0
60948,322.58064516129,4,2,1,100,1,0
64818,320.855614973262,4,2,1,50,1,0
65780,-100,4,2,1,60,0,0
66101,-83.3333333333333,4,2,1,60,0,0
71235,-83.3333333333333,4,2,1,70,0,0
81502,-83.3333333333333,4,2,2,80,0,1
82465,-83.3333333333333,4,2,1,60,0,0
83427,-166.666666666667,4,2,1,60,0,0
83668,-166.666666666667,4,2,1,5,0,0
83748,-66.6666666666667,4,2,1,60,0,0
83989,-66.6666666666667,4,2,1,5,0,0
84069,-90.9090909090909,3,2,1,70,0,0
84550,-142.857142857143,3,2,1,70,0,0
85031,-90.9090909090909,3,2,1,70,0,0
86636,-83.3333333333333,3,2,2,80,0,1
87598,-90.9090909090909,3,2,1,60,0,0
88721,-66.6666666666667,3,2,1,60,0,0
89203,-90.9090909090909,3,2,1,70,0,0
90326,-142.857142857143,3,2,1,70,0,0
91449,-66.6666666666667,3,2,1,70,0,0
91689,-66.6666666666667,3,2,1,5,0,0
91769,-125,3,2,3,30,0,0
93053,-111.111111111111,3,2,1,40,0,0
94336,-100,3,2,1,50,0,0
95620,-90.9090909090909,3,2,1,60,0,0
96582,-90.9090909090909,3,2,1,40,0,0
96662,-90.9090909090909,3,2,1,50,0,0
96743,-90.9090909090909,3,2,1,60,0,0
96823,-90.9090909090909,3,2,1,70,0,0
96903,-76.9230769230769,4,2,1,80,0,1
97384,-114.942528735632,4,2,1,80,0,1
98186,-76.9230769230769,4,2,1,80,0,1
98828,-58.8235294117647,4,2,1,80,0,1
98908,-58.8235294117647,4,2,1,5,0,1
98989,-58.8235294117647,4,2,1,80,0,1
99069,-58.8235294117647,4,2,1,5,0,1
99149,-58.8235294117647,4,2,1,80,0,1
99229,-58.8235294117647,4,2,1,5,0,1
99309,-114.942528735632,4,2,2,80,0,1
99550,-114.942528735632,4,2,1,5,0,1
99630,-58.8235294117647,4,2,2,80,0,1
99711,-58.8235294117647,4,2,2,5,0,1
99791,-58.8235294117647,4,2,2,80,0,1
99871,-58.8235294117647,4,2,2,5,0,1
99951,-58.8235294117647,4,2,2,80,0,1
100031,-58.8235294117647,4,2,2,5,0,1
100112,-58.8235294117647,4,2,1,80,0,1
100192,-58.8235294117647,4,2,1,5,0,1
100272,-76.9230769230769,4,2,4,80,0,1
100753,-76.9230769230769,4,2,2,80,0,1
101235,-114.942528735632,4,2,2,80,0,1
102037,-76.9230769230769,4,2,1,80,0,1
102678,-58.8235294117647,4,2,1,80,0,1
102759,-58.8235294117647,4,2,1,5,0,1
102839,-58.8235294117647,4,2,1,80,0,1
102919,-58.8235294117647,4,2,1,5,0,1
102999,-58.8235294117647,4,2,1,80,0,1
103080,-58.8235294117647,4,2,1,5,0,1
103160,-114.942528735632,4,2,2,80,0,1
103400,-114.942528735632,4,2,1,5,0,1
103481,-58.8235294117647,4,2,2,80,0,1
103561,-58.8235294117647,4,2,2,5,0,1
103641,-58.8235294117647,4,2,2,80,0,1
103721,-58.8235294117647,4,2,2,5,0,1
103801,-58.8235294117647,4,2,2,80,0,1
103882,-58.8235294117647,4,2,2,5,0,1
103962,-58.8235294117647,4,2,1,80,0,1
104042,-58.8235294117647,4,2,1,5,0,1
104122,-76.9230769230769,4,2,4,80,0,1
104604,-100,4,2,3,60,0,0

[Colours]
Combo1 : 58,175,164
Combo2 : 247,189,17
Combo3 : 126,40,213
Combo4 : 244,23,41
Combo5 : 138,132,166

[HitObjects]
67,69,697,5,2,0:0:0:0:
182,233,914,5,0,0:0:0:0:
156,130,1023,1,2,0:0:0:0:
295,229,1240,5,0,0:0:0:0:
244,167,1349,1,2,0:0:0:0:
378,175,1566,5,0,0:0:0:0:
323,148,1675,1,2,0:0:0:0:
432,99,1892,5,0,0:0:0:0:
386,98,2001,1,2,0:0:0:0:
256,192,2082,12,0,3305,0:0:0:0:
114,124,5914,5,2,0:0:0:0:
177,183,6077,1,0,0:0:0:0:
175,196,6158,1,0,0:0:0:0:
173,209,6240,1,2,0:0:0:0:
234,114,6403,5,2,0:0:0:0:
293,51,6566,1,0,0:0:0:0:
306,53,6648,1,0,0:0:0:0:
319,55,6729,1,2,0:0:0:0:
365,127,6892,5,0,0:0:0:0:
460,89,7055,1,2,0:0:0:0:
460,89,7218,2,0,P|455:132|459:202,1,94.499997116089,2|0,0:0|0:0,0:0:0:0:
460,198,7544,5,2,0:0:0:0:
500,331,7707,2,0,P|504:299|503:268,1,62.9999980773926,2|0,0:0|0:0,0:0:0:0:
404,261,8033,2,0,P|399:292|400:323,1,62.9999980773926,2|0,0:0|0:0,0:0:0:0:
460,198,8360,1,2,0:0:0:0:
372,160,8523,2,0,P|325:154|277:156,1,94.499997116089,2|0,0:0|0:0,0:0:0:0:
263,162,8849,5,2,0:0:0:0:
182,182,9012,1,2,0:0:0:0:
240,243,9175,1,0,0:0:0:0:
160,342,9338,6,0,P|161:301|157:261,1,80.9999975280763,2|0,0:0|0:0,0:0:0:0:
103,152,9664,1,2,0:0:0:0:
91,148,9745,1,0,0:0:0:0:
79,144,9827,1,2,0:0:0:0:
32,247,9990,1,0,0:0:0:0:
51,240,10071,1,0,0:0:0:0:
71,233,10153,1,2,0:0:0:0:
190,296,10316,5,0,0:0:0:0:
134,139,10479,1,2,0:0:0:0:
104,128,10561,1,0,0:0:0:0:
73,117,10642,1,0,0:0:0:0:
26,268,10805,5,2,0:0:0:0:
62,254,10887,1,0,0:0:0:0:
99,240,10968,1,0,0:0:0:0:
135,226,11050,1,0,0:0:0:0:
171,211,11131,6,0,P|205:213|261:221,1,90,4|0,3:2|0:0,0:0:0:0:
343,307,11457,1,2,3:2:0:0:
496,204,11620,2,0,P|462:206|406:214,1,90,2|0,0:0|3:0,0:0:0:0:
329,156,11865,1,0,0:0:0:0:
341,142,11946,2,0,P|336:91|334:51,1,90,2|0,0:0|3:0,0:0:0:0:
255,5,12273,1,2,0:0:0:0:
171,142,12436,2,0,P|176:91|178:51,1,90,2|0,3:2|0:0,0:0:0:0:
106,4,12680,1,0,0:0:0:0:
94,17,12762,5,2,3:2:0:0:
0,125,12925,2,0,P|44:121|89:124,1,90,2|0,0:0|3:0,0:0:0:0:
266,174,13251,2,0,P|221:170|176:173,1,90,2|0,0:0|3:0,0:0:0:0:
67,247,13577,1,2,0:0:0:0:
81,257,13658,1,0,0:0:0:0:
95,266,13740,6,0,P|184:250|274:252,1,180,2|0,3:2|3:0,0:0:0:0:
355,379,14229,2,0,P|351:334|353:289,1,90,2|0,0:0|3:0,0:0:0:0:
410,229,14474,1,0,0:0:0:0:
423,240,14555,1,2,0:0:0:0:
498,106,14718,2,0,P|458:126|420:152,1,90,2|0,3:2|0:0,0:0:0:0:
207,108,15044,2,0,P|247:127|284:152,1,90,2|0,3:2|0:0,0:0:0:0:
351,109,15289,1,0,0:0:0:0:
351,91,15370,1,2,3:2:0:0:
188,3,15533,6,0,P|181:47|177:92,1,90,2|0,0:0|3:0,0:0:0:0:
165,205,15860,5,2,0:0:0:0:
169,221,15914,5,2,0:0:0:0:
162,233,15968,5,2,0:0:0:0:
165,248,16023,6,0,P|177:255|188:265,2,30,2|0|0,3:2|0:0|0:0,0:0:0:0:
275,270,16186,2,0,P|282:283|286:297,2,30,2|0|0,0:0|0:0|0:0,0:0:0:0:
337,175,16349,5,6,3:1:0:0:
297,48,16675,5,0,3:0:0:0:
419,217,16892,5,0,3:0:0:0:
431,176,17001,1,0,3:0:0:0:
292,255,17218,5,0,3:0:0:0:
258,229,17327,1,0,3:0:0:0:
384,314,17653,6,0,L|389:331,12,11.25
338,187,17979,1,0,3:0:0:0:
321,127,18088,1,0,3:0:0:0:
299,164,18196,1,0,3:0:0:0:
360,150,18305,1,0,3:0:0:0:
196,162,18523,5,0,3:0:0:0:
156,153,18631,1,2,3:2:0:0:
63,254,18957,5,2,0:0:0:0:
161,313,19283,5,2,3:2:0:0:
268,297,19446,1,2,0:0:0:0:
351,228,19610,5,2,3:2:0:0:
336,157,19718,1,2,0:0:0:0:
321,86,19827,1,2,3:2:0:0:
234,63,19936,5,2,3:2:0:0:
229,82,20017,1,2,0:0:0:0:
224,101,20099,1,2,0:0:0:0:
256,192,20262,12,0,21131,3:0:0:0:
313,322,21240,5,2,0:0:0:0:
283,302,21321,1,0,0:0:0:0:
247,295,21403,1,2,0:0:0:0:
211,300,21485,1,0,0:0:0:0:
180,318,21566,5,6,0:0:0:0:
214,265,21648,1,2,0:0:0:0:
248,212,21729,1,2,0:0:0:0:
113,127,22055,5,2,0:0:0:0:
103,136,22218,1,0,0:0:0:0:
184,79,22381,2,0,P|221:70|259:68,1,76.5000014591217,2|0,0:0|0:0,0:0:0:0:
352,85,22707,1,2,0:0:0:0:
455,173,22870,5,2,0:0:0:0:
447,235,22952,1,2,0:0:0:0:
440,298,23033,1,2,0:0:0:0:
438,314,23196,1,2,0:0:0:0:
457,157,23360,5,2,0:0:0:0:
459,141,23523,1,0,0:0:0:0:
357,193,23686,2,0,P|319:187|281:188,1,76.5000014591217,2|0,0:0|0:0,0:0:0:0:
194,212,24012,1,2,0:0:0:0:
61,357,24175,5,2,0:0:0:0:
54,294,24256,1,2,0:0:0:0:
46,232,24338,1,2,0:0:0:0:
51,48,24664,5,2,0:0:0:0:
36,41,24827,1,0,0:0:0:0:
137,4,24990,2,0,P|175:5|212:14,1,76.5000014591217,2|0,0:0|0:0,0:0:0:0:
283,87,25316,1,2,0:0:0:0:
480,4,25479,5,2,0:0:0:0:
417,11,25561,1,2,0:0:0:0:
355,19,25642,1,2,0:0:0:0:
342,21,25805,1,2,0:0:0:0:
190,103,25968,5,2,0:0:0:0:
198,113,26131,1,0,0:0:0:0:
346,204,26294,2,0,L|351:148,1,45,10|0,0:0|0:0,0:0:0:0:
355,195,26457,2,0,L|360:139,1,45,10|0,0:0|0:0,0:0:0:0:
297,85,26620,1,8,3:2:0:0:
297,85,26702,1,0,3:0:0:0:
297,85,26783,5,4,3:1:0:0:
271,155,26865,1,2,0:0:0:0:
245,224,26946,2,0,L|254:335,1,107.999996704102,10|0,0:0|0:0,0:0:0:0:
441,182,27273,5,2,3:2:0:0:
359,355,27436,1,8,0:0:0:0:
271,155,27599,5,10,0:0:0:0:
344,384,27762,1,2,3:2:0:0:
100,289,27925,1,10,0:0:0:0:
100,289,28006,1,8,0:0:0:0:
100,289,28088,5,10,0:0:0:0:
123,217,28169,1,2,0:0:0:0:
149,145,28251,2,0,L|139:91,1,53.9999983520508,2|0,3:2|0:0,0:0:0:0:
159,119,28414,2,0,L|149:65,1,53.9999983520508,2|0,0:0|0:0,0:0:0:0:
3,8,28577,5,10,0:0:0:0:
49,145,28740,1,0,3:0:0:0:
241,23,28903,5,10,0:0:0:0:
213,218,29066,1,2,0:0:0:0:
420,109,29229,1,10,0:0:0:0:
420,109,29311,1,8,0:0:0:0:
420,109,29392,5,2,3:2:0:0:
443,181,29474,1,2,0:0:0:0:
466,253,29555,2,0,P|412:247|358:251,1,107.999996704102,10|0,0:0|0:0,0:0:0:0:
151,312,29881,5,2,3:2:0:0:
277,357,30044,1,8,0:0:0:0:
283,142,30207,5,10,0:0:0:0:
155,179,30370,1,2,3:2:0:0:
246,249,30533,1,10,0:0:0:0:
260,45,30696,5,2,0:0:0:0:
188,70,30778,1,2,0:0:0:0:
116,95,30860,2,0,L|55:83,1,53.9999983520508,10|0,3:2|0:0,0:0:0:0:
87,105,31023,2,0,L|34:94,1,53.9999983520508,2|0,0:0|0:0,0:0:0:0:
289,35,31186,5,10,0:0:0:0:
333,286,31349,1,0,3:0:0:0:
333,286,31430,1,0,0:0:0:0:
333,286,31512,1,10,0:0:0:0:
471,116,31675,5,2,0:0:0:0:
183,49,31838,1,10,0:0:0:0:
183,49,31919,1,8,0:0:0:0:
183,49,32001,6,0,P|167:115|183:179,1,135,2|0,3:2|0:0,0:0:0:0:
191,188,32327,1,0,3:0:0:0:
425,181,32490,6,0,P|376:228|313:246,1,135,10|0,3:2|0:0,0:0:0:0:
300,244,32816,1,8,0:0:0:0:
260,24,32979,5,2,3:2:0:0:
196,149,33142,1,8,0:0:0:0:
196,149,33224,1,8,0:0:0:0:
196,149,33305,1,8,0:0:0:0:
403,261,33468,6,0,P|337:277|273:261,1,135,2|0,3:2|0:0,0:0:0:0:
263,253,33794,1,8,0:0:0:0:
221,118,33957,5,2,3:2:0:0:
338,166,34120,1,8,0:0:0:0:
149,244,34283,5,2,3:2:0:0:
197,127,34446,1,8,0:0:0:0:
191,366,34610,6,0,P|257:382|321:366,1,135,2|0,3:2|0:0,0:0:0:0:
333,361,34936,1,0,0:0:0:0:
333,121,35099,6,0,P|379:170|398:233,1,135,10|0,3:2|0:0,0:0:0:0:
398,246,35425,1,8,0:0:0:0:
268,214,35588,2,0,P|222:213|179:225,1,90,2|0,3:2|0:0,0:0:0:0:
11,351,35914,5,2,3:2:0:0:
77,309,36023,1,0,0:0:0:0:
153,318,36131,1,2,0:0:0:0:
213,367,36240,5,10,0:0:0:0:
171,301,36349,1,0,0:0:0:0:
180,225,36457,1,2,0:0:0:0:
229,165,36566,5,2,3:2:0:0:
86,216,36729,1,8,0:0:0:0:
74,202,36811,1,8,0:0:0:0:
62,188,36892,1,4,0:0:0:0:
107,55,37055,1,8,0:0:0:0:
107,55,37137,1,8,0:0:0:0:
107,55,37218,5,4,3:1:0:0:
182,65,37300,1,2,0:0:0:0:
255,75,37381,2,0,P|309:67|363:63,1,107.999996704102,2|0,0:0|0:0,0:0:0:0:
484,160,37707,5,10,0:0:0:0:
512,0,37870,1,0,0:0:0:0:
379,258,38033,5,10,0:0:0:0:
351,98,38196,1,2,0:0:0:0:
496,176,38360,1,10,0:0:0:0:
366,343,38523,5,2,3:2:0:0:
291,331,38604,1,2,0:0:0:0:
215,320,38686,2,0,L|170:289,1,53.9999983520508,10|0,0:0|0:0,0:0:0:0:
192,317,38849,2,0,L|147:286,1,53.9999983520508,2|0,0:0|0:0,0:0:0:0:
110,125,39012,5,10,0:0:0:0:
9,283,39175,1,0,0:0:0:0:
234,218,39338,5,10,0:0:0:0:
44,57,39501,1,10,0:0:0:0:
0,301,39664,1,10,0:0:0:0:
234,218,39827,5,6,3:2:0:0:
257,146,39908,1,0,0:0:0:0:
279,73,39990,2,0,P|331:56|384:62,1,107.999996704102,8|0,0:0|0:0,0:0:0:0:
491,186,40316,5,10,0:0:0:0:
443,324,40479,1,0,0:0:0:0:
345,146,40642,5,10,0:0:0:0:
440,347,40805,1,2,0:0:0:0:
509,172,40968,1,10,0:0:0:0:
318,307,41131,5,2,3:2:0:0:
246,331,41213,1,2,0:0:0:0:
174,355,41294,2,0,L|121:338,1,53.9999983520508,10|0,0:0|0:0,0:0:0:0:
153,364,41457,2,0,L|100:347,1,53.9999983520508,2|0,0:0|0:0,0:0:0:0:
260,253,41620,5,10,0:0:0:0:
304,384,41783,1,2,3:2:0:0:
179,152,41946,5,10,0:0:0:0:
369,247,42110,1,10,0:0:0:0:
122,338,42273,1,10,0:0:0:0:
404,316,42436,6,0,P|401:249|407:182,1,135,2|0,3:2|0:0,0:0:0:0:
413,169,42762,1,0,0:0:0:0:
126,155,42925,6,0,P|185:124|240:85,1,135,10|0,3:2|0:0,0:0:0:0:
250,75,43251,1,8,0:0:0:0:
374,355,43414,6,0,P|371:287|377:220,1,135,2|0,3:2|0:0,0:0:0:0:
382,207,43740,1,0,0:0:0:0:
109,206,43903,5,10,3:2:0:0:
267,153,44066,1,2,0:0:0:0:
262,140,44148,1,2,0:0:0:0:
257,127,44229,1,8,0:0:0:0:
252,114,44311,1,8,0:0:0:0:
247,101,44392,5,2,3:2:0:0:
82,29,44555,1,8,0:0:0:0:
42,127,44718,5,2,3:2:0:0:
185,18,44881,1,8,0:0:0:0:
0,63,45044,6,0,P|10:129|11:197,1,135,2|0,3:2|0:0,0:0:0:0:
10,210,45370,1,0,0:0:0:0:
130,344,45533,6,0,P|119:277|118:209,1,135,10|0,3:2|0:0,0:0:0:0:
120,197,45860,1,8,0:0:0:0:
194,37,46023,5,0,3:0:0:0:
229,155,46186,1,10,0:0:0:0:
217,148,46267,1,2,0:0:0:0:
205,142,46349,1,0,0:0:0:0:
424,59,46512,5,10,3:2:0:0:
433,83,46675,1,0,0:0:0:0:
314,164,46838,5,10,0:0:0:0:
336,112,47001,1,0,3:0:0:0:
432,174,47164,5,10,0:0:0:0:
462,246,47327,1,0,0:0:0:0:
276,357,47490,5,10,0:0:0:0:
297,307,47571,1,8,0:0:0:0:
315,256,47653,6,0,B|260:234|199:273|248:281|196:321|137:306,1,198.000006042481,2|0,3:2|0:0,0:0:0:0:
149,174,48142,2,0,B|209:170|253:219|203:218|255:267|314:256,1,198.000006042481,10|0,0:0|0:0,0:0:0:0:
462,246,48631,1,10,0:0:0:0:
336,132,48794,2,0,P|317:147|307:170,1,49.5000015106202,2|0,0:0|0:0,0:0:0:0:
415,319,48957,5,0,3:0:0:0:
424,328,49283,1,0,0:0:0:0:
432,335,49610,2,0,P|384:326|335:330,1,99.0000030212403,10|0,0:0|3:0,0:0:0:0:
182,382,49936,1,10,0:0:0:0:
189,369,50017,1,8,0:0:0:0:
196,356,50099,1,0,3:0:0:0:
279,181,50262,5,10,0:0:0:0:
324,308,50425,1,10,0:0:0:0:
196,356,50588,1,0,3:0:0:0:
147,226,50751,2,0,P|148:177|163:130,1,99.0000030212403,10|0,0:0|0:0,0:0:0:0:
227,36,51077,1,0,0:0:0:0:
408,132,51240,2,0,P|376:94|335:67,2,99.0000030212403,0|0|0,3:0|0:0|0:0,0:0:0:0:
463,294,51729,5,2,3:2:0:0:
279,181,51892,1,8,0:0:0:0:
279,181,51974,1,8,0:0:0:0:
279,181,52055,1,10,0:0:0:0:
178,230,52218,5,2,3:2:0:0:
391,215,52381,1,8,0:0:0:0:
391,215,52463,1,8,0:0:0:0:
391,215,52544,1,8,0:0:0:0:
214,99,52707,5,8,0:0:0:0:
204,112,52789,1,8,0:0:0:0:
193,125,52870,5,4,3:1:0:0:
105,83,53033,1,0,0:0:0:0:
185,28,53196,1,2,0:0:0:0:
274,121,53360,5,2,0:0:0:0:
267,192,53523,1,0,0:0:0:0:
207,152,53686,1,2,0:0:0:0:
334,161,53849,6,0,P|338:187|334:250,1,80.9999975280763,2|0,0:0|0:0,0:0:0:0:
108,384,54175,5,2,0:0:0:0:
59,299,54338,1,2,0:0:0:0:
10,214,54501,1,0,0:0:0:0:
194,236,54664,5,2,0:0:0:0:
157,298,54827,1,0,0:0:0:0:
119,362,54990,1,2,0:0:0:0:
66,234,55153,6,0,P|106:230|146:235,1,80.9999975280763,2|0,0:0|0:0,0:0:0:0:
362,343,55479,5,2,0:0:0:0:
415,281,55642,1,2,0:0:0:0:
385,205,55805,1,0,0:0:0:0:
286,140,55968,5,2,0:0:0:0:
304,193,56131,1,0,0:0:0:0:
361,201,56294,1,2,0:0:0:0:
473,148,56457,6,0,P|434:156|399:177,1,80.9999975280763,2|0,0:0|0:0,0:0:0:0:
242,355,56783,5,2,0:0:0:0:
298,285,56944,1,2,0:0:0:0:
210,272,57106,1,0,0:0:0:0:
280,368,57267,5,2,0:0:0:0:
339,345,57429,1,0,0:0:0:0:
290,305,57590,1,2,0:0:0:0:
411,383,57752,6,0,P|417:338|411:294,1,90,2|0,0:0|0:0,0:0:0:0:
219,129,58073,5,2,0:0:0:0:
328,192,58236,1,2,0:0:0:0:
219,255,58399,1,0,0:0:0:0:
281,146,58562,5,2,0:0:0:0:
204,191,58725,1,0,0:0:0:0:
281,235,58902,1,2,0:0:0:0:
256,192,59080,5,2,0:0:0:0:
256,192,59257,1,0,0:0:0:0:
172,198,59435,6,2,P|182:169|196:157,1,45,0|0,0:0|0:0,0:1:0:0:
192,128,59618,2,2,P|222:122|239:128,1,45,0|0,0:0|0:0,0:1:0:0:
308,90,59801,2,2,P|328:113|331:131,1,45,0|0,0:0|0:0,0:1:0:0:
401,184,59985,2,2,P|390:213|376:225,1,45,0|0,0:0|0:0,0:1:0:0:
336,307,60170,6,2,P|305:312|288:306,1,45,0|0,0:0|0:0,0:1:0:0:
187,333,60364,2,2,P|166:309|163:291,1,45,0|0,0:0|0:0,0:1:0:0:
81,212,60558,2,2,P|90:183|105:171,1,45,0|0,0:0|0:0,0:1:0:0:
148,57,60752,2,2,P|178:51|195:57,1,45,0|0,0:0|0:0,0:1:0:0:
256,191,60946,5,2,0:1:0:0:
370,102,64818,5,0,0:0:0:0:
381,116,65138,1,0,0:0:0:0:
512,127,65459,5,0,3:0:0:0:
510,113,65539,1,0,3:0:0:0:
507,99,65620,1,0,3:0:0:0:
504,85,65700,1,0,3:0:0:0:
473,51,65780,5,8,0:0:0:0:
465,94,65860,1,0,3:0:0:0:
457,137,65940,1,8,0:0:0:0:
449,180,66021,1,0,3:0:0:0:
441,223,66101,5,10,3:2:0:0:
479,345,66261,1,0,0:0:0:0:
358,313,66422,1,10,3:2:0:0:
333,322,66502,1,0,0:0:0:0:
308,331,66582,1,2,0:0:0:0:
238,255,66743,5,2,3:2:0:0:
77,305,66903,1,8,0:0:0:0:
121,156,67063,1,10,3:2:0:0:
127,182,67144,1,2,0:0:0:0:
133,208,67224,1,2,0:0:0:0:
25,100,67384,5,10,3:2:0:0:
155,43,67545,1,2,0:0:0:0:
180,52,67625,1,0,0:0:0:0:
205,61,67705,1,2,3:2:0:0:
230,70,67785,1,2,0:0:0:0:
255,79,67866,1,10,0:0:0:0:
385,22,68026,5,2,3:2:0:0:
360,13,68106,1,0,0:0:0:0:
335,4,68186,1,10,0:0:0:0:
266,187,68347,5,2,3:2:0:0:
266,187,68427,1,2,0:0:0:0:
266,187,68507,1,10,0:0:0:0:
318,206,68588,1,8,0:0:0:0:
374,227,68668,5,10,3:2:0:0:
417,344,68828,1,0,0:0:0:0:
294,322,68989,1,10,3:2:0:0:
267,328,69069,1,0,0:0:0:0:
240,334,69149,1,2,0:0:0:0:
117,312,69309,5,2,3:2:0:0:
0,384,69470,1,8,0:0:0:0:
133,295,69630,1,10,3:2:0:0:
127,268,69711,1,2,0:0:0:0:
121,241,69791,1,2,0:0:0:0:
254,152,69951,5,10,3:2:0:0:
63,58,70112,1,2,0:0:0:0:
57,85,70192,1,0,0:0:0:0:
51,112,70272,1,2,3:2:0:0:
45,139,70352,1,2,0:0:0:0:
39,166,70432,1,10,0:0:0:0:
266,226,70593,5,2,3:2:0:0:
260,199,70673,1,0,0:0:0:0:
254,172,70753,1,10,0:0:0:0:
453,33,70914,5,2,3:2:0:0:
440,89,70994,1,2,0:0:0:0:
427,145,71074,1,10,0:0:0:0:
465,331,71235,5,10,3:2:0:0:
426,311,71315,1,2,0:0:0:0:
382,314,71395,1,2,0:0:0:0:
345,336,71475,1,2,0:0:0:0:
310,360,71555,2,0,P|283:364|256:360,1,53.9999983520508,10|0,3:2|0:0,0:0:0:0:
217,252,71716,1,2,0:0:0:0:
217,252,71796,1,0,0:0:0:0:
217,252,71876,5,2,3:2:0:0:
180,229,71957,1,2,0:0:0:0:
137,226,72037,1,10,0:0:0:0:
97,243,72117,1,0,0:0:0:0:
72,279,72197,5,10,3:2:0:0:
34,258,72277,1,2,0:0:0:0:
22,216,72358,1,2,0:0:0:0:
36,175,72438,1,2,0:0:0:0:
69,148,72518,2,0,P|84:125|87:98,2,53.9999983520508,10|0|0,3:2|0:0|0:0,0:0:0:0:
33,24,72759,5,0,0:0:0:0:
33,24,72839,1,2,3:2:0:0:
75,12,72919,1,0,0:0:0:0:
117,15,72999,1,10,0:0:0:0:
151,40,73080,1,2,0:0:0:0:
173,76,73160,1,2,3:2:0:0:
204,106,73240,1,2,0:0:0:0:
245,116,73320,1,2,0:0:0:0:
287,106,73400,1,2,0:0:0:0:
404,11,73561,5,2,0:0:0:0:
377,45,73641,1,8,0:0:0:0:
372,87,73721,1,10,0:0:0:0:
385,126,73801,2,0,P|395:152|397:178,1,53.9999983520508,10|0,3:2|0:0,0:0:0:0:
352,309,73962,5,2,0:0:0:0:
352,309,74042,1,2,0:0:0:0:
352,309,74122,2,0,P|342:283|340:257,1,53.9999983520508,10|0,3:2|0:0,0:0:0:0:
502,295,74283,1,2,0:0:0:0:
502,295,74363,1,0,0:0:0:0:
502,295,74443,5,2,3:2:0:0:
459,300,74523,1,2,0:0:0:0:
423,325,74604,1,8,0:0:0:0:
403,362,74684,1,2,0:0:0:0:
365,383,74764,1,10,3:2:0:0:
322,379,74844,1,2,0:0:0:0:
287,353,74924,2,0,P|272:321|269:282,1,53.9999983520508,2|0,0:0|0:0,0:0:0:0:
176,202,75085,5,10,3:2:0:0:
176,202,75165,1,2,0:0:0:0:
176,202,75245,2,0,P|186:176|188:150,1,53.9999983520508,2|0,0:0|0:0,0:0:0:0:
146,31,75406,5,2,3:2:0:0:
146,31,75486,1,2,0:0:0:0:
146,31,75566,1,10,0:0:0:0:
187,19,75646,1,0,0:0:0:0:
229,22,75727,1,2,3:2:0:0:
268,39,75807,1,0,0:0:0:0:
295,70,75887,2,0,P|306:95|312:122,2,53.9999983520508,10|0|0,0:0|0:0|3:2,0:0:0:0:
293,279,76128,2,0,P|282:254|276:227,2,53.9999983520508,0|8|8,0:0|0:0|0:0,0:0:0:0:
379,358,76368,5,10,3:2:0:0:
397,369,76449,1,0,0:0:0:0:
423,366,76529,1,2,0:0:0:0:
447,344,76609,1,0,0:0:0:0:
447,306,76689,1,10,3:2:0:0:
414,277,76769,1,2,0:0:0:0:
365,274,76850,1,2,0:0:0:0:
319,303,76930,1,2,0:0:0:0:
285,352,77010,5,2,3:2:0:0:
228,369,77090,1,2,0:0:0:0:
171,350,77170,1,10,0:0:0:0:
136,301,77251,1,2,0:0:0:0:
139,241,77331,1,10,3:2:0:0:
245,56,77491,1,2,0:0:0:0:
245,56,77572,1,0,0:0:0:0:
245,56,77652,5,10,3:2:0:0:
260,70,77732,1,0,0:0:0:0:
270,94,77812,1,2,0:0:0:0:
270,126,77892,1,2,0:0:0:0:
254,160,77973,1,2,3:2:0:0:
215,178,78053,1,2,0:0:0:0:
166,170,78133,1,10,0:0:0:0:
130,129,78213,1,2,0:0:0:0:
127,69,78293,5,2,3:2:0:0:
178,97,78374,1,2,0:0:0:0:
205,149,78454,1,10,0:0:0:0:
187,206,78534,1,2,0:0:0:0:
139,241,78614,1,2,3:2:0:0:
0,221,78775,1,8,0:0:0:0:
0,221,78855,1,8,0:0:0:0:
0,221,78935,5,10,3:2:0:0:
21,216,79015,1,0,0:0:0:0:
47,219,79096,1,2,0:0:0:0:
74,236,79176,1,0,0:0:0:0:
96,267,79256,1,10,3:2:0:0:
133,288,79336,1,2,0:0:0:0:
181,284,79416,1,2,0:0:0:0:
225,253,79497,1,2,0:0:0:0:
248,204,79577,5,2,3:2:0:0:
242,144,79657,1,2,0:0:0:0:
254,86,79737,1,10,0:0:0:0:
300,49,79818,1,2,0:0:0:0:
359,46,79898,1,10,3:2:0:0:
486,149,80058,1,2,0:0:0:0:
486,149,80138,1,0,0:0:0:0:
486,149,80219,5,10,3:2:0:0:
465,142,80299,1,0,0:0:0:0:
437,140,80379,1,2,0:0:0:0:
406,150,80459,1,2,0:0:0:0:
380,177,80539,1,2,3:2:0:0:
371,219,80620,1,2,0:0:0:0:
386,265,80700,1,2,3:2:0:0:
428,299,80780,1,2,0:0:0:0:
487,301,80860,5,2,3:2:0:0:
456,250,80940,1,2,0:0:0:0:
401,226,81021,1,2,3:2:0:0:
341,225,81101,1,2,0:0:0:0:
288,253,81181,1,6,3:2:0:0:
381,384,81342,1,0,3:0:0:0:
158,354,81502,5,6,3:1:0:0:
139,327,81582,1,2,0:0:0:0:
131,289,81662,1,2,0:0:0:0:
140,248,81743,1,2,0:0:0:0:
171,213,81823,1,2,0:0:0:0:
222,194,81903,1,2,0:0:0:0:
260,149,81983,1,2,3:2:0:0:
268,85,82063,1,2,0:0:0:0:
241,21,82144,5,2,0:0:0:0:
171,10,82224,1,2,0:0:0:0:
117,56,82304,1,2,0:0:0:0:
124,125,82384,1,2,0:0:0:0:
178,168,82465,6,0,P|231:167|285:176,1,107.999996704102,2|0,3:2|0:0,0:0:0:0:
403,217,82785,1,0,3:0:0:0:
476,0,82946,2,0,P|448:45|429:96,1,107.999996704102,0|0,3:0|3:0,0:0:0:0:
410,233,83267,1,8,0:0:0:0:
260,273,83427,6,0,P|220:283|185:304,1,80.9999975280763,2|0,3:2|0:0,0:0:0:0:
172,324,83748,6,0,B|230:303|288:339|238:352|304:385|359:358,1,202.500007724762,2|0,3:2|0:0,0:0:0:0:
467,328,84069,5,2,0:0:0:0:
363,189,84229,1,0,0:0:0:0:
334,274,84390,5,2,0:0:0:0:
439,138,84550,2,0,B|385:118|331:151|377:164|316:194|264:169,1,188.999994232178,2|2,0:0|0:0,0:0:0:0:
162,82,85192,5,0,0:0:0:0:
129,196,85352,1,2,0:0:0:0:
137,215,85432,1,0,0:0:0:0:
145,234,85513,1,2,0:0:0:0:
239,302,85673,1,2,0:0:0:0:
371,279,85834,6,0,P|298:295|235:332,1,148.50000453186,2|0,0:0|0:0,0:0:0:0:
221,347,86154,1,0,0:0:0:0:
446,334,86315,2,0,P|464:285|453:235,1,99.0000030212403,2|0,0:0|0:0,0:0:0:0:
310,96,86636,5,6,3:1:0:0:
336,114,86716,1,2,0:0:0:0:
374,114,86796,1,2,0:0:0:0:
408,88,86876,1,2,0:0:0:0:
414,39,86957,1,2,0:0:0:0:
368,10,87037,1,2,0:0:0:0:
309,24,87117,1,2,3:2:0:0:
270,76,87197,1,2,0:0:0:0:
242,140,87277,5,2,0:0:0:0:
180,173,87358,1,2,0:0:0:0:
110,165,87438,1,2,0:0:0:0:
68,107,87518,1,2,0:0:0:0:
76,36,87598,6,0,P|122:53|154:90,1,99.0000030212403,2|0,3:2|0:0,0:0:0:0:
172,252,87919,1,0,3:0:0:0:
408,228,88080,2,0,P|370:196|322:187,1,99.0000030212403,0|0,3:0|3:0,0:0:0:0:
162,266,88400,1,8,0:0:0:0:
253,113,88561,1,0,3:0:0:0:
288,295,88721,6,0,B|313:335|287:383|213:393|184:342|184:286|203:242|240:221,1,270.000010299683,2|0,0:0|0:0,0:0:0:0:
409,141,89203,5,2,0:0:0:0:
381,312,89363,1,0,0:0:0:0:
247,203,89523,1,2,0:0:0:0:
416,155,89684,5,2,0:0:0:0:
423,169,89764,1,0,0:0:0:0:
430,183,89844,5,2,0:0:0:0:
255,189,90005,1,2,0:0:0:0:
338,35,90165,1,0,0:0:0:0:
446,62,90326,6,0,P|383:52|321:56,1,125.999996154785,2|0,0:0|0:0,0:0:0:0:
164,78,90807,1,2,0:0:0:0:
263,202,90967,1,0,0:0:0:0:
328,41,91128,5,2,0:0:0:0:
334,26,91208,1,0,0:0:0:0:
340,11,91288,5,2,0:0:0:0:
183,34,91449,6,0,P|188:135|182:236,1,202.500007724762,6|0,0:0|0:0,0:0:0:0:
179,262,91769,6,0,P|237:300|308:293,1,144,6|0,3:2|3:0,0:0:0:0:
478,250,92251,2,0,P|419:211|348:218,1,144,2|0,0:0|0:0,0:0:0:0:
381,361,92732,2,0,P|400:331|396:296,1,72,10|0,0:0|0:0,0:0:0:0:
259,215,93053,6,0,P|250:135|294:69,1,161.999995056153,2|0,0:0|0:0,0:0:0:0:
509,110,93534,2,0,P|458:48|381:32,1,161.999995056153,2|0,3:2|0:0,0:0:0:0:
369,125,94015,1,10,0:0:0:0:
377,139,94176,1,8,0:0:0:0:
385,153,94336,6,0,B|257:182|257:182|279:131,1,180,2|0,3:2|3:0,0:0:0:0:
143,108,94818,2,0,B|271:79|271:79|249:130,1,180,2|0,0:0|0:0,0:0:0:0:
119,249,95299,1,10,0:0:0:0:
111,264,95459,1,8,0:0:0:0:
103,279,95620,6,0,B|157:304|216:275|169:257|236:231|288:262,1,198.000006042481,2|0,0:0|0:0,0:0:0:0:
375,255,96101,2,0,B|320:229|261:258|308:276|241:302|189:271,1,198.000006042481,2|0,3:2|0:0,0:0:0:0:
34,140,96582,1,10,0:0:0:0:
40,121,96662,1,2,0:0:0:0:
46,102,96743,1,10,0:0:0:0:
52,83,96823,1,2,0:0:0:0:
58,64,96903,5,14,3:1:0:0:
206,292,97063,1,2,3:2:0:0:
41,352,97224,5,2,3:2:0:0:
188,123,97384,2,0,P|244:109|302:115,1,117.45000098568,10|0,0:0|0:0,0:0:0:0:
331,127,97705,5,10,0:0:0:0:
114,227,97866,1,2,3:2:0:0:
221,0,98026,1,2,3:2:0:0:
364,206,98186,2,0,L|351:335,1,116.999994644165,10|0,0:0|3:0,0:0:0:0:
477,185,98507,1,10,0:0:0:0:
474,155,98588,1,8,0:0:0:0:
471,126,98668,1,8,0:0:0:0:
468,97,98748,1,8,0:0:0:0:
465,68,98828,6,0,P|426:65|389:72,1,76.5000014591217,4|0,3:0|0:0,0:0:0:0:
202,223,98989,2,0,P|218:188|243:159,1,76.5000014591217,4|0,3:0|0:0,0:0:0:0:
434,10,99149,2,0,P|398:23|367:45,1,76.5000014591217,4|0,3:0|0:0,0:0:0:0:
254,300,99309,6,0,P|254:241|270:185,1,117.45000098568,4|0,3:1|0:0,0:0:0:0:
370,149,99630,6,0,P|397:175|417:208,1,76.5000014591217,12|0,0:3|0:0,0:0:0:0:
225,90,99791,2,0,P|187:85|149:91,1,76.5000014591217,12|0,0:3|0:0,0:0:0:0:
393,229,99951,2,0,P|403:265|404:303,1,76.5000014591217,12|0,0:3|0:0,0:0:0:0:
150,123,100112,2,0,P|115:138|85:162,1,76.5000014591217,12|0,0:0|0:0,0:0:0:0:
184,370,100272,5,12,0:0:0:0:
298,264,100432,1,8,0:0:0:0:
270,251,100513,1,8,0:0:0:0:
242,239,100593,1,8,0:0:0:0:
215,227,100673,1,8,0:0:0:0:
187,215,100753,5,12,0:0:0:0:
387,193,100914,1,8,0:0:0:0:
284,362,101074,5,8,0:0:0:0:
84,384,101235,2,0,B|66:326|66:326|80:267,1,117.45000098568,12|0,0:3|0:0,0:0:0:0:
87,248,101555,5,10,0:0:0:0:
265,378,101716,1,2,3:2:0:0:
418,205,101876,1,2,3:2:0:0:
240,75,102037,2,0,B|222:133|222:133|235:188,1,117.45000098568,10|0,0:0|0:0,0:0:0:0:
347,54,102358,1,8,0:0:0:0:
319,59,102438,1,8,0:0:0:0:
291,65,102518,1,8,0:0:0:0:
263,71,102598,1,8,0:0:0:0:
240,75,102678,6,0,B|268:49|268:49|279:13,1,76.5000014591217,4|0,3:0|0:0,0:0:0:0:
265,274,102839,2,0,B|272:311|272:311|298:338,1,76.5000014591217,4|0,3:0|0:0,0:0:0:0:
80,196,102999,2,0,B|44:184|44:184|7:192,1,76.5000014591217,4|0,3:0|0:0,0:0:0:0:
198,180,103160,6,0,B|240:171|240:171|269:182|269:182|312:173,1,117.45000098568,4|0,3:1|0:0,0:0:0:0:
387,124,103481,6,0,B|402:158|402:158|397:196,1,76.5000014591217,12|0,0:3|0:0,0:0:0:0:
115,212,103641,2,0,B|106:175|106:175|117:139,1,76.5000014591217,12|0,0:3|0:0,0:0:0:0:
301,309,103801,2,0,B|266:324|266:324|228:319,1,76.5000014591217,12|0,0:3|0:0,0:0:0:0:
213,38,103962,2,0,B|249:28|249:28|286:39,1,76.5000014591217,12|0,0:0|0:0,0:0:0:0:
484,158,104122,5,12,0:0:0:0:
258,232,104283,1,8,0:0:0:0:
256,203,104363,1,8,0:0:0:0:
253,174,104443,1,8,0:0:0:0:
251,145,104523,1,8,0:0:0:0:
250,117,104604,5,4,0:0:0:0:
