osu file format v14

[General]
AudioFilename: audio.mp3
AudioLeadIn: 0
PreviewTime: 139
Countdown: 0
SampleSet: Normal
StackLeniency: 0.7
Mode: 1
LetterboxInBreaks: 0
WidescreenStoryboard: 1

[Editor]
Bookmarks: 892,7953,8425,12191,16192,23489,27256,31022
DistanceSpacing: 1
BeatDivisor: 6
GridSize: 32
TimelineZoom: 1

[Metadata]
Title:Ooame
TitleUnicode:大雨
Artist:Ichinose Go
ArtistUnicode:一之瀬剛
Creator:Slyme
Version:Futsuu
Source:ポケットモンスター ルビー・サファイア
Tags:pokémon pocket monsters gameboy pokemon sapphire and ruby emerald Ōame instrumental gba boy advance nintendo game freak kyogre カイオーガ heavy rain mari_0hara mari 0hara ohara video game silveryako ゲームボーイアドバンス ポケモンルビー&サファイア ミュージック・スーパーコンプリート musical super collection complete & music vgm original soundtrack ost ポケットモンスターエメラルド oame gamefreak electronic
BeatmapID:3632524
BeatmapSetID:1774096

[Difficulty]
HPDrainRate:9.5
CircleSize:2
OverallDifficulty:3
ApproachRate:10
SliderMultiplier:1.4
SliderTickRate:1

[Events]
//Background and Video events
0,0,"kyogre1920.jpg",0,0
//Break Periods
//Storyboard Layer 0 (Background)
//Storyboard Layer 1 (Fail)
//Storyboard Layer 2 (Pass)
//Storyboard Layer 3 (Foreground)
//Storyboard Layer 4 (Overlay)
//Storyboard Sound Samples

[TimingPoints]
892,470.772852098862,4,1,0,60,1,0
8415,-95.2380952380952,4,1,0,60,0,0
15946,-100,4,1,0,60,0,0
23479,-95.2380952380952,4,1,0,60,0,0
31012,-100,4,1,0,60,0,0
35249,-100,4,1,0,50,0,0
35406,-100,4,1,0,40,0,0
35563,-100,4,1,0,30,0,0
35719,-100,4,1,0,20,0,0

[HitObjects]
64,64,892,5,0,0:0:0:0:
64,64,1362,1,0,0:0:0:0:
64,64,1833,1,0,0:0:0:0:
448,64,2461,1,8,0:0:0:0:
64,64,2618,1,0,0:0:0:0:
64,64,2775,1,0,0:0:0:0:
64,64,3245,1,0,0:0:0:0:
64,64,3716,1,0,0:0:0:0:
64,64,4187,1,0,0:0:0:0:
448,64,4344,1,8,0:0:0:0:
64,64,4658,1,8,0:0:0:0:
64,64,5128,1,8,0:0:0:0:
64,64,5599,1,8,0:0:0:0:
448,64,6227,1,8,0:0:0:0:
64,64,6384,1,8,0:0:0:0:
64,64,6541,1,0,0:0:0:0:
64,64,7012,1,0,0:0:0:0:
64,64,7482,1,0,0:0:0:0:
64,64,8424,1,0,0:0:0:0:
448,64,8738,1,8,0:0:0:0:
64,64,8895,1,8,0:0:0:0:
64,64,9208,1,0,0:0:0:0:
64,64,9365,1,0,0:0:0:0:
448,64,9679,1,8,0:0:0:0:
64,64,9993,1,0,0:0:0:0:
448,64,10150,1,8,0:0:0:0:
64,64,10307,1,0,0:0:0:0:
64,64,11249,1,8,0:0:0:0:
64,64,11719,1,0,0:0:0:0:
448,64,12190,1,8,0:0:0:0:
64,64,12347,1,8,0:0:0:0:
64,64,12661,1,0,0:0:0:0:
64,64,12818,1,0,0:0:0:0:
448,64,13132,1,8,0:0:0:0:
448,64,13602,1,8,0:0:0:0:
448,64,13759,1,8,0:0:0:0:
64,64,14073,1,0,0:0:0:0:
64,64,15015,1,0,0:0:0:0:
448,64,15485,1,8,0:0:0:0:
64,64,15956,1,0,0:0:0:0:
64,64,16427,1,0,0:0:0:0:
64,64,16898,1,0,0:0:0:0:
448,64,17525,1,8,0:0:0:0:
64,64,17682,1,0,0:0:0:0:
64,64,17839,1,8,0:0:0:0:
64,64,18310,1,0,0:0:0:0:
64,64,18781,1,0,0:0:0:0:
64,64,19252,1,0,0:0:0:0:
448,64,19409,1,8,0:0:0:0:
64,64,19722,1,8,0:0:0:0:
64,64,20193,1,8,0:0:0:0:
64,64,20664,1,8,0:0:0:0:
448,64,21292,1,8,0:0:0:0:
64,64,21449,1,0,0:0:0:0:
64,64,21606,1,0,0:0:0:0:
64,64,22076,1,0,0:0:0:0:
64,64,22547,1,0,0:0:0:0:
64,64,23489,1,8,0:0:0:0:
448,64,23802,1,8,0:0:0:0:
64,64,23959,1,0,0:0:0:0:
64,64,24273,1,8,0:0:0:0:
448,64,24430,1,8,0:0:0:0:
448,64,24744,1,0,0:0:0:0:
64,64,25058,1,0,0:0:0:0:
448,64,25215,1,8,0:0:0:0:
64,64,25372,1,0,0:0:0:0:
64,64,26313,1,0,0:0:0:0:
64,64,26784,1,8,0:0:0:0:
448,64,27255,1,8,0:0:0:0:
64,64,27412,1,0,0:0:0:0:
64,64,27726,1,0,0:0:0:0:
64,64,27882,1,8,0:0:0:0:
448,64,28196,1,8,0:0:0:0:
448,64,28667,1,0,0:0:0:0:
448,64,28824,1,8,0:0:0:0:
64,64,29138,1,0,0:0:0:0:
64,64,30079,1,0,0:0:0:0:
448,64,30550,1,8,0:0:0:0:
64,64,31021,1,8,0:0:0:0:
64,64,31492,1,0,0:0:0:0:
64,64,31963,1,8,0:0:0:0:
448,64,32590,1,8,0:0:0:0:
64,64,32747,1,0,0:0:0:0:
64,64,32904,1,8,0:0:0:0:
64,64,33375,1,0,0:0:0:0:
64,64,33846,1,0,0:0:0:0:
64,64,34316,1,0,0:0:0:0:
448,64,34473,1,8,0:0:0:0:
64,64,34787,1,8,0:0:0:0:
64,64,35258,1,8,0:0:0:0:
64,64,35729,1,0,0:0:0:0:
