osu file format v14

[General]
AudioFilename: audio.mp3
AudioLeadIn: 0
PreviewTime: 139
Countdown: 0
SampleSet: Normal
StackLeniency: 0.7
Mode: 1
LetterboxInBreaks: 0
WidescreenStoryboard: 1

[Editor]
Bookmarks: 892,7953,8425,12191,16192,23489,27256,31022
DistanceSpacing: 1
BeatDivisor: 4
GridSize: 32
TimelineZoom: 1

[Metadata]
Title:Ooame
TitleUnicode:大雨
Artist:Ichinose Go
ArtistUnicode:一之瀬剛
Creator:Slyme
Version:Cataclysm
Source:ポケットモンスター ルビー・サファイア
Tags:pokémon pocket monsters gameboy pokemon sapphire and ruby emerald Ōame instrumental gba boy advance nintendo game freak kyogre カイオーガ heavy rain mari_0hara mari 0hara ohara video game silveryako ゲームボーイアドバンス ポケモンルビー&サファイア ミュージック・スーパーコンプリート musical super collection complete & music vgm original soundtrack ost ポケットモンスターエメラルド oame gamefreak electronic
BeatmapID:3632523
BeatmapSetID:1774096

[Difficulty]
HPDrainRate:8.5
CircleSize:2
OverallDifficulty:4
ApproachRate:10
SliderMultiplier:1.4
SliderTickRate:1

[Events]
//Background and Video events
0,0,"kyogre1920.jpg",0,0
//Break Periods
//Storyboard Layer 0 (Background)
//Storyboard Layer 1 (Fail)
//Storyboard Layer 2 (Pass)
//Storyboard Layer 3 (Foreground)
//Storyboard Layer 4 (Overlay)
//Storyboard Sound Samples

[TimingPoints]
892,470.772852098862,4,1,0,60,1,0
8414,-90.9090909090909,4,1,0,60,0,0
15947,-100,4,1,0,60,0,0
23478,-90.9090909090909,4,1,0,60,0,0
31011,-100,4,1,0,60,0,0
35249,-100,4,1,0,50,0,0
35406,-100,4,1,0,40,0,0
35563,-100,4,1,0,30,0,0
35719,-100,4,1,0,20,0,0

[HitObjects]
64,64,892,5,0,0:0:0:0:
448,64,1048,1,8,0:0:0:0:
448,64,1205,1,8,0:0:0:0:
64,64,1362,1,0,0:0:0:0:
448,64,1519,1,8,0:0:0:0:
448,64,1676,1,8,0:0:0:0:
64,64,1833,1,0,0:0:0:0:
448,64,1990,1,8,0:0:0:0:
64,64,2147,1,0,0:0:0:0:
448,64,2461,1,8,0:0:0:0:
64,64,2618,1,0,0:0:0:0:
64,64,2775,1,0,0:0:0:0:
448,64,2932,1,8,0:0:0:0:
448,64,3088,1,8,0:0:0:0:
64,64,3245,1,0,0:0:0:0:
448,64,3402,1,8,0:0:0:0:
448,64,3559,1,8,0:0:0:0:
64,64,3716,1,0,0:0:0:0:
256,187,3873,1,8,0:0:0:0:
256,187,3952,1,8,0:0:0:0:
256,187,4030,1,0,0:0:0:0:
448,64,4187,1,0,0:0:0:0:
64,64,4344,1,8,0:0:0:0:
64,64,4501,1,8,0:0:0:0:
64,64,4658,1,0,0:0:0:0:
448,64,4815,1,8,0:0:0:0:
448,64,4972,1,8,0:0:0:0:
64,64,5128,1,0,0:0:0:0:
448,64,5285,1,8,0:0:0:0:
448,64,5442,1,8,0:0:0:0:
64,64,5599,1,0,0:0:0:0:
448,64,5756,1,8,0:0:0:0:
64,64,5913,1,0,0:0:0:0:
448,64,6227,1,8,0:0:0:0:
64,64,6384,1,0,0:0:0:0:
64,64,6541,1,0,0:0:0:0:
448,64,6698,1,8,0:0:0:0:
448,64,6855,1,8,0:0:0:0:
64,64,7012,1,0,0:0:0:0:
448,64,7168,1,8,0:0:0:0:
448,64,7325,1,8,0:0:0:0:
64,64,7482,1,0,0:0:0:0:
256,190,7639,1,8,0:0:0:0:
256,190,7718,1,8,0:0:0:0:
256,190,7796,1,8,0:0:0:0:
448,64,7953,1,8,0:0:0:0:
64,64,8424,1,0,0:0:0:0:
448,64,8738,1,8,0:0:0:0:
64,64,8895,1,0,0:0:0:0:
64,64,9208,1,8,0:0:0:0:
64,64,9365,1,0,0:0:0:0:
64,64,9522,1,0,0:0:0:0:
448,64,9679,1,8,0:0:0:0:
64,64,9993,1,0,0:0:0:0:
448,64,10150,1,8,0:0:0:0:
64,64,10307,1,0,0:0:0:0:
64,64,10778,1,8,0:0:0:0:
253,82,11092,1,8,0:0:0:0:
253,82,11170,1,8,0:0:0:0:
253,82,11249,1,0,0:0:0:0:
258,192,11405,1,0,0:0:0:0:
258,192,11484,1,0,0:0:0:0:
258,192,11562,1,8,0:0:0:0:
64,64,11719,1,0,0:0:0:0:
448,64,11876,1,8,0:0:0:0:
448,64,12190,1,0,0:0:0:0:
64,64,12347,1,0,0:0:0:0:
64,64,12504,1,8,0:0:0:0:
64,64,12661,1,0,0:0:0:0:
448,64,12818,1,8,0:0:0:0:
64,64,12975,1,8,0:0:0:0:
448,64,13132,1,0,0:0:0:0:
448,64,13289,1,8,0:0:0:0:
448,64,13602,1,0,0:0:0:0:
448,64,13759,1,8,0:0:0:0:
448,64,13916,1,8,0:0:0:0:
64,64,14073,1,0,0:0:0:0:
64,64,14544,1,0,0:0:0:0:
257,67,14858,1,0,0:0:0:0:
257,67,14936,1,0,0:0:0:0:
257,67,15015,1,8,0:0:0:0:
256,190,15172,1,0,0:0:0:0:
256,190,15250,1,8,0:0:0:0:
256,190,15329,1,8,0:0:0:0:
448,64,15485,1,0,0:0:0:0:
448,64,15642,1,8,0:0:0:0:
64,64,15956,1,0,0:0:0:0:
448,64,16113,1,8,0:0:0:0:
448,64,16270,1,8,0:0:0:0:
64,64,16427,1,0,0:0:0:0:
448,64,16584,1,8,0:0:0:0:
448,64,16741,1,8,0:0:0:0:
64,64,16898,1,0,0:0:0:0:
448,64,17055,1,8,0:0:0:0:
64,64,17212,1,0,0:0:0:0:
448,64,17525,1,8,0:0:0:0:
64,64,17682,1,8,0:0:0:0:
64,64,17839,1,0,0:0:0:0:
448,64,17996,1,8,0:0:0:0:
448,64,18153,1,8,0:0:0:0:
64,64,18310,1,0,0:0:0:0:
448,64,18467,1,8,0:0:0:0:
448,64,18624,1,8,0:0:0:0:
64,64,18781,1,0,0:0:0:0:
256,187,18938,1,8,0:0:0:0:
256,187,19016,1,8,0:0:0:0:
256,187,19095,1,0,0:0:0:0:
448,64,19252,1,0,0:0:0:0:
64,64,19409,1,8,0:0:0:0:
64,64,19565,1,8,0:0:0:0:
64,64,19722,1,0,0:0:0:0:
448,64,19879,1,0,0:0:0:0:
448,64,20036,1,8,0:0:0:0:
64,64,20193,1,0,0:0:0:0:
448,64,20350,1,8,0:0:0:0:
448,64,20507,1,8,0:0:0:0:
64,64,20664,1,0,0:0:0:0:
448,64,20821,1,8,0:0:0:0:
64,64,20978,1,0,0:0:0:0:
448,64,21292,1,8,0:0:0:0:
64,64,21449,1,0,0:0:0:0:
64,64,21606,1,0,0:0:0:0:
448,64,21762,1,8,0:0:0:0:
448,64,21919,1,8,0:0:0:0:
64,64,22076,1,0,0:0:0:0:
448,64,22233,1,8,0:0:0:0:
448,64,22390,1,8,0:0:0:0:
64,64,22547,1,0,0:0:0:0:
256,190,22704,1,8,0:0:0:0:
256,190,22782,1,8,0:0:0:0:
256,190,22861,1,8,0:0:0:0:
64,64,23018,1,0,0:0:0:0:
64,64,23489,1,0,0:0:0:0:
448,64,23802,1,8,0:0:0:0:
64,64,23959,1,0,0:0:0:0:
64,64,24273,1,8,0:0:0:0:
64,64,24430,1,0,0:0:0:0:
64,64,24587,1,0,0:0:0:0:
448,64,24744,1,8,0:0:0:0:
64,64,25058,1,0,0:0:0:0:
448,64,25215,1,8,0:0:0:0:
64,64,25372,1,0,0:0:0:0:
64,64,25842,1,0,0:0:0:0:
253,82,26156,1,0,0:0:0:0:
253,82,26235,1,0,0:0:0:0:
253,82,26313,1,8,0:0:0:0:
258,192,26470,1,0,0:0:0:0:
258,192,26549,1,8,0:0:0:0:
258,192,26627,1,8,0:0:0:0:
64,64,26784,1,0,0:0:0:0:
448,64,26941,1,8,0:0:0:0:
448,64,27255,1,8,0:0:0:0:
64,64,27412,1,0,0:0:0:0:
64,64,27569,1,0,0:0:0:0:
64,64,27726,1,0,0:0:0:0:
448,64,27882,1,8,0:0:0:0:
64,64,28039,1,0,0:0:0:0:
448,64,28196,1,8,0:0:0:0:
448,64,28353,1,8,0:0:0:0:
448,64,28667,1,8,0:0:0:0:
448,64,28824,1,8,0:0:0:0:
448,64,28981,1,8,0:0:0:0:
64,64,29138,1,0,0:0:0:0:
64,64,29609,1,0,0:0:0:0:
257,67,29922,1,0,0:0:0:0:
257,67,30001,1,0,0:0:0:0:
257,67,30079,1,8,0:0:0:0:
256,190,30236,1,0,0:0:0:0:
256,190,30315,1,8,0:0:0:0:
256,190,30393,1,8,0:0:0:0:
448,64,30550,1,0,0:0:0:0:
448,64,30707,1,8,0:0:0:0:
64,64,31021,1,8,0:0:0:0:
448,64,31178,1,8,0:0:0:0:
448,64,31335,1,0,0:0:0:0:
64,64,31492,1,0,0:0:0:0:
448,64,31649,1,8,0:0:0:0:
448,64,31806,1,8,0:0:0:0:
64,64,31963,1,0,0:0:0:0:
448,64,32119,1,8,0:0:0:0:
64,64,32276,1,0,0:0:0:0:
448,64,32590,1,8,0:0:0:0:
64,64,32747,1,8,0:0:0:0:
64,64,32904,1,0,0:0:0:0:
448,64,33061,1,0,0:0:0:0:
448,64,33218,1,8,0:0:0:0:
64,64,33375,1,0,0:0:0:0:
448,64,33532,1,8,0:0:0:0:
448,64,33689,1,8,0:0:0:0:
64,64,33846,1,0,0:0:0:0:
256,187,34003,1,8,0:0:0:0:
256,187,34081,1,0,0:0:0:0:
256,187,34159,1,0,0:0:0:0:
448,64,34316,1,0,0:0:0:0:
64,64,34473,1,8,0:0:0:0:
64,64,34630,1,8,0:0:0:0:
64,64,34787,1,0,0:0:0:0:
448,64,34944,1,0,0:0:0:0:
448,64,35101,1,8,0:0:0:0:
64,64,35258,1,8,0:0:0:0:
448,64,35415,1,0,0:0:0:0:
448,64,35572,1,0,0:0:0:0:
64,64,35729,1,8,0:0:0:0:
