osu file format v14

[General]
AudioFilename: audio.mp3
AudioLeadIn: 0
PreviewTime:42827
Countdown: 0
SampleSet: Soft
StackLeniency: 0.7
Mode: 0
LetterboxInBreaks: 0
WidescreenStoryboard: 1

[Editor]
Bookmarks: 17202,28452,30327,31264,31577,31889,32202,47202
DistanceSpacing: 1
BeatDivisor: 8
GridSize: 16
TimelineZoom: 1.6

[Metadata]
Title:Mizuumi
TitleUnicode:みずうみ
Artist:Ichinose Go
ArtistUnicode:一之瀬剛
Creator:Kingling
Version:Premier Ball
Source:ポケットモンスター ダイヤモンド・パール
Tags:diamond pearl platinum pokemon sinnoh region pokémon pocket monsters poketto monsuta electronic 8bit 8 bit instrumental eight nintendo DS lake deviouspanda verychill le mirai sirmirai cacturne jamesjan3 saltylucario saltking wanpachi video game
BeatmapID:3133613
BeatmapSetID:1532238

[Difficulty]
HPDrainRate:2
CircleSize:3
OverallDifficulty:2
ApproachRate:3
SliderMultiplier:1
SliderTickRate:1

[Events]
//Background and Video events
0,0,"IumHtZ4.jpeg",0,0
//Break Periods
//Storyboard Layer 0 (Background)
//Storyboard Layer 1 (Fail)
//Storyboard Layer 2 (Pass)
//Storyboard Layer 3 (Foreground)
//Storyboard Layer 4 (Overlay)
//Storyboard Sound Samples

[TimingPoints]
-12793,937.5,4,2,1,19,1,0
488,-50,4,2,1,22,0,0
644,-50,4,2,1,25,0,0
800,-50,4,2,1,28,0,0
956,-50,4,2,1,31,0,0
1113,-50,4,2,1,34,0,0
1269,-50,4,2,1,37,0,0
1425,-50,4,2,1,40,0,0
1581,-50,4,2,1,43,0,0
1738,-50,4,2,1,46,0,0
1894,-50,4,2,1,49,0,0
2050,-50,4,2,1,52,0,0
2206,-50,4,2,1,55,0,0
43457,-50,4,2,1,60,0,0
45332,-50,4,2,1,65,0,0
47207,312.5,4,2,1,70,1,1
47207,-149.253731343284,4,2,1,70,0,1
67207,937.5,4,2,1,60,1,0
67207,-50,4,2,1,60,0,0

[Colours]
Combo1 : 174,210,255
Combo2 : 215,255,170
Combo3 : 149,255,154
Combo4 : 164,255,255

[HitObjects]
3,328,2207,38,0,P|47:349|97:347,1,100,6|2,1:2|0:0,0:0:0:0:
153,265,3144,2,0,P|197:243|247:245,1,100,10|0,3:2|0:0,0:0:0:0:
323,311,4082,1,2,1:2:0:0:
508,236,5019,2,0,P|489:206|492:124,1,100,10|0,3:2|0:0,0:0:0:0:
496,43,5957,6,0,P|462:13|392:16,1,100,2|2,1:2|0:2,0:0:0:0:
328,67,6894,1,10,3:2:0:0:
214,8,7519,1,2,1:2:0:0:
214,8,7832,2,0,P|168:23|112:14,1,100,2|2,1:2|3:2,0:0:0:0:
19,33,8769,2,0,P|9:81|28:126,1,100,10|0,3:2|0:0,0:0:0:0:
122,161,9707,38,0,P|155:136|217:131,1,100,2|2,1:2|0:0,0:0:0:0:
299,178,10644,2,0,P|348:174|388:146,1,100,10|2,3:2|0:0,0:0:0:0:
481,108,11582,2,0,P|488:157|489:213,1,100,2|0,1:2|0:0,0:0:0:0:
500,307,12519,2,0,B|467:327|434:312|434:312|402:298|366:314,1,133.333333333333,10|0,3:2|0:0,0:0:0:0:
324,358,13457,6,0,P|289:372|226:356,1,100,2|2,1:2|1:2,0:0:0:0:
144,305,14394,2,0,P|109:291|46:307,1,100,10|0,3:2|0:0,0:0:0:0:
8,212,15332,1,2,1:2:0:0:
8,212,15644,2,0,L|4:141,1,66.6666666666667,2|2,0:0|1:2,0:0:0:0:
68,126,16269,1,8,3:2:0:0:
68,126,16582,2,0,L|72:55,1,66.6666666666667,0|0,1:2|1:0,0:0:0:0:
112,6,17207,38,0,B|170:0|198:46|198:46|231:106|301:83,1,200,6|10,1:2|3:2,0:0:0:0:
417,90,18769,1,2,1:2:0:0:
417,90,19082,2,0,P|399:134|394:195,1,100,2|0,1:2|0:0,0:0:0:0:
490,211,20019,2,0,P|508:255|510:299,1,66.6666666666667,10|0,3:2|1:0,0:0:0:0:
414,365,20957,2,0,B|355:365|330:321|330:321|308:279|242:282,1,200,6|10,1:2|3:2,0:0:0:0:
134,355,22519,1,2,1:2:0:0:
134,355,22832,2,0,P|90:350|50:305,1,100,2|2,1:2|3:2,0:0:0:0:
44,211,23769,2,0,P|78:187|110:185,1,66.6666666666667,10|0,3:2|1:2,0:0:0:0:
233,229,24707,5,6,3:2:0:0:
233,229,25019,2,0,P|292:259|356:247,1,133.333333333333,2|10,0:0|3:2,0:0:0:0:
494,241,26269,1,2,1:2:0:0:
494,241,26582,6,0,P|496:192|472:125,1,100,2|0,1:2|0:0,0:0:0:0:
468,44,27519,2,0,P|424:57|376:53,1,66.6666666666667,10|2,3:2|1:2,0:0:0:0:
276,17,28457,2,0,B|220:3|180:32|180:32|146:63|85:41,1,200,6|10,1:2|3:2,0:0:0:0:
14,155,30019,1,2,1:2:0:0:
14,155,30332,2,0,P|34:200|35:250,1,100,2|2,1:2|1:2,0:0:0:0:
30,350,31269,2,0,P|69:371|122:371,1,66.6666666666667,10|2,3:2|1:2,0:0:0:0:
128,319,31894,1,2,0:0:0:0:
128,319,32207,6,0,P|191:292|253:301,1,133.333333333333,6|2,1:2|0:2,0:0:0:0:
301,347,33144,1,8,3:2:0:0:
434,354,33769,1,0,1:0:0:0:
434,354,34082,2,0,B|448:328|434:290|434:290|422:253|435:215,1,133.333333333333,2|0,1:2|0:0,0:0:0:0:
466,166,35019,2,0,P|471:129|462:96,1,66.6666666666667,8|0,3:2|1:0,0:0:0:0:
365,10,35957,6,0,P|315:16|272:95,1,133.333333333333,6|2,1:2|0:0,0:0:0:0:
297,142,36894,1,8,3:2:0:0:
330,276,37519,1,0,1:0:0:0:
330,276,37832,2,0,P|315:323|261:358,1,100,2|0,1:2|1:0,0:0:0:0:
176,364,38769,2,0,P|137:358|88:371,1,66.6666666666667,8|0,3:2|1:0,0:0:0:0:
23,268,39707,37,6,1:2:0:0:
23,268,40019,2,0,P|7:216|31:141,1,133.333333333333,2|8,0:0|3:2,0:0:0:0:
15,14,41269,1,0,1:0:0:0:
15,14,41582,2,0,P|73:31|140:19,1,100,2|0,1:2|0:0,0:0:0:0:
211,19,42519,2,0,B|228:60|216:91|216:91|201:127|220:166,1,133.333333333333,8|2,3:2|0:0,0:0:0:0:
214,215,43457,5,6,1:2:0:0:
290,323,44082,1,2,0:0:0:0:
423,323,44707,1,0,1:0:0:0:
501,215,45332,1,0,1:0:0:0:
501,81,45957,2,0,P|471:52|395:42,1,100,2|2,1:2|3:2,0:0:0:0:
317,59,46894,1,2,0:0:0:0:
317,58,47207,6,0,P|269:75|220:69,1,100.499995246124,14|2,1:2|3:2,0:0:0:0:
129,30,48144,2,0,L|95:33,1,33.4999984153748,14|2,1:2|1:2,0:0:0:0:
39,70,48613,1,2,0:0:0:0:
87,156,49082,2,0,P|94:189|93:223,1,66.9999968307497,10|10,1:2|3:2,0:0:0:0:
67,284,49707,2,0,P|110:334|175:345,1,133.999993661499,14|10,1:2|0:0,0:0:0:0:
218,294,50644,2,0,L|251:298,1,33.4999984153748,14|2,1:2|1:2,0:0:0:0:
336,351,51269,1,10,3:2:0:0:
390,311,51582,2,0,P|389:277|395:244,1,66.9999968307497,10|10,3:2|0:0,0:0:0:0:
455,217,52207,6,0,P|464:151|447:86,1,133.999993661499,14|10,1:2|3:2,0:0:0:0:
403,37,53144,2,0,L|369:34,1,33.4999984153748,14|2,1:2|1:2,0:0:0:0:
309,63,53613,1,2,0:2:0:0:
218,105,54082,2,0,P|211:137|215:170,1,66.9999968307497,10|10,1:2|3:2,0:0:0:0:
263,214,54707,2,0,P|282:279|279:349,1,133.999993661499,14|10,1:2|3:2,0:0:0:0:
222,379,55644,2,0,L|184:371,1,33.4999984153748,14|2,1:2|1:2,0:0:0:0:
91,350,56269,1,10,3:2:0:0:
27,327,56582,2,0,P|43:297|47:264,1,66.9999968307497,14|10,1:2|3:2,0:0:0:0:
20,203,57207,6,0,P|17:136|45:76,1,133.999993661499,6|8,1:2|3:2,0:0:0:0:
104,46,58144,2,0,L|137:45,1,33.4999984153748,14|2,1:2|1:2,0:0:0:0:
199,69,58613,1,2,0:0:0:0:
290,28,59082,2,0,P|343:52|366:52,1,66.9999968307497,2|10,1:2|3:2,0:0:0:0:
416,40,59707,2,0,P|441:73|433:174,1,133.999993661499,6|10,1:2|3:2,0:0:0:0:
382,196,60644,2,0,L|384:229,1,33.4999984153748,6|0,1:2|1:0,0:0:0:0:
420,286,61113,1,2,3:2:0:0:
354,361,61582,2,0,P|324:346|290:341,1,66.9999968307497,10|10,3:2|3:2,0:0:0:0:
226,356,62207,6,0,P|194:298|197:232,1,133.999993661499,6|10,1:2|3:2,0:0:0:0:
251,192,63144,2,0,L|252:146,1,33.4999984153748,6|2,1:2|1:2,0:0:0:0:
214,103,63613,1,2,0:2:0:0:
140,34,64082,2,0,P|95:26|57:34,1,83.7499960384371,10|0,1:2|0:0,0:0:0:0:
18,64,64707,2,0,L|13:111,1,33.4999984153748,6|2,1:2|1:2,0:0:0:0:
46,156,65175,1,2,0:2:0:0:
106,236,65644,2,0,L|101:283,1,33.4999984153748,6|2,1:2|1:2,0:0:0:0:
67,326,66113,1,2,0:0:0:0:
162,354,66582,2,0,P|204:372|240:373,1,66.9999968307497,6|10,1:2|3:2,0:0:0:0:
283,342,67207,1,6,1:0:0:0:
256,192,67324,12,2,70957,0:0:0:0:
